<?xml version="1.0" standalone="no"?>
<!DOCTYPE svg PUBLIC "-//W3C//DTD SVG 1.1//EN" "http://www.w3.org/Graphics/SVG/1.1/DTD/svg11.dtd" >
<svg xmlns="http://www.w3.org/2000/svg" xmlns:xlink="http://www.w3.org/1999/xlink" version="1.1">
<metadata>
Created by FontForge 20161003 at Thu Aug 23 13:39:34 2018
 By www-data
Copyright(c) 2007 Linotype GmbH, www.linotype.com. All rights reserved.
</metadata>
<defs>
<font id="AvenirBookOblique" horiz-adv-x="556" >
  <font-face 
    font-family="AvenirBookOblique"
    font-weight="400"
    font-style="oblique"
    font-stretch="normal"
    units-per-em="1000"
    panose-1="2 0 5 3 2 0 0 2 0 3"
    ascent="800"
    descent="-200"
    x-height="468"
    cap-height="708"
    bbox="-167 -288 1044 940"
    underline-thickness="50"
    underline-position="-150"
    slope="-8"
    unicode-range="U+0020-FB02"
  />
<missing-glyph horiz-adv-x="512" 
d="M222 117v67h56v-67h-56zM225 234l-2 17q0 56 13 81q7 13 18 27.5t28 31.5q16 15 26 26.5t15 21t7 18t2 17.5q0 36 -22.5 60.5t-53.5 24.5t-53.5 -22t-28.5 -73l-50 8q7 72 44 104.5t91 32.5t89 -35.5t35 -95.5q0 -32 -12.5 -58.5t-50.5 -61.5q-37 -33 -43 -52
q-6 -20 -6 -72h-46zM462 50v617h-412v-617h412zM512 718v-718h-512v718h512z" />
    <glyph glyph-name=".notdef" horiz-adv-x="512" 
d="M222 117v67h56v-67h-56zM225 234l-2 17q0 56 13 81q7 13 18 27.5t28 31.5q16 15 26 26.5t15 21t7 18t2 17.5q0 36 -22.5 60.5t-53.5 24.5t-53.5 -22t-28.5 -73l-50 8q7 72 44 104.5t91 32.5t89 -35.5t35 -95.5q0 -32 -12.5 -58.5t-50.5 -61.5q-37 -33 -43 -52
q-6 -20 -6 -72h-46zM462 50v617h-412v-617h412zM512 718v-718h-512v718h512z" />
    <glyph glyph-name=".null" horiz-adv-x="0" 
 />
    <glyph glyph-name="nonmarkingreturn" horiz-adv-x="333" 
 />
    <glyph glyph-name="space" unicode=" " horiz-adv-x="278" 
 />
    <glyph glyph-name="exclam" unicode="!" horiz-adv-x="278" 
d="M200 48q-3 -21 -20.5 -37.5t-41.5 -16.5t-36.5 16.5t-9.5 37.5t20 37.5t41 16.5t37 -16.5t10 -37.5zM202 192h-72l73 516h72z" />
    <glyph glyph-name="quotedbl" unicode="&#x22;" horiz-adv-x="519" 
d="M402 708h60l-34 -235h-60zM257 708h60l-34 -235h-60z" />
    <glyph glyph-name="numbersign" unicode="#" 
d="M245 274h133l44 162h-133zM167 214h-102l9 60h110l44 162h-108l9 60h117l59 212h61l-59 -212h133l59 212h61l-59 -212h90l-9 -60h-99l-44 -162h95l-9 -60h-103l-60 -214h-61l60 214h-133l-60 -214h-61z" />
    <glyph glyph-name="dollar" unicode="$" 
d="M300 328q-33 10 -65 25.5t-56.5 38.5t-37 56t-6.5 79q6 43 27 78t51.5 60t67.5 39.5t74 17.5l10 70h48l-9 -68q36 0 63 -7t47.5 -19t35.5 -27.5t27 -31.5l-63 -48q-16 35 -49.5 51.5t-70.5 15.5l-37 -267q35 -13 69 -29.5t59.5 -41t38.5 -59t6 -83.5q-6 -42 -26.5 -76.5
t-51 -59.5t-70 -40t-82.5 -18l-10 -68h-48l9 66q-69 4 -120 35.5t-75 74.5l66 43q13 -21 30.5 -37t36.5 -27t37.5 -16.5t34.5 -5.5zM309 50q19 0 43 6t45.5 21t38 39.5t22.5 61.5q8 51 -24.5 84.5t-87.5 51.5zM346 657q-54 -4 -92.5 -40t-46.5 -88q-3 -26 4 -45t21 -33.5
t34.5 -25.5t44.5 -20z" />
    <glyph glyph-name="percent" unicode="%" horiz-adv-x="833" 
d="M213 -31l-49 27l556 743l47 -27zM758 163q3 25 -3 46t-20 36.5t-33.5 24t-43.5 8.5t-46 -8.5t-40 -24t-30.5 -36.5t-15.5 -46t3 -46t20 -36.5t33.5 -24t43.5 -8.5t46 8.5t40 24t30.5 36.5t15.5 46zM818 163q-5 -37 -23.5 -69t-45.5 -55.5t-61 -37t-71 -13.5t-67.5 13.5
t-50.5 37t-29 55.5t-4 69t23.5 69t45.5 55.5t61 37t71 13.5t67.5 -13.5t50.5 -37t29 -55.5t4 -69zM407 545q3 25 -3 46t-20 36.5t-33.5 24t-43.5 8.5t-46 -8.5t-40 -24t-30.5 -36.5t-15.5 -46q-4 -25 2.5 -46t20 -36.5t33 -24t43.5 -8.5t46 8.5t40 24t30.5 36.5t16.5 46z
M467 545q-5 -37 -23.5 -69t-45.5 -55.5t-61 -37t-71 -13.5t-67.5 13.5t-50.5 37t-29 55.5t-4 69t23 69t45 55.5t61 37t71 13.5t67.5 -13.5t50.5 -37t29.5 -55.5t4.5 -69z" />
    <glyph glyph-name="ampersand" unicode="&#x26;" horiz-adv-x="704" 
d="M303 348q-38 -20 -64.5 -37.5t-44.5 -37t-28 -41.5t-14 -49q-5 -30 3.5 -55t26 -42.5t42.5 -27.5t54 -10t53.5 8t47 22t43 33t40.5 41zM482 567q6 42 -19 67.5t-66 25.5q-45 0 -79.5 -28t-41.5 -76q-3 -18 3 -37.5t15 -36.5t19.5 -31.5t18.5 -21.5q22 12 46.5 24.5
t46.5 28.5t37.5 37t19.5 48zM552 164l136 -164h-102l-85 104q-52 -57 -107 -89.5t-127 -32.5q-44 0 -82.5 13.5t-65 39.5t-39.5 63.5t-6 85.5q5 39 23 71t43.5 57.5t57.5 45.5t66 35q-13 17 -25.5 36t-21 39.5t-12.5 43.5t0 47q5 40 23 71t45 52.5t60.5 32.5t71.5 11
q35 0 65 -10.5t50 -30.5t29.5 -49.5t4.5 -68.5q-5 -35 -23 -62.5t-43.5 -50t-56 -40t-59.5 -31.5l139 -168l121 168h81z" />
    <glyph glyph-name="quotesingle" unicode="'" horiz-adv-x="260" 
d="M200 708h60l-34 -235h-60z" />
    <glyph glyph-name="parenleft" unicode="(" horiz-adv-x="260" 
d="M351 702q-39 -51 -70.5 -99t-55.5 -97.5t-40 -102.5t-25 -115t-7.5 -114t11 -100t26.5 -95t41 -99l-58 -40q-54 94 -75 210t-4 238q17 116 70 233t138 215z" />
    <glyph glyph-name="parenright" unicode=")" horiz-adv-x="260" 
d="M-10 -126q39 51 70.5 99t55 97.5t39.5 102.5t25 115t8 114t-10.5 100t-26.5 95t-41 99l58 40q54 -94 74.5 -210t3.5 -238q-16 -116 -69 -233t-138 -215z" />
    <glyph glyph-name="asterisk" unicode="*" horiz-adv-x="444" 
d="M331 565l147 45l13 -56l-147 -45l73 -121l-54 -36l-74 124l-110 -124l-42 36l107 121l-135 45l29 56l133 -45l21 143h60z" />
    <glyph glyph-name="plus" unicode="+" horiz-adv-x="666" 
d="M410 333h225l-9 -60h-225l-31 -225h-60l31 225h-225l9 60h225l31 225h60z" />
    <glyph glyph-name="comma" unicode="," horiz-adv-x="278" 
d="M112 -140h-67l100 235h81z" />
    <glyph glyph-name="hyphen" unicode="-" horiz-adv-x="333" 
d="M324 207h-257l9 66h257z" />
    <glyph glyph-name="period" unicode="." horiz-adv-x="278" 
d="M200 48q-3 -21 -20.5 -37.5t-41.5 -16.5t-36.5 16.5t-9.5 37.5t20 37.5t41 16.5t37 -16.5t10 -37.5z" />
    <glyph glyph-name="slash" unicode="/" horiz-adv-x="370" 
d="M60 -18l-55 19l405 725l54 -20z" />
    <glyph glyph-name="zero" unicode="0" 
d="M370 654q-58 0 -96 -31t-61.5 -77t-35 -98t-17.5 -94t-8.5 -94t8 -98t39.5 -77t87 -31t95.5 31t61 77t35.5 98t18 94t8.5 94t-8 98t-39.5 77t-87 31zM379 720q76 0 118 -35t60.5 -89t18.5 -119q0 -64 -8 -123t-26 -123.5t-52 -118.5t-86 -89t-128 -35t-118 35t-60.5 89
t-18 118.5t8.5 123.5t26 123.5t51.5 118.5t85.5 89t128 35z" />
    <glyph glyph-name="one" unicode="1" 
d="M348 0h-72l87 618l-143 -112l-37 54l201 148h64z" />
    <glyph glyph-name="two" unicode="2" 
d="M498 0h-450l12 83l322 287q18 16 36.5 34t34.5 38t27 42t14 46q4 29 -3.5 52t-23.5 39t-40 24.5t-52 8.5q-54 0 -96 -30t-61 -81l-75 8q13 39 36 70.5t54 53.5t68 33.5t78 11.5q43 0 80 -11.5t63 -34.5t38.5 -57.5t6.5 -80.5q-6 -41 -23 -75t-41.5 -64t-54 -57t-59.5 -53
l-254 -221h372z" />
    <glyph glyph-name="three" unicode="3" 
d="M261 404h37q31 0 60.5 7t52.5 22.5t39 40.5t21 60q8 57 -22 88.5t-92 31.5q-45 0 -82 -20t-64 -58l-59 32q40 57 93.5 84.5t118.5 27.5q42 0 77.5 -12t60 -35.5t36 -58t5.5 -78.5q-4 -29 -17 -55t-32.5 -47t-43.5 -36.5t-49 -23.5l2 -2q30 -6 52.5 -22.5t37 -40.5t20 -54
t1.5 -63q-7 -49 -30.5 -87t-58 -64t-77.5 -39.5t-89 -13.5q-78 0 -131 34t-72 109l80 23q11 -51 43 -75.5t96 -24.5q30 0 58.5 10t51 28.5t38 44.5t19.5 57q6 40 -5.5 67.5t-34 44.5t-53.5 24.5t-66 7.5h-31z" />
    <glyph glyph-name="four" unicode="4" 
d="M433 636h-2l-300 -402h246zM449 234h102l-9 -66h-102l-24 -168h-72l24 168h-306l11 82l351 458h20h72z" />
    <glyph glyph-name="five" unicode="5" 
d="M555 642h-290l-34 -213q24 9 49 13t49 4q50 0 88.5 -17t64 -47.5t36 -72t3.5 -90.5q-7 -51 -31 -93.5t-60.5 -73t-82.5 -47.5t-97 -17q-67 0 -116.5 32t-69.5 94l75 31q15 -42 47.5 -66.5t79.5 -24.5q34 0 64.5 12.5t55 33.5t41 50t21.5 62q5 37 -3.5 68t-29 53.5
t-50.5 34.5t-68 12t-77 -10.5t-75 -28.5l59 367h70h291z" />
    <glyph glyph-name="six" unicode="6" 
d="M149 207q-5 -34 3 -62t26 -48.5t45.5 -31.5t62.5 -11t65.5 11t54 31.5t39 48.5t20.5 62t-2.5 62t-25.5 48t-45.5 31.5t-62.5 11.5t-65.5 -11.5t-54.5 -31.5t-39.5 -48t-20.5 -62zM249 404l1 -2q20 12 49 18t53 6q46 0 83.5 -16.5t62 -45.5t35.5 -69t4 -88q-7 -49 -30 -89
t-57.5 -69t-79 -45t-94.5 -16t-90 16t-66.5 45t-38 69t-4.5 89q8 59 32 103t56 87l235 311h85z" />
    <glyph glyph-name="seven" unicode="7" 
d="M564 642l-375 -642h-81l381 642h-345l10 66h420z" />
    <glyph glyph-name="eight" unicode="8" 
d="M458 199q4 31 -3 57.5t-24 46t-44 30.5t-61 11q-35 0 -64.5 -11t-52 -30.5t-37 -46t-18.5 -57.5q-5 -31 2.5 -57.5t24.5 -46t43.5 -30.5t61.5 -11q34 0 63.5 11t52 30.5t37 46t19.5 57.5zM478 529q8 55 -23 90t-85 35q-27 0 -51 -9.5t-43.5 -26t-32.5 -39.5t-17 -50
t2.5 -50t21.5 -39.5t36.5 -26t48.5 -9.5q54 0 94.5 35t48.5 90zM239 377q-22 8 -39.5 23.5t-28.5 36.5t-15.5 46t-0.5 52q6 42 27 76.5t51.5 58.5t68 37t77.5 13t74 -13t58 -37t35 -58.5t5 -76.5q-8 -54 -43.5 -98t-84.5 -60v-2q57 -16 86.5 -66t19.5 -120q-7 -46 -30.5 -83
t-58 -63.5t-77 -40.5t-87.5 -14t-83.5 14t-65.5 40.5t-40 63.5t-6 83q10 70 53 120t105 66v2z" />
    <glyph glyph-name="nine" unicode="9" 
d="M506 501q5 34 -2.5 62t-25.5 48t-45.5 31.5t-62.5 11.5t-65.5 -11.5t-54.5 -31.5t-39.5 -48t-20.5 -62t3 -62t26 -48.5t45.5 -31.5t62.5 -11t65.5 11t54.5 31.5t39 48.5t20 62zM407 304l-2 2q-19 -12 -48 -18t-53 -6q-46 0 -83.5 16.5t-62 45.5t-35.5 69t-5 88
q7 49 30 89t57.5 69t79 45t94.5 16t90 -16t66.5 -45t38 -69t4.5 -89q-8 -59 -31.5 -103t-55.5 -87l-235 -311h-85z" />
    <glyph glyph-name="colon" unicode=":" horiz-adv-x="278" 
d="M200 48q-3 -21 -20.5 -37.5t-41.5 -16.5t-36.5 16.5t-9.5 37.5t20 37.5t41 16.5t37 -16.5t10 -37.5zM252 419q-3 -21 -20.5 -37.5t-41.5 -16.5t-36.5 16.5t-9.5 37.5t20 37.5t41 16.5t37 -16.5t10 -37.5z" />
    <glyph glyph-name="semicolon" unicode=";" horiz-adv-x="278" 
d="M261 419q-3 -21 -20.5 -37.5t-41.5 -16.5t-36.5 16.5t-9.5 37.5t20 37.5t41 16.5t37 -16.5t10 -37.5zM112 -140h-67l100 235h81z" />
    <glyph glyph-name="less" unicode="&#x3c;" horiz-adv-x="666" 
d="M659 504l-457 -201l400 -201l-8 -60l-477 238l7 46l543 238z" />
    <glyph glyph-name="equal" unicode="=" horiz-adv-x="666" 
d="M624 258l-8 -60h-510l8 60h510zM645 408l-8 -60h-510l8 60h510z" />
    <glyph glyph-name="greater" unicode="&#x3e;" horiz-adv-x="666" 
d="M157 564l477 -238l-7 -46l-543 -238l8 60l458 201l-401 201z" />
    <glyph glyph-name="question" unicode="?" horiz-adv-x="482" 
d="M307 48q-3 -21 -20.5 -37.5t-41.5 -16.5t-36.5 16.5t-9.5 37.5t20 37.5t41 16.5t37 -16.5t10 -37.5zM303 192h-72l12 83q4 27 19.5 49.5t36 42t44 37.5t44 38.5t36 43.5t19.5 53q7 51 -21 83t-80 32q-51 0 -88.5 -30t-53.5 -79l-74 9q23 79 84.5 122.5t139.5 43.5
q40 0 73 -11.5t55.5 -33.5t33 -55t4.5 -75t-22 -71t-37 -50.5t-44.5 -38.5t-44.5 -36.5t-36.5 -44.5t-20.5 -61z" />
    <glyph glyph-name="at" unicode="@" horiz-adv-x="800" 
d="M637 550h56l-123 -282q-6 -13 -10.5 -26.5t-6.5 -24.5q-1 -8 4.5 -14t16.5 -6q26 0 55.5 18.5t55.5 49t45 69.5t25 81q8 57 -9.5 104t-52 81t-82.5 53t-100 19q-65 0 -125.5 -26.5t-109.5 -70.5t-81.5 -101.5t-41.5 -119.5t7.5 -119.5t53.5 -101.5t90 -70.5t118 -26.5
q37 0 74.5 8t73 24t67 38t55.5 51h63q-30 -41 -68.5 -73.5t-83 -55t-92.5 -34.5t-97 -12q-77 0 -140.5 28.5t-107.5 79t-64 118.5t-9 146t50 146t97 118.5t130 79t149 28.5q69 0 128 -22.5t99.5 -63.5t59.5 -97.5t10 -123.5q-9 -65 -39.5 -117t-70.5 -89t-83 -56.5
t-77 -19.5q-62 0 -61 59h-2q-27 -24 -58 -41.5t-76 -17.5q-64 0 -97 41.5t-24 108.5q7 52 31 102.5t60.5 90.5t83 64.5t99.5 24.5q37 0 65 -18t37 -64h2zM560 409q6 43 -14 71.5t-52 28.5q-37 -2 -70.5 -22.5t-60.5 -52t-45 -69t-23 -72.5q-6 -42 17 -69t64 -27
q33 0 64 21.5t56.5 53.5t42.5 69t21 68z" />
    <glyph glyph-name="A" unicode="A" horiz-adv-x="686" 
d="M224 252h307l-100 372zM84 0h-84l408 708h70l208 -708h-84l-52 186h-362z" />
    <glyph glyph-name="B" unicode="B" horiz-adv-x="630" 
d="M177 66h138q39 0 74 8t62.5 24.5t45.5 41.5t23 60q10 70 -30 104t-127 34h-147zM224 398h145q26 0 52.5 6.5t49 21.5t38.5 38.5t21 57.5q1 11 -0.5 31t-14 40t-40.5 34.5t-79 14.5h-138zM196 708h71h140q44 0 83.5 -9t68.5 -30t43 -55t7 -84q-8 -58 -46.5 -99.5
t-99.5 -55.5l-1 -2q74 -6 110.5 -52.5t25.5 -124.5q-2 -11 -8 -30t-18.5 -41t-33.5 -44t-52 -40t-74 -29.5t-100 -11.5h-144h-72z" />
    <glyph glyph-name="C" unicode="C" horiz-adv-x="704" 
d="M695 112q-22 -27 -52 -51t-66.5 -41.5t-77.5 -27.5t-85 -10q-79 0 -142.5 28t-106 77.5t-60.5 117.5t-7 149t48.5 149t94 117.5t128 77.5t150.5 28q33 0 65.5 -6.5t62.5 -20t56 -34.5t45 -51l-69 -47q-8 17 -25 34t-39.5 30t-49.5 21t-55 8q-68 0 -125.5 -25t-101 -67
t-71 -97.5t-36.5 -116.5t3.5 -116.5t44 -97.5t82 -67t118.5 -25q28 0 56.5 5t56 17t54.5 32.5t51 51.5z" />
    <glyph glyph-name="D" unicode="D" horiz-adv-x="741" 
d="M167 66h140q81 0 144 24.5t108 65t71.5 92t34.5 106.5q7 55 -4.5 106.5t-45.5 92t-90 65t-137 24.5h-140zM186 708h72h163q66 0 129.5 -22t110.5 -66.5t70.5 -111t11.5 -154.5q-12 -89 -55 -155t-102 -110.5t-129 -66.5t-136 -22h-163h-72z" />
    <glyph glyph-name="E" unicode="E" horiz-adv-x="593" 
d="M177 66h379l-9 -66h-379h-72l100 708h71h368l-10 -66h-367l-34 -241h343l-9 -66h-343z" />
    <glyph glyph-name="F" unicode="F" 
d="M168 0h-72l100 708h72h355l-10 -66h-355l-34 -241h330l-9 -66h-330z" />
    <glyph glyph-name="G" unicode="G" horiz-adv-x="778" 
d="M700 578q-31 38 -77.5 60t-112.5 22q-68 0 -125.5 -25t-101 -67t-71 -97.5t-36.5 -116.5t3.5 -116.5t44 -97.5t82 -67t118.5 -25q55 0 107.5 13.5t95.5 36.5l33 237h-169l9 66h169h72l-48 -347q-65 -35 -139.5 -53.5t-139.5 -18.5q-79 0 -142.5 28t-106 77.5t-60.5 117.5
t-7 149t48.5 149t94 117.5t128 77.5t150.5 28q85 0 143.5 -23.5t99.5 -71.5z" />
    <glyph glyph-name="H" unicode="H" horiz-adv-x="722" 
d="M196 708h72l-44 -307h386l44 307h72l-100 -708h-72l47 335h-386l-47 -335h-72z" />
    <glyph glyph-name="I" unicode="I" horiz-adv-x="264" 
d="M168 0h-72l100 708h72z" />
    <glyph glyph-name="J" unicode="J" horiz-adv-x="482" 
d="M107 145q4 -45 27.5 -71t71.5 -26q39 0 65.5 15.5t43.5 40t26 56t14 64.5l69 484h72l-73 -514q-5 -36 -20 -73.5t-42.5 -68t-68.5 -50.5t-98 -20q-73 0 -116.5 37.5t-45.5 110.5z" />
    <glyph glyph-name="K" unicode="K" horiz-adv-x="630" 
d="M224 401h1h9l377 307h103l-403 -321l323 -387h-106l-297 365h-11h-1l-51 -365h-72l100 708h72z" />
    <glyph glyph-name="L" unicode="L" horiz-adv-x="500" 
d="M177 66h330l-9 -66h-330h-72l100 708h72z" />
    <glyph glyph-name="M" unicode="M" horiz-adv-x="890" 
d="M464 132l320 576h37h73l-100 -708h-72l86 612h-2l-342 -612h-38l-170 612h-2l-86 -612h-72l100 708h71h39z" />
    <glyph glyph-name="N" unicode="N" horiz-adv-x="778" 
d="M623 108h2l85 600h72l-100 -708h-72h-18l-337 606h-2l-85 -606h-72l100 708h71h19z" />
    <glyph glyph-name="O" unicode="O" horiz-adv-x="834" 
d="M758 354q9 61 -3.5 116.5t-44 97.5t-82 67t-118.5 25t-125.5 -25t-101 -67t-71 -97.5t-36.5 -116.5t3.5 -116.5t44 -97.5t82 -67t118.5 -25t125.5 25t101 67t71 97.5t36.5 116.5zM836 354q-11 -81 -49 -149t-94.5 -117.5t-128 -77.5t-150.5 -28t-142.5 28t-106 77.5
t-60.5 117.5t-7 149t48.5 149t94 117.5t128 77.5t150.5 28t142.5 -28t106 -77.5t61 -117.5t7.5 -149z" />
    <glyph glyph-name="P" unicode="P" horiz-adv-x="574" 
d="M224 395h116q48 0 82.5 10t57 26.5t34.5 39t16 48.5q3 25 -2.5 47.5t-23.5 39.5t-50 26.5t-80 9.5h-116zM196 708h69h137q108 0 163.5 -47t42.5 -142q-14 -96 -82.5 -143t-177.5 -47h-134l-46 -329h-72z" />
    <glyph glyph-name="Q" unicode="Q" horiz-adv-x="834" 
d="M811 0h-405q-77 0 -138.5 27t-102.5 75.5t-59 115t-7 145.5t47.5 145.5t91.5 115t124 75.5t146 27q76 0 138 -27t103 -75.5t58.5 -115t6.5 -145.5q-14 -96 -64 -172.5t-143 -122.5l-1 -2h214zM177 363q-8 -59 3.5 -112.5t41.5 -94.5t78.5 -65.5t114.5 -24.5
q65 0 120.5 24.5t97 65.5t68.5 94.5t35 112.5t-3.5 112.5t-41.5 94.5t-78.5 65.5t-113.5 24.5q-66 0 -121 -24.5t-97 -65.5t-69 -94.5t-35 -112.5z" />
    <glyph glyph-name="R" unicode="R" horiz-adv-x="593" 
d="M224 395h128q48 0 82.5 10t57 26.5t34.5 39t16 48.5q3 25 -2.5 47.5t-23.5 39.5t-50 26.5t-80 9.5h-128zM168 0h-72l100 708h71h147q108 0 163.5 -47t42.5 -142q-11 -74 -64.5 -124.5t-142.5 -58.5l157 -336h-88l-148 329h-120z" />
    <glyph glyph-name="S" unicode="S" 
d="M514 591q-36 69 -127 69q-28 0 -56 -7.5t-51.5 -23t-40.5 -40t-21 -57.5q-5 -36 7 -59.5t35.5 -39.5t54.5 -27t63.5 -22.5t63 -25.5t53 -36t33.5 -54.5t4 -80.5t-33 -86.5t-63 -64.5t-80.5 -40t-85.5 -14q-65 0 -120 24.5t-88 80.5l72 47q17 -39 55 -62.5t94 -23.5
q27 0 55 8.5t52 25t41 40.5t22 55q5 37 -7 61.5t-35.5 41t-54.5 27.5t-63.5 22t-63 25t-53 35.5t-33.5 54t-4 81.5q7 51 32 89t60.5 63t78.5 37t86 12q60 0 106.5 -19t81.5 -67z" />
    <glyph glyph-name="T" unicode="T" horiz-adv-x="574" 
d="M323 0h-72l90 642h-237l10 66h235h73h238l-10 -66h-237z" />
    <glyph glyph-name="U" unicode="U" horiz-adv-x="686" 
d="M639 264q-6 -44 -23.5 -93.5t-52.5 -91.5t-89.5 -69.5t-133.5 -27.5q-80 0 -126 27.5t-69 69.5t-26.5 91.5t2.5 93.5l63 444h72l-62 -436q-7 -51 -2 -87.5t18 -61.5t31.5 -39.5t38 -22.5t38 -10.5t32.5 -2.5q20 0 53 6.5t66 29t60.5 67t38.5 121.5l62 436h72z" />
    <glyph glyph-name="V" unicode="V" horiz-adv-x="611" 
d="M317 108h2l317 600h78l-376 -708h-72l-169 708h80z" />
    <glyph glyph-name="W" unicode="W" horiz-adv-x="944" 
d="M264 102h2l264 606h86l92 -606h2l254 606h80l-309 -708h-84l-93 606h-2l-263 -606h-84l-109 708h80z" />
    <glyph glyph-name="X" unicode="X" horiz-adv-x="630" 
d="M376 425l238 283h90l-288 -336l208 -372h-95l-171 321l-262 -321h-90l311 372l-191 336h97z" />
    <glyph glyph-name="Y" unicode="Y" horiz-adv-x="574" 
d="M323 0h-72l43 305l-208 403h90l164 -334l258 334h90l-322 -403z" />
    <glyph glyph-name="Z" unicode="Z" 
d="M618 648l-495 -582h419l-9 -66h-510l8 60l496 582h-408l10 66h498z" />
    <glyph glyph-name="bracketleft" unicode="[" horiz-adv-x="260" 
d="M322 678h-96l-109 -780h96l-8 -54h-97h-65l125 888h65h97z" />
    <glyph glyph-name="backslash" unicode="\" horiz-adv-x="370" 
d="M104 706l60 20l201 -725l-61 -19z" />
    <glyph glyph-name="bracketright" unicode="]" horiz-adv-x="260" 
d="M19 -102h96l109 780h-96l8 54h97h65l-125 -888h-65h-97z" />
    <glyph glyph-name="asciicircum" unicode="^" horiz-adv-x="666" 
d="M409 708h48l168 -433h-62l-141 361l-241 -361h-62z" />
    <glyph glyph-name="underscore" unicode="_" horiz-adv-x="500" 
d="M-11 -75h500l-7 -50h-500z" />
    <glyph glyph-name="grave" unicode="`" horiz-adv-x="240" 
d="M90 708h91l79 -144h-59z" />
    <glyph glyph-name="a" unicode="a" horiz-adv-x="519" 
d="M371 233q-25 0 -62.5 -2.5t-73.5 -12t-63.5 -29.5t-32.5 -55q-3 -23 4 -39.5t21.5 -27t33.5 -15t39 -4.5q36 0 64.5 12t48.5 32.5t32.5 48t17.5 58.5l5 34h-34zM412 287l2 12q16 121 -103 121q-82 0 -151 -55l-33 47q37 33 89 50.5t118 17.5q34 0 64 -10t50.5 -30.5
t30 -51.5t3.5 -74l-29 -209q-4 -27 -5.5 -56.5t-1.5 -48.5h-64q-1 17 0.5 37t4.5 39h-2q-35 -47 -78 -67.5t-100 -20.5q-31 0 -59 8.5t-47.5 26t-29.5 43t-5 59.5q8 57 42 89.5t80.5 48.5t97.5 20t93 4h33z" />
    <glyph glyph-name="b" unicode="b" horiz-adv-x="611" 
d="M532 234q6 39 -2 73t-27.5 59t-50 39.5t-71.5 14.5t-77 -14.5t-64.5 -39.5t-47 -59t-24.5 -73t3.5 -73t31 -59t53.5 -39.5t73 -14.5t75.5 14.5t61 39.5t43.5 59t23 73zM178 756h66l-51 -366h2q19 24 43.5 41t50 28t51.5 16t49 5q55 0 98 -18.5t71.5 -51.5t40.5 -78t5 -98
q-8 -53 -32.5 -98t-62 -78t-86 -51.5t-103.5 -18.5q-23 0 -47.5 5t-47.5 16t-42 28t-32 41h-2l-11 -78h-66z" />
    <glyph glyph-name="c" unicode="c" horiz-adv-x="482" 
d="M463 358q-13 26 -41 44t-67 18q-41 1 -75.5 -13t-61 -39t-43 -59.5t-22.5 -74.5t1.5 -74.5t26.5 -59.5t50 -39t72 -13q39 0 72 18t53 44l49 -41q-41 -41 -88 -60.5t-95 -20.5q-57 -1 -100.5 17.5t-71 51.5t-38.5 78.5t-3 98.5q7 53 31 98.5t60.5 78.5t85 51.5t105.5 17.5
q48 -1 89.5 -20.5t70.5 -60.5z" />
    <glyph glyph-name="d" unicode="d" horiz-adv-x="611" 
d="M145 234q-6 -39 1.5 -73t27 -59t50.5 -39.5t72 -14.5q40 0 76.5 14.5t65 39.5t47 59t24.5 73t-3.5 73t-31 59t-54 39.5t-72.5 14.5q-41 0 -75.5 -14.5t-61 -39.5t-43.5 -59t-23 -73zM539 0h-66l11 78h-2q-20 -24 -44 -41t-50 -28t-52 -16t-49 -5q-55 0 -98 18.5
t-71.5 51.5t-40.5 78t-4 98q7 53 32 98t62.5 78t85.5 51.5t103 18.5q23 0 48 -5t47.5 -16t42 -28t32.5 -41h2l51 366h66z" />
    <glyph glyph-name="e" unicode="e" 
d="M474 270q9 67 -25 108.5t-106 41.5q-32 0 -63.5 -12.5t-57 -33.5t-43 -48t-21.5 -56h316zM148 216q-2 -35 8 -66t29.5 -53.5t48 -35.5t63.5 -13q53 0 95 24.5t66 56.5l45 -42q-49 -53 -103 -76t-112 -23q-52 0 -93.5 18.5t-69.5 51.5t-40 78t-4 98q7 53 31.5 98t61 78
t82 51.5t95.5 18.5q53 0 92.5 -19t63.5 -50.5t33.5 -74t2.5 -90.5l-5 -30h-390z" />
    <glyph glyph-name="f" unicode="f" horiz-adv-x="296" 
d="M347 408h-111l-57 -408h-66l57 408h-99l9 60h99l18 128q13 93 61.5 132.5t119.5 39.5q14 0 28 -2t28 -5l-20 -60q-12 3 -24.5 5t-25.5 2q-27 0 -45.5 -9t-29.5 -25.5t-17.5 -38.5t-9.5 -47l-17 -120h111z" />
    <glyph glyph-name="g" unicode="g" horiz-adv-x="611" 
d="M154 240q-5 -37 3.5 -69.5t28.5 -57t49.5 -39t66.5 -14.5q36 0 70.5 13t62.5 36.5t47 56.5t23 74q5 37 -2.5 69.5t-27 57t-50.5 39t-72 14.5q-37 0 -70.5 -14.5t-60.5 -39t-45 -57t-23 -69.5zM95 -94q23 -39 66.5 -62.5t100.5 -23.5q50 0 87 14.5t62 39.5t39 58.5
t20 71.5l11 84h-2q-38 -48 -87 -68t-100 -20t-93 18t-70.5 49.5t-41.5 75.5t-6 95t31.5 95t60.5 77t82 51.5t98 18.5q21 0 44 -4t45 -14t42.5 -27.5t37.5 -44.5h2l11 78h66l-65 -464q-6 -38 -21.5 -81t-48 -79t-85 -60t-131.5 -24q-137 0 -212 94z" />
    <glyph glyph-name="h" unicode="h" 
d="M178 756h66l-51 -363h2q13 19 32.5 35t42 27.5t47 18t47.5 6.5q90 0 126.5 -47.5t24.5 -135.5l-42 -297h-66l36 259q6 39 4 69t-13.5 50.5t-34.5 31t-60 10.5q-5 0 -28.5 -4t-51.5 -22t-53 -54t-34 -100l-34 -240h-66z" />
    <glyph glyph-name="i" unicode="i" horiz-adv-x="240" 
d="M259 648q-3 -21 -20 -34.5t-35 -13.5t-31 13.5t-10 34.5t20 34.5t35 13.5t31 -13.5t10 -34.5zM153 0h-66l66 468h66z" />
    <glyph glyph-name="j" unicode="j" horiz-adv-x="240" 
d="M259 648q-3 -21 -20 -34.5t-35 -13.5t-31 13.5t-10 34.5t20 34.5t35 13.5t31 -13.5t10 -34.5zM-46 -173l3 -1q8 -2 17 -4t17 -2q24 0 39.5 9t24.5 23.5t13.5 31.5t6.5 34l78 550h66l-79 -561q-2 -10 -6 -34.5t-19.5 -49.5t-45.5 -44t-82 -19q-27 0 -50 10z" />
    <glyph glyph-name="k" unicode="k" horiz-adv-x="482" 
d="M174 257l251 211h99l-263 -214l222 -254h-102l-208 246l-35 -246h-66l106 756h66z" />
    <glyph glyph-name="l" unicode="l" horiz-adv-x="240" 
d="M153 0h-66l106 756h66z" />
    <glyph glyph-name="m" unicode="m" horiz-adv-x="852" 
d="M123 364q4 26 6 52l4 52h71l-10 -71h2q15 20 34 35.5t40.5 26t44 16t43.5 5.5q19 0 40 -4t39.5 -14.5t33.5 -29.5t23 -49q13 22 32 40t41 31t46 19.5t48 6.5q90 0 126.5 -47.5t24.5 -135.5l-42 -297h-66l38 273q5 36 3.5 63t-12.5 46t-32.5 28.5t-55.5 9.5
q-37 0 -64 -14.5t-46 -38.5t-30.5 -54.5t-15.5 -63.5l-35 -249h-66l38 273q5 36 3.5 63t-12.5 46t-32.5 28.5t-55.5 9.5q-6 0 -28 -4t-47.5 -22t-49 -54t-32.5 -100l-34 -240h-66z" />
    <glyph glyph-name="n" unicode="n" 
d="M201 468q-1 -19 -3 -37.5t-5 -37.5h2q13 19 32.5 35t42 27.5t47 18t47.5 6.5q90 0 126.5 -47.5t24.5 -135.5l-42 -297h-66l36 259q6 39 4 69t-13.5 50.5t-34.5 31t-60 10.5q-5 0 -28.5 -4t-51.5 -22t-53 -54t-34 -100l-34 -240h-66l51 365q3 19 5.5 48t4.5 55h68z" />
    <glyph glyph-name="o" unicode="o" horiz-adv-x="593" 
d="M506 234q6 39 -2 73t-27.5 59t-50 39.5t-71.5 14.5t-75.5 -14.5t-60.5 -39.5t-43 -59t-23 -73t1.5 -73t27 -59t50 -39.5t71.5 -14.5t75.5 14.5t61 39.5t43.5 59t23 73zM578 234q-8 -53 -32.5 -98t-62 -78t-86 -51.5t-103.5 -18.5q-54 0 -97 18.5t-71.5 51.5t-40.5 78
t-4 98q7 53 32 98t62.5 78t85.5 51.5t102 18.5q55 0 98 -18.5t71.5 -51.5t40.5 -78t5 -98z" />
    <glyph glyph-name="p" unicode="p" horiz-adv-x="611" 
d="M532 234q6 39 -2 73t-27.5 59t-50 39.5t-71.5 14.5t-77 -14.5t-64.5 -39.5t-47 -59t-24.5 -73t3.5 -73t31 -59t53.5 -39.5t73 -14.5t75.5 14.5t61 39.5t43.5 59t23 73zM138 468h66l-11 -78h2q19 24 43.5 41t50 28t51.5 16t49 5q55 0 98 -18.5t71.5 -51.5t40.5 -78t5 -98
q-8 -53 -32.5 -98t-62 -78t-86 -51.5t-103.5 -18.5q-23 0 -47.5 5t-47.5 16t-42 28t-32 41h-2l-51 -366h-66z" />
    <glyph glyph-name="q" unicode="q" horiz-adv-x="611" 
d="M145 234q-6 -39 1.5 -73t27 -59t50.5 -39.5t72 -14.5q40 0 76.5 14.5t65 39.5t47 59t24.5 73t-3.5 73t-31 59t-54 39.5t-72.5 14.5q-41 0 -75.5 -14.5t-61 -39.5t-43.5 -59t-23 -73zM499 -288h-66l51 366h-2q-20 -24 -44 -41t-50 -28t-52 -16t-49 -5q-55 0 -98 18.5
t-71.5 51.5t-40.5 78t-4 98q7 53 32 98t62.5 78t85.5 51.5t103 18.5q23 0 48 -5t47.5 -16t42 -28t32.5 -41h2l11 78h66z" />
    <glyph glyph-name="r" unicode="r" horiz-adv-x="332" 
d="M124 322q4 31 7.5 63t9.5 83h65l-12 -87h2q10 19 25 36.5t35.5 31.5t46 22.5t56.5 8.5q28 0 49 -6l-23 -65q-12 5 -37 5q-38 0 -67 -14.5t-50 -37t-33.5 -48.5t-15.5 -50l-37 -264h-66z" />
    <glyph glyph-name="s" unicode="s" horiz-adv-x="426" 
d="M370 357q-11 29 -33.5 46t-58.5 17q-17 0 -35 -4t-33 -12.5t-25.5 -21.5t-13.5 -32q-5 -33 16 -48t66 -26l65 -16q47 -11 75 -44.5t21 -83.5q-6 -38 -25.5 -65.5t-47.5 -45t-62 -25.5t-68 -8q-54 0 -97.5 20.5t-69.5 70.5l63 39q16 -32 43.5 -51t69.5 -19q20 0 40.5 4.5
t37.5 14t28.5 24.5t14.5 35q2 18 -3 30t-16 20.5t-26.5 14t-33.5 10.5l-62 15q-12 3 -31 10t-36.5 21t-28.5 36.5t-6 55.5q5 36 23 63t44.5 44t59 25.5t65.5 8.5q49 0 88.5 -19t56.5 -65z" />
    <glyph glyph-name="t" unicode="t" horiz-adv-x="332" 
d="M371 408h-135l-38 -276q-4 -26 -1.5 -42.5t10 -25.5t20 -12.5t27.5 -3.5q17 0 35.5 5t34.5 13l-5 -61q-40 -17 -92 -17q-19 0 -38.5 5t-34.5 19t-23 38t-2 63l41 295h-99l9 60h99l18 132h66l-18 -132h135z" />
    <glyph glyph-name="u" unicode="u" 
d="M410 0q1 19 3 37.5t5 37.5h-2q-14 -19 -33.5 -35t-42 -27.5t-47 -18t-47.5 -6.5q-90 0 -126 47.5t-24 135.5l42 297h66l-37 -259q-5 -39 -3 -69t13.5 -50.5t34.5 -31t60 -10.5q3 0 15.5 1.5t29 7t35.5 17t36.5 31.5t31 50t19.5 73l34 240h66l-52 -365q-2 -19 -4.5 -48
t-4.5 -55h-68z" />
    <glyph glyph-name="v" unicode="v" horiz-adv-x="482" 
d="M278 0h-74l-124 468h79l93 -394h2l205 394h75z" />
    <glyph glyph-name="w" unicode="w" horiz-adv-x="722" 
d="M158 468l54 -380h2l179 380h68l71 -380h2l162 380h78l-214 -468h-74l-70 384h-2l-178 -384h-74l-82 468h78z" />
    <glyph glyph-name="x" unicode="x" horiz-adv-x="482" 
d="M228 250l-139 218h90l105 -175l149 175h82l-194 -218l161 -250h-90l-128 205l-180 -205h-84z" />
    <glyph glyph-name="y" unicode="y" horiz-adv-x="482" 
d="M257 81l198 387h80l-317 -590q-29 -54 -66 -86t-98 -32q-15 0 -30.5 1t-29.5 6l16 64q11 -6 23 -8.5t26 -2.5q35 0 58 22t44 62l46 90l-125 474h83z" />
    <glyph glyph-name="z" unicode="z" horiz-adv-x="426" 
d="M452 420l-325 -360h284l-8 -60h-380l7 48l324 360h-260l9 60h356z" />
    <glyph glyph-name="braceleft" unicode="{" horiz-adv-x="260" 
d="M57 318q34 0 65 29t39 82l25 178q5 35 17.5 59t29.5 38.5t37.5 21t41.5 6.5h64l-9 -60h-56q-18 0 -29.5 -7.5t-17.5 -19.5t-9 -27t-5 -29l-24 -172q-5 -36 -19.5 -60.5t-31 -39t-32 -21t-24.5 -7.5l-1 -2q9 -1 23 -7.5t26.5 -21t19.5 -39t2 -60.5l-24 -172q-2 -14 -3 -29
t2 -27t12.5 -19.5t27.5 -7.5h56l-9 -60h-64q-21 0 -40 6.5t-31.5 21t-18 38.5t-0.5 59l25 178q3 26 -1.5 46.5t-15 35t-25.5 22t-32 7.5z" />
    <glyph glyph-name="bar" unicode="|" horiz-adv-x="222" 
d="M187 756h60l-109 -774h-60z" />
    <glyph glyph-name="braceright" unicode="}" horiz-adv-x="260" 
d="M284 258q-34 0 -65.5 -29t-38.5 -82l-25 -178q-5 -35 -17.5 -59t-29.5 -38.5t-37.5 -21t-41.5 -6.5h-64l9 60h56q18 0 29.5 7.5t17.5 19.5t9 27t5 29l24 172q5 36 19.5 60.5t31 39t32 21t24.5 7.5l1 2q-9 1 -23 7.5t-26.5 21t-19.5 39t-2 60.5l24 172q2 14 3 29t-2 27
t-12.5 19.5t-27.5 7.5h-56l9 60h64q21 0 40 -6.5t31.5 -21t18 -38.5t0.5 -59l-25 -178q-4 -26 1 -47t15.5 -35t25.5 -21.5t32 -7.5z" />
    <glyph glyph-name="asciitilde" unicode="~" horiz-adv-x="666" 
d="M623 328q-14 -16 -29.5 -32.5t-34 -30t-40 -22t-45.5 -8.5q-16 0 -27 0.5t-21.5 3.5t-22.5 9t-29 16q-23 14 -47.5 30.5t-52.5 16.5q-17 0 -33.5 -7.5t-30.5 -19t-26 -24t-20 -22.5l-36 40q13 16 29 32.5t34.5 30t40 22t45.5 8.5q16 0 27 -0.5t21.5 -3.5t22.5 -9t29 -16
q12 -7 23.5 -15t24 -15t25.5 -12t27 -5q17 0 33.5 7.5t30.5 19t26 24t20 22.5z" />
    <glyph glyph-name="uni00A0" unicode="&#xa0;" horiz-adv-x="278" 
 />
    <glyph glyph-name="exclamdown" unicode="&#xa1;" horiz-adv-x="278" 
d="M146 432q3 21 20 37.5t41 16.5t37 -16.5t10 -37.5t-20.5 -37.5t-41.5 -16.5t-36.5 16.5t-9.5 37.5zM143 288h72l-72 -516h-72z" />
    <glyph glyph-name="cent" unicode="&#xa2;" 
d="M343 49q36 2 66.5 19.5t48.5 41.5l49 -41q-38 -38 -82.5 -58t-90.5 -22l-8 -61h-48l9 63q-48 5 -84.5 25.5t-59 53t-31 74.5t-1.5 90t27 90t51.5 74.5t73.5 53t92 25.5l9 63h48l-9 -61q45 -2 84 -22t66 -58l-60 -41q-11 24 -37 41.5t-61 19.5zM347 417q-33 -6 -61 -22
t-49.5 -40t-35 -55t-18.5 -66t0 -66t19.5 -55t37.5 -40t55 -22z" />
    <glyph glyph-name="sterling" unicode="&#xa3;" 
d="M473 335h-168l-39 -275h253l-8 -60h-253h-73h-101l8 60h102l39 275h-96l9 60h96l12 87q7 48 23 91t44.5 75.5t72 52t105.5 19.5q44 0 82.5 -14t64.5 -46l-54 -51q-17 23 -43 37t-61 14q-46 0 -76 -19t-48 -47.5t-27 -60.5t-12 -57l-11 -81h168z" />
    <glyph glyph-name="currency" unicode="&#xa4;" 
d="M147 354q-6 -39 3.5 -73.5t30.5 -60t52 -40.5t69 -15q37 0 72 15t63 40.5t47 60t25 73.5q5 39 -4 73.5t-30 60t-52 40.5t-68 15q-38 0 -73 -15t-63.5 -40.5t-47.5 -60t-24 -73.5zM543 506q22 -33 30.5 -71.5t1.5 -80.5q-11 -84 -75 -152l46 -53l-50 -44l-46 53
q-37 -26 -77 -39.5t-80 -13.5t-77 13.5t-66 39.5l-60 -53l-38 44l60 53q-21 33 -29.5 71.5t-1.5 80.5q5 42 24 80.5t50 71.5l-45 53l50 44l45 -53q37 26 77.5 39.5t80.5 13.5t76.5 -13.5t65.5 -39.5l61 53l38 -44z" />
    <glyph glyph-name="yen" unicode="&#xa5;" 
d="M273 223l11 77l-5 12h-156l7 54h124l-156 342h85l147 -340l243 340h85l-253 -342h123l-7 -54h-156l-9 -12l-11 -77h163l-7 -54h-163l-24 -169h-72l24 169h-163l7 54h163z" />
    <glyph glyph-name="brokenbar" unicode="&#xa6;" horiz-adv-x="222" 
d="M205 454h-60l42 302h60zM121 284h60l-43 -302h-60z" />
    <glyph glyph-name="section" unicode="&#xa7;" 
d="M281 397q-30 -12 -55.5 -32t-30.5 -52q-3 -21 5 -36.5t22 -27t31 -20.5t32 -16l61 -32q28 11 54.5 35t31.5 54q3 22 -3 38.5t-18 29.5t-27.5 22.5t-31.5 17.5l-53 26zM478 596q-4 10 -11 21t-19 20.5t-29 16t-40 6.5q-35 0 -57.5 -11t-36.5 -26t-20 -30t-7 -23
q-5 -37 15.5 -57.5t52.5 -37.5l102 -56q39 -22 62 -54.5t15 -84.5q-6 -46 -34.5 -78t-70.5 -53q34 -26 45.5 -54t5.5 -71q-6 -42 -26 -72.5t-49 -51t-64.5 -30t-71.5 -9.5q-67 0 -116 28t-65 87l70 32q10 -47 44 -67t76 -20q20 0 41 5t39.5 17t32 31.5t17.5 48.5
q5 31 -11.5 51.5t-45.5 36.5l-128 67q-36 19 -57.5 50.5t-14.5 79.5q8 50 41.5 82t81.5 52q-9 7 -21 16.5t-22 23.5t-15.5 33.5t-1.5 46.5q5 39 23.5 68.5t45.5 49.5t60 30t68 10q67 0 108 -27.5t51 -66.5z" />
    <glyph glyph-name="dieresis" unicode="&#xa8;" horiz-adv-x="240" 
d="M256 647q3 20 19 35.5t39 15.5t35 -15.5t9 -35.5t-19 -35.5t-39 -15.5t-35 15.5t-9 35.5zM64 647q3 20 19 35.5t39 15.5t35 -15.5t9 -35.5t-19 -35.5t-39 -15.5t-35 15.5t-9 35.5z" />
    <glyph glyph-name="copyright" unicode="&#xa9;" horiz-adv-x="800" 
d="M134 352q-9 -67 7.5 -124.5t53 -100t90.5 -67t120 -24.5t126.5 24.5t109.5 67.5t81.5 101.5t42.5 126.5q9 67 -7.5 125t-53 100.5t-90.5 66.5t-120 24t-126.5 -24.5t-109.5 -67t-81.5 -101t-42.5 -127.5zM74 352q12 80 51.5 148.5t97.5 118.5t130 78.5t149 28.5
q76 0 140.5 -28.5t108.5 -78t64.5 -117t9.5 -146.5q-11 -80 -50.5 -148.5t-98 -118.5t-131 -78.5t-148.5 -28.5q-77 0 -141 28.5t-108 78t-64.5 117t-9.5 146.5zM642 282q-27 -72 -83.5 -114t-125.5 -42q-51 0 -89.5 17.5t-63.5 48t-35 72t-3 90.5t28 91t53.5 72t76 47
t94.5 17q36 0 66.5 -9.5t53 -28.5t35 -47.5t12.5 -66.5h-56q-2 42 -34 70t-84 28q-38 0 -70 -13.5t-56 -36.5t-39 -54t-20 -67q-5 -35 2 -66.5t25 -56t46 -39t65 -14.5q52 0 91.5 29.5t53.5 72.5h57z" />
    <glyph glyph-name="ordfeminine" unicode="&#xaa;" horiz-adv-x="337" 
d="M294 559q-13 0 -34 -1t-41.5 -5.5t-36.5 -14.5t-19 -28q-3 -20 14 -29t39 -9q26 0 43 8.5t27 21.5t14.5 28.5t6.5 28.5h-13zM196 424q-20 0 -38.5 5t-32 15.5t-20 26t-3.5 36.5q3 23 14.5 41.5t34 31.5t56.5 20t84 7h22l1 8q5 28 -10 42.5t-46 14.5q-27 0 -50 -8t-43 -22
l-27 37q30 25 61.5 33t63.5 8q37 0 60.5 -9.5t35.5 -23t15.5 -29.5t2.5 -28l-20 -137q-2 -17 -2.5 -33.5t-1.5 -29.5h-54l2 36h-1q-16 -20 -42.5 -31t-61.5 -11z" />
    <glyph glyph-name="guillemotleft" unicode="&#xab;" horiz-adv-x="482" 
d="M340 240l90 -176l-52 -33l-110 209l169 209l42 -33zM158 240l90 -176l-52 -33l-110 209l169 209l42 -33z" />
    <glyph glyph-name="logicalnot" unicode="&#xac;" horiz-adv-x="666" 
d="M606 130h-60l31 218h-450l8 60h450h60z" />
    <glyph glyph-name="uni00AD" unicode="&#xad;" horiz-adv-x="333" 
d="M324 207h-257l9 66h257z" />
    <glyph glyph-name="registered" unicode="&#xae;" horiz-adv-x="800" 
d="M134 352q-9 -67 7.5 -124.5t53 -100t90.5 -67t120 -24.5t126.5 24.5t109.5 67.5t81.5 101.5t42.5 126.5q9 67 -7.5 125t-53 100.5t-90.5 66.5t-120 24t-126.5 -24.5t-109.5 -67t-81.5 -101t-42.5 -127.5zM74 352q12 80 51.5 148.5t97.5 118.5t130 78.5t149 28.5
q76 0 140.5 -28.5t108.5 -78t64.5 -117t9.5 -146.5q-11 -80 -50.5 -148.5t-98 -118.5t-131 -78.5t-148.5 -28.5q-77 0 -141 28.5t-108 78t-64.5 117t-9.5 146.5zM374 375h74q22 0 43.5 1.5t38.5 8.5t28.5 21t15.5 40q3 22 -4 35.5t-20 20.5t-30 9t-34 2h-93zM341 567h58h100
q78 0 110.5 -29.5t23.5 -94.5q-4 -29 -16 -50t-29 -35t-39 -21.5t-46 -10.5l97 -190h-65l-92 185h-77l-26 -185h-60z" />
    <glyph glyph-name="macron" unicode="&#xaf;" horiz-adv-x="240" 
d="M339 600h-270l8 54h270z" />
    <glyph glyph-name="degree" unicode="&#xb0;" horiz-adv-x="400" 
d="M381 571q3 21 -2.5 39.5t-17 32t-29 21.5t-38.5 8t-40.5 -8t-35 -21.5t-26 -32t-13.5 -39.5t2.5 -39.5t17 -32t29 -21.5t38.5 -8t40.5 8t35 21.5t26 32t13.5 39.5zM429 571q-5 -32 -20 -59.5t-37.5 -47.5t-51.5 -31t-61 -11t-58 11t-43 31t-24.5 47.5t-2.5 59.5
q4 32 19.5 59.5t38 47.5t51.5 31t61 11t58 -11t43 -31t24 -47.5t3 -59.5z" />
    <glyph glyph-name="plusminus" unicode="&#xb1;" horiz-adv-x="666" 
d="M93 108h510l-8 -60h-510zM135 407h225l22 156h60l-22 -156h225l-8 -60h-225l-21 -151h-60l21 151h-225z" />
    <glyph glyph-name="twosuperior" unicode="&#xb2;" horiz-adv-x="361" 
d="M368 289h-293l8 57l194 164q23 20 45 43.5t26 52.5q2 12 -3 23t-15 19.5t-23 13t-26 4.5q-33 0 -59 -16.5t-37 -39.5l-55 9q17 49 59 75t96 26q28 0 52 -7t41.5 -20.5t26 -34.5t4.5 -48q-3 -24 -14 -45t-27 -39t-35 -34l-38 -32l-147 -117h227z" />
    <glyph glyph-name="threesuperior" unicode="&#xb3;" horiz-adv-x="361" 
d="M205 537h24q41 0 73 16.5t37 50.5q4 27 -14 44.5t-49 17.5q-29 0 -49.5 -9.5t-43.5 -36.5l-42 33q31 38 65 52.5t76 14.5q27 0 50 -7.5t39.5 -21.5t24.5 -34.5t4 -46.5q-5 -35 -32.5 -61.5t-63.5 -37.5v-2q45 -8 65 -36.5t15 -67.5q-4 -29 -19 -52t-37 -38.5t-50 -23.5
t-58 -8q-51 0 -86 20.5t-48 65.5l56 30q8 -30 27.5 -46t61.5 -16q15 0 30.5 6t29 15.5t22.5 22t11 25.5q1 12 -1 25.5t-12.5 25t-30.5 19t-53 7.5h-29z" />
    <glyph glyph-name="acute" unicode="&#xb4;" horiz-adv-x="240" 
d="M197 564h-59l121 144h91z" />
    <glyph glyph-name="mu" unicode="&#xb5;" 
d="M138 468h66l-37 -259q-12 -86 10.5 -123.5t94.5 -37.5q30 0 57.5 12t50 35t38 56.5t21.5 76.5l34 240h66l-52 -365q-3 -26 -5 -51.5t-4 -51.5h-71l11 76h-2q-14 -18 -33.5 -34t-42 -28t-47 -19t-47.5 -7q-68 0 -106 29l-34 -245h-66z" />
    <glyph glyph-name="paragraph" unicode="&#xb6;" horiz-adv-x="600" 
d="M495 -126h-66l110 780h-124l-110 -780h-66l62 442q-46 0 -82 14.5t-60 39.5t-35 59t-5 73q14 98 82.5 152t174.5 54h45h126h66z" />
    <glyph glyph-name="periodcentered" unicode="&#xb7;" horiz-adv-x="278" 
d="M237 314q-3 -21 -20 -37.5t-41 -16.5t-37 16.5t-10 37.5t20.5 37.5t41.5 16.5t36.5 -16.5t9.5 -37.5z" />
    <glyph glyph-name="cedilla" unicode="&#xb8;" horiz-adv-x="240" 
d="M103 -60l1 -1q9 3 17.5 5t19.5 2q30 0 51 -19.5t16 -55.5q-3 -23 -16 -40t-31 -27.5t-39 -15.5t-41 -5q-52 0 -94 24l21 36q31 -18 71 -18q22 0 43.5 10t25.5 35q0 4 -1 11t-5.5 13.5t-13.5 11t-24 4.5q-14 0 -25 -3t-22 -8l-16 17l74 84h41z" />
    <glyph glyph-name="onesuperior" unicode="&#xb9;" horiz-adv-x="361" 
d="M266 289h-60l51 365l-92 -67l-23 38l129 89h54z" />
    <glyph glyph-name="ordmasculine" unicode="&#xba;" horiz-adv-x="385" 
d="M374 571q3 21 -2 39t-16.5 32t-29.5 22t-40 8q-45 0 -77 -29.5t-38 -71.5q-5 -41 18.5 -70t68.5 -29q22 0 42 8t35.5 21.5t25.5 31.5t13 38zM434 571q-5 -32 -20.5 -58.5t-39.5 -46.5t-55 -31t-67 -11q-35 0 -63.5 11t-47 31t-27 46.5t-3.5 58.5q4 32 20 59.5t40 47.5
t55.5 31t66.5 11q36 0 64 -11t46.5 -31t26.5 -47.5t4 -59.5z" />
    <glyph glyph-name="guillemotright" unicode="&#xbb;" horiz-adv-x="482" 
d="M210 240l-91 176l52 33l111 -209l-170 -209l-42 33zM392 240l-91 176l52 33l111 -209l-170 -209l-42 33z" />
    <glyph glyph-name="onequarter" unicode="&#xbc;" horiz-adv-x="834" 
d="M701 365h-2l-166 -217h138zM731 148h60l-8 -54h-60l-13 -94h-60l13 94h-192l9 62l217 269h73zM276 289h-60l51 365l-92 -67l-23 38l129 89h54zM153 0l555 740l47 -31l-554 -741z" />
    <glyph glyph-name="onehalf" unicode="&#xbd;" horiz-adv-x="834" 
d="M795 0h-293l8 57l194 164q23 19 45 43t27 53q1 12 -4 23t-15 19.5t-23 13t-26 4.5q-33 0 -59 -16.5t-37 -39.5l-55 9q17 49 59.5 75t96.5 26q28 0 52 -7t41 -20.5t25.5 -34.5t4.5 -48q-3 -24 -14 -45t-27 -39t-35 -34l-38 -32l-146 -117h227zM251 289h-60l51 365l-92 -67
l-23 38l129 89h54zM128 0l555 740l47 -31l-554 -741z" />
    <glyph glyph-name="threequarters" unicode="&#xbe;" horiz-adv-x="834" 
d="M721 365h-2l-166 -217h138zM751 148h60l-8 -54h-60l-13 -94h-60l13 94h-192l9 62l217 269h73zM214 537h24q41 0 73 17t37 54q4 24 -14 41t-49 17q-29 0 -49.5 -9.5t-43.5 -36.5l-42 33q31 38 65 52.5t76 14.5q27 0 50 -7.5t39.5 -21.5t24.5 -34.5t4 -46.5
q-5 -35 -32.5 -61.5t-63.5 -37.5v-2q45 -8 65 -36.5t15 -67.5q-4 -29 -19 -52t-37 -38.5t-50 -23.5t-58 -8q-51 0 -86 20.5t-47 65.5l55 30q8 -30 27.5 -46t61.5 -16q15 0 30.5 6t29 15.5t22.5 22t11 25.5q1 12 -1 25.5t-12.5 25t-30.5 19t-53 7.5h-29zM193 0l555 740
l47 -31l-554 -741z" />
    <glyph glyph-name="questiondown" unicode="&#xbf;" horiz-adv-x="482" 
d="M243 432q3 21 20 37.5t41 16.5t37 -16.5t10 -37.5t-20.5 -37.5t-41.5 -16.5t-36.5 16.5t-9.5 37.5zM246 288h72l-11 -83q-5 -28 -20 -50t-36 -41.5t-44.5 -37.5t-44 -38.5t-35.5 -44t-19 -52.5q-4 -26 1.5 -47t19 -36t34 -23.5t46.5 -8.5q51 0 88.5 30t53.5 79l74 -9
q-11 -39 -33 -70t-52 -52.5t-65.5 -32.5t-74.5 -11q-40 0 -73 11.5t-55.5 33.5t-32.5 55t-4 75t22 71t37 50.5t44.5 38.5t44 36.5t36 44t20.5 61.5z" />
    <glyph glyph-name="Agrave" unicode="&#xc0;" horiz-adv-x="686" 
d="M224 252h307l-100 372zM84 0h-84l408 708h70l208 -708h-84l-52 186h-362zM338 883h91l79 -144h-59z" />
    <glyph glyph-name="Aacute" unicode="&#xc1;" horiz-adv-x="686" 
d="M224 252h307l-100 372zM84 0h-84l408 708h70l208 -708h-84l-52 186h-362zM445 739h-59l121 144h91z" />
    <glyph glyph-name="Acircumflex" unicode="&#xc2;" horiz-adv-x="686" 
d="M224 252h307l-100 372zM84 0h-84l408 708h70l208 -708h-84l-52 186h-362zM596 739h-66l-68 108l-98 -108h-66l130 144h80z" />
    <glyph glyph-name="Atilde" unicode="&#xc3;" horiz-adv-x="686" 
d="M224 252h307l-100 372zM84 0h-84l408 708h70l208 -708h-84l-52 186h-362zM287 751q6 19 15 38t22 33.5t30 23.5t40 9q18 0 35 -7t34 -16q17 -8 33 -15.5t31 -7.5q23 0 36 15.5t20 34.5h43q-6 -20 -15 -38.5t-21.5 -33t-30 -23.5t-39.5 -9q-18 0 -35.5 7.5t-34.5 15.5
q-17 9 -32.5 16t-31.5 7q-23 0 -36 -15.5t-20 -34.5h-43z" />
    <glyph glyph-name="Adieresis" unicode="&#xc4;" horiz-adv-x="686" 
d="M224 252h307l-100 372zM84 0h-84l408 708h70l208 -708h-84l-52 186h-362zM504 822q3 20 19 35.5t39 15.5t35 -15.5t9 -35.5t-19 -35.5t-39 -15.5t-35 15.5t-9 35.5zM312 822q3 20 19 35.5t39 15.5t35 -15.5t9 -35.5t-19 -35.5t-39 -15.5t-35 15.5t-9 35.5z" />
    <glyph glyph-name="Aring" unicode="&#xc5;" horiz-adv-x="686" 
d="M224 252h307l-100 372zM84 0h-84l408 708h70l208 -708h-84l-52 186h-362zM519 825q4 25 -11 42t-40 17t-45 -17t-24 -42q-3 -25 12 -42t40 -17t45 17t23 42zM555 825q-3 -20 -13 -37.5t-25 -30.5t-33.5 -20t-37.5 -7q-20 0 -36 7t-27.5 20t-17 30.5t-2.5 37.5t13 37.5
t25 30t33.5 20t38.5 7.5q19 0 35.5 -7.5t28 -20t16.5 -30t2 -37.5z" />
    <glyph glyph-name="AE" unicode="&#xc6;" horiz-adv-x="944" 
d="M548 264l53 378h-11l-298 -378h256zM639 401h276l-9 -66h-276l-38 -269h306l-9 -66h-306h-72l28 198h-298l-156 -198h-85l561 708h49h73h294l-10 -66h-294z" />
    <glyph glyph-name="Ccedilla" unicode="&#xc7;" horiz-adv-x="704" 
d="M355 -60l1 -1q9 3 17.5 5t19.5 2q30 0 51 -19.5t16 -55.5q-3 -23 -16 -40t-31 -27.5t-39 -15.5t-41 -5q-52 0 -94 24l21 36q31 -18 71 -18q22 0 43.5 10t25.5 35q0 4 -1 11t-5.5 13.5t-13.5 11t-24 4.5q-14 0 -25 -3t-22 -8l-16 17l62 70q-45 7 -84 24
q-63 28 -105.5 77.5t-60.5 117.5t-7 149t48.5 149t94 117.5t128 77.5t150.5 28q33 0 65.5 -6.5t62.5 -20t56 -34.5t45 -51l-69 -47q-8 17 -25 34t-39.5 30t-49.5 21t-55 8q-68 0 -125.5 -25t-101 -67t-71 -97.5t-36.5 -116.5t3.5 -116.5t44 -97.5t82 -67t118.5 -25
q28 0 56.5 5t56 17t54.5 32.5t51 51.5l53 -42q-22 -27 -52 -51t-66.5 -41.5t-77.5 -27.5t-85 -10q-11 0 -22 1z" />
    <glyph glyph-name="Egrave" unicode="&#xc8;" horiz-adv-x="593" 
d="M177 66h379l-9 -66h-379h-72l100 708h71h368l-10 -66h-367l-34 -241h343l-9 -66h-343zM292 883h91l79 -144h-59z" />
    <glyph glyph-name="Eacute" unicode="&#xc9;" horiz-adv-x="593" 
d="M177 66h379l-9 -66h-379h-72l100 708h71h368l-10 -66h-367l-34 -241h343l-9 -66h-343zM399 739h-59l121 144h91z" />
    <glyph glyph-name="Ecircumflex" unicode="&#xca;" horiz-adv-x="593" 
d="M177 66h379l-9 -66h-379h-72l100 708h71h368l-10 -66h-367l-34 -241h343l-9 -66h-343zM550 739h-66l-68 108l-98 -108h-66l130 144h80z" />
    <glyph glyph-name="Edieresis" unicode="&#xcb;" horiz-adv-x="593" 
d="M177 66h379l-9 -66h-379h-72l100 708h71h368l-10 -66h-367l-34 -241h343l-9 -66h-343zM458 822q3 20 19 35.5t39 15.5t35 -15.5t9 -35.5t-19 -35.5t-39 -15.5t-35 15.5t-9 35.5zM266 822q3 20 19 35.5t39 15.5t35 -15.5t9 -35.5t-19 -35.5t-39 -15.5t-35 15.5t-9 35.5z
" />
    <glyph glyph-name="Igrave" unicode="&#xcc;" horiz-adv-x="264" 
d="M168 0h-72l100 708h72zM127 883h91l79 -144h-59z" />
    <glyph glyph-name="Iacute" unicode="&#xcd;" horiz-adv-x="264" 
d="M168 0h-72l100 708h72zM234 739h-59l121 144h91z" />
    <glyph glyph-name="Icircumflex" unicode="&#xce;" horiz-adv-x="264" 
d="M168 0h-72l100 708h72zM385 739h-66l-68 108l-98 -108h-66l130 144h80z" />
    <glyph glyph-name="Idieresis" unicode="&#xcf;" horiz-adv-x="264" 
d="M168 0h-72l100 708h72zM293 822q3 20 19 35.5t39 15.5t35 -15.5t9 -35.5t-19 -35.5t-39 -15.5t-35 15.5t-9 35.5zM101 822q3 20 19 35.5t39 15.5t35 -15.5t9 -35.5t-19 -35.5t-39 -15.5t-35 15.5t-9 35.5z" />
    <glyph glyph-name="Eth" unicode="&#xd0;" horiz-adv-x="741" 
d="M167 66h140q81 0 144 24.5t108 65t71.5 92t34.5 106.5q7 55 -4.5 106.5t-45.5 92t-90 65t-137 24.5h-140l-34 -241h258l-7 -54h-258zM135 347h-73l7 54h73l44 307h72h163q66 0 129.5 -22t110.5 -66.5t70.5 -111t11.5 -154.5q-12 -89 -55 -155t-102 -110.5t-129 -66.5
t-136 -22h-163h-72z" />
    <glyph glyph-name="Ntilde" unicode="&#xd1;" horiz-adv-x="778" 
d="M623 108h2l85 600h72l-100 -708h-72h-18l-337 606h-2l-85 -606h-72l100 708h71h19zM333 751q6 19 15 38t22 33.5t30 23.5t40 9q18 0 35 -7t34 -16q17 -8 33 -15.5t31 -7.5q23 0 36 15.5t20 34.5h43q-6 -20 -15 -38.5t-21.5 -33t-30 -23.5t-39.5 -9q-18 0 -35.5 7.5
t-34.5 15.5q-17 9 -32.5 16t-31.5 7q-23 0 -36 -15.5t-20 -34.5h-43z" />
    <glyph glyph-name="Ograve" unicode="&#xd2;" horiz-adv-x="834" 
d="M758 354q9 61 -3.5 116.5t-44 97.5t-82 67t-118.5 25t-125.5 -25t-101 -67t-71 -97.5t-36.5 -116.5t3.5 -116.5t44 -97.5t82 -67t118.5 -25t125.5 25t101 67t71 97.5t36.5 116.5zM836 354q-11 -81 -49 -149t-94.5 -117.5t-128 -77.5t-150.5 -28t-142.5 28t-106 77.5
t-60.5 117.5t-7 149t48.5 149t94 117.5t128 77.5t150.5 28t142.5 -28t106 -77.5t61 -117.5t7.5 -149zM412 883h91l79 -144h-59z" />
    <glyph glyph-name="Oacute" unicode="&#xd3;" horiz-adv-x="834" 
d="M758 354q9 61 -3.5 116.5t-44 97.5t-82 67t-118.5 25t-125.5 -25t-101 -67t-71 -97.5t-36.5 -116.5t3.5 -116.5t44 -97.5t82 -67t118.5 -25t125.5 25t101 67t71 97.5t36.5 116.5zM836 354q-11 -81 -49 -149t-94.5 -117.5t-128 -77.5t-150.5 -28t-142.5 28t-106 77.5
t-60.5 117.5t-7 149t48.5 149t94 117.5t128 77.5t150.5 28t142.5 -28t106 -77.5t61 -117.5t7.5 -149zM519 739h-59l121 144h91z" />
    <glyph glyph-name="Ocircumflex" unicode="&#xd4;" horiz-adv-x="834" 
d="M758 354q9 61 -3.5 116.5t-44 97.5t-82 67t-118.5 25t-125.5 -25t-101 -67t-71 -97.5t-36.5 -116.5t3.5 -116.5t44 -97.5t82 -67t118.5 -25t125.5 25t101 67t71 97.5t36.5 116.5zM836 354q-11 -81 -49 -149t-94.5 -117.5t-128 -77.5t-150.5 -28t-142.5 28t-106 77.5
t-60.5 117.5t-7 149t48.5 149t94 117.5t128 77.5t150.5 28t142.5 -28t106 -77.5t61 -117.5t7.5 -149zM670 739h-66l-68 108l-98 -108h-66l130 144h80z" />
    <glyph glyph-name="Otilde" unicode="&#xd5;" horiz-adv-x="834" 
d="M758 354q9 61 -3.5 116.5t-44 97.5t-82 67t-118.5 25t-125.5 -25t-101 -67t-71 -97.5t-36.5 -116.5t3.5 -116.5t44 -97.5t82 -67t118.5 -25t125.5 25t101 67t71 97.5t36.5 116.5zM836 354q-11 -81 -49 -149t-94.5 -117.5t-128 -77.5t-150.5 -28t-142.5 28t-106 77.5
t-60.5 117.5t-7 149t48.5 149t94 117.5t128 77.5t150.5 28t142.5 -28t106 -77.5t61 -117.5t7.5 -149zM361 751q6 19 15 38t22 33.5t30 23.5t40 9q18 0 35 -7t34 -16q17 -8 33 -15.5t31 -7.5q23 0 36 15.5t20 34.5h43q-6 -20 -15 -38.5t-21.5 -33t-30 -23.5t-39.5 -9
q-18 0 -35.5 7.5t-34.5 15.5q-17 9 -32.5 16t-31.5 7q-23 0 -36 -15.5t-20 -34.5h-43z" />
    <glyph glyph-name="Odieresis" unicode="&#xd6;" horiz-adv-x="834" 
d="M758 354q9 61 -3.5 116.5t-44 97.5t-82 67t-118.5 25t-125.5 -25t-101 -67t-71 -97.5t-36.5 -116.5t3.5 -116.5t44 -97.5t82 -67t118.5 -25t125.5 25t101 67t71 97.5t36.5 116.5zM836 354q-11 -81 -49 -149t-94.5 -117.5t-128 -77.5t-150.5 -28t-142.5 28t-106 77.5
t-60.5 117.5t-7 149t48.5 149t94 117.5t128 77.5t150.5 28t142.5 -28t106 -77.5t61 -117.5t7.5 -149zM578 822q3 20 19 35.5t39 15.5t35 -15.5t9 -35.5t-19 -35.5t-39 -15.5t-35 15.5t-9 35.5zM386 822q3 20 19 35.5t39 15.5t35 -15.5t9 -35.5t-19 -35.5t-39 -15.5t-35 15.5
t-9 35.5z" />
    <glyph glyph-name="multiply" unicode="&#xd7;" horiz-adv-x="666" 
d="M382 346l180 159l37 -42l-181 -160l136 -159l-49 -43l-135 159l-182 -159l-36 43l182 159l-137 160l48 42z" />
    <glyph glyph-name="Oslash" unicode="&#xd8;" horiz-adv-x="834" 
d="M688 593q-32 32 -76 49.5t-102 17.5q-68 0 -125.5 -25t-101 -67t-71 -97.5t-36.5 -116.5q-8 -57 2 -109t37 -93zM245 115q32 -32 76.5 -49.5t102.5 -17.5q68 0 125.5 25t101 67t71 97.5t36.5 116.5q8 57 -2.5 108.5t-37.5 93.5zM776 610q39 -49 55 -114t5 -142
q-11 -81 -49 -149t-94.5 -117.5t-128 -77.5t-150.5 -28q-69 0 -125.5 21.5t-98.5 59.5l-88 -81l-32 34l88 82q-39 49 -55 114t-5 142q11 81 48.5 149t94 117.5t128 77.5t150.5 28q69 0 125.5 -21t99.5 -60l87 81l32 -34z" />
    <glyph glyph-name="Ugrave" unicode="&#xd9;" horiz-adv-x="686" 
d="M639 264q-6 -44 -23.5 -93.5t-52.5 -91.5t-89.5 -69.5t-133.5 -27.5q-80 0 -126 27.5t-69 69.5t-26.5 91.5t2.5 93.5l63 444h72l-62 -436q-7 -51 -2 -87.5t18 -61.5t31.5 -39.5t38 -22.5t38 -10.5t32.5 -2.5q20 0 53 6.5t66 29t60.5 67t38.5 121.5l62 436h72zM338 883h91
l79 -144h-59z" />
    <glyph glyph-name="Uacute" unicode="&#xda;" horiz-adv-x="686" 
d="M639 264q-6 -44 -23.5 -93.5t-52.5 -91.5t-89.5 -69.5t-133.5 -27.5q-80 0 -126 27.5t-69 69.5t-26.5 91.5t2.5 93.5l63 444h72l-62 -436q-7 -51 -2 -87.5t18 -61.5t31.5 -39.5t38 -22.5t38 -10.5t32.5 -2.5q20 0 53 6.5t66 29t60.5 67t38.5 121.5l62 436h72zM445 739
h-59l121 144h91z" />
    <glyph glyph-name="Ucircumflex" unicode="&#xdb;" horiz-adv-x="686" 
d="M639 264q-6 -44 -23.5 -93.5t-52.5 -91.5t-89.5 -69.5t-133.5 -27.5q-80 0 -126 27.5t-69 69.5t-26.5 91.5t2.5 93.5l63 444h72l-62 -436q-7 -51 -2 -87.5t18 -61.5t31.5 -39.5t38 -22.5t38 -10.5t32.5 -2.5q20 0 53 6.5t66 29t60.5 67t38.5 121.5l62 436h72zM596 739
h-66l-68 108l-98 -108h-66l130 144h80z" />
    <glyph glyph-name="Udieresis" unicode="&#xdc;" horiz-adv-x="686" 
d="M639 264q-6 -44 -23.5 -93.5t-52.5 -91.5t-89.5 -69.5t-133.5 -27.5q-80 0 -126 27.5t-69 69.5t-26.5 91.5t2.5 93.5l63 444h72l-62 -436q-7 -51 -2 -87.5t18 -61.5t31.5 -39.5t38 -22.5t38 -10.5t32.5 -2.5q20 0 53 6.5t66 29t60.5 67t38.5 121.5l62 436h72zM504 822
q3 20 19 35.5t39 15.5t35 -15.5t9 -35.5t-19 -35.5t-39 -15.5t-35 15.5t-9 35.5zM312 822q3 20 19 35.5t39 15.5t35 -15.5t9 -35.5t-19 -35.5t-39 -15.5t-35 15.5t-9 35.5z" />
    <glyph glyph-name="Yacute" unicode="&#xdd;" horiz-adv-x="574" 
d="M323 0h-72l43 305l-208 403h90l164 -334l258 334h90l-322 -403zM389 739h-59l121 144h91z" />
    <glyph glyph-name="Thorn" unicode="&#xde;" horiz-adv-x="574" 
d="M202 239h116q28 0 59 3t58 15.5t47 37.5t26 68t-7 67.5t-36.5 37t-54 15.5t-58.5 3h-116zM196 708h72l-22 -156h160q44 0 80.5 -11.5t60.5 -35t35 -59t4 -83.5t-27.5 -83.5t-52 -59.5t-71 -35.5t-83.5 -11.5h-160l-24 -173h-72z" />
    <glyph glyph-name="germandbls" unicode="&#xdf;" horiz-adv-x="593" 
d="M150 0h-66l76 544q6 44 22.5 84.5t45 71.5t72 49.5t103.5 18.5q40 0 73.5 -12t56 -34.5t32.5 -55.5t4 -75q-16 -117 -138 -159l-1 -2q44 -4 73.5 -22t47 -46.5t22.5 -64t-1 -74.5q-8 -53 -31 -96.5t-58.5 -74.5t-81.5 -47.5t-99 -16.5q-14 0 -28.5 1.5t-28.5 6.5l8 57
q12 -3 24 -4t24 -1q80 0 134 46t65 130q13 91 -35 133t-141 42l9 60q30 0 57.5 6.5t49.5 21t36.5 38t19.5 57.5q8 60 -23 93t-82 33q-40 0 -69.5 -15t-49 -38t-30.5 -51t-15 -54z" />
    <glyph glyph-name="agrave" unicode="&#xe0;" horiz-adv-x="519" 
d="M371 233q-25 0 -62.5 -2.5t-73.5 -12t-63.5 -29.5t-32.5 -55q-3 -23 4 -39.5t21.5 -27t33.5 -15t39 -4.5q36 0 64.5 12t48.5 32.5t32.5 48t17.5 58.5l5 34h-34zM412 287l2 12q16 121 -103 121q-82 0 -151 -55l-33 47q37 33 89 50.5t118 17.5q34 0 64 -10t50.5 -30.5
t30 -51.5t3.5 -74l-29 -209q-4 -27 -5.5 -56.5t-1.5 -48.5h-64q-1 17 0.5 37t4.5 39h-2q-35 -47 -78 -67.5t-100 -20.5q-31 0 -59 8.5t-47.5 26t-29.5 43t-5 59.5q8 57 42 89.5t80.5 48.5t97.5 20t93 4h33zM230 708h91l79 -144h-59z" />
    <glyph glyph-name="aacute" unicode="&#xe1;" horiz-adv-x="519" 
d="M371 233q-25 0 -62.5 -2.5t-73.5 -12t-63.5 -29.5t-32.5 -55q-3 -23 4 -39.5t21.5 -27t33.5 -15t39 -4.5q36 0 64.5 12t48.5 32.5t32.5 48t17.5 58.5l5 34h-34zM412 287l2 12q16 121 -103 121q-82 0 -151 -55l-33 47q37 33 89 50.5t118 17.5q34 0 64 -10t50.5 -30.5
t30 -51.5t3.5 -74l-29 -209q-4 -27 -5.5 -56.5t-1.5 -48.5h-64q-1 17 0.5 37t4.5 39h-2q-35 -47 -78 -67.5t-100 -20.5q-31 0 -59 8.5t-47.5 26t-29.5 43t-5 59.5q8 57 42 89.5t80.5 48.5t97.5 20t93 4h33zM337 564h-59l121 144h91z" />
    <glyph glyph-name="acircumflex" unicode="&#xe2;" horiz-adv-x="519" 
d="M371 233q-25 0 -62.5 -2.5t-73.5 -12t-63.5 -29.5t-32.5 -55q-3 -23 4 -39.5t21.5 -27t33.5 -15t39 -4.5q36 0 64.5 12t48.5 32.5t32.5 48t17.5 58.5l5 34h-34zM412 287l2 12q16 121 -103 121q-82 0 -151 -55l-33 47q37 33 89 50.5t118 17.5q34 0 64 -10t50.5 -30.5
t30 -51.5t3.5 -74l-29 -209q-4 -27 -5.5 -56.5t-1.5 -48.5h-64q-1 17 0.5 37t4.5 39h-2q-35 -47 -78 -67.5t-100 -20.5q-31 0 -59 8.5t-47.5 26t-29.5 43t-5 59.5q8 57 42 89.5t80.5 48.5t97.5 20t93 4h33zM488 564h-66l-68 108l-98 -108h-66l130 144h80z" />
    <glyph glyph-name="atilde" unicode="&#xe3;" horiz-adv-x="519" 
d="M371 233q-25 0 -62.5 -2.5t-73.5 -12t-63.5 -29.5t-32.5 -55q-3 -23 4 -39.5t21.5 -27t33.5 -15t39 -4.5q36 0 64.5 12t48.5 32.5t32.5 48t17.5 58.5l5 34h-34zM412 287l2 12q16 121 -103 121q-82 0 -151 -55l-33 47q37 33 89 50.5t118 17.5q34 0 64 -10t50.5 -30.5
t30 -51.5t3.5 -74l-29 -209q-4 -27 -5.5 -56.5t-1.5 -48.5h-64q-1 17 0.5 37t4.5 39h-2q-35 -47 -78 -67.5t-100 -20.5q-31 0 -59 8.5t-47.5 26t-29.5 43t-5 59.5q8 57 42 89.5t80.5 48.5t97.5 20t93 4h33zM179 576q6 19 15 38t22 33.5t30 23.5t40 9q18 0 35 -7t34 -16
q17 -8 33 -15.5t31 -7.5q23 0 36 15.5t20 34.5h43q-6 -20 -15 -38.5t-21.5 -33t-30 -23.5t-39.5 -9q-18 0 -35.5 7.5t-34.5 15.5q-17 9 -32.5 16t-31.5 7q-23 0 -36 -15.5t-20 -34.5h-43z" />
    <glyph glyph-name="adieresis" unicode="&#xe4;" horiz-adv-x="519" 
d="M371 233q-25 0 -62.5 -2.5t-73.5 -12t-63.5 -29.5t-32.5 -55q-3 -23 4 -39.5t21.5 -27t33.5 -15t39 -4.5q36 0 64.5 12t48.5 32.5t32.5 48t17.5 58.5l5 34h-34zM412 287l2 12q16 121 -103 121q-82 0 -151 -55l-33 47q37 33 89 50.5t118 17.5q34 0 64 -10t50.5 -30.5
t30 -51.5t3.5 -74l-29 -209q-4 -27 -5.5 -56.5t-1.5 -48.5h-64q-1 17 0.5 37t4.5 39h-2q-35 -47 -78 -67.5t-100 -20.5q-31 0 -59 8.5t-47.5 26t-29.5 43t-5 59.5q8 57 42 89.5t80.5 48.5t97.5 20t93 4h33zM396 647q3 20 19 35.5t39 15.5t35 -15.5t9 -35.5t-19 -35.5
t-39 -15.5t-35 15.5t-9 35.5zM204 647q3 20 19 35.5t39 15.5t35 -15.5t9 -35.5t-19 -35.5t-39 -15.5t-35 15.5t-9 35.5z" />
    <glyph glyph-name="aring" unicode="&#xe5;" horiz-adv-x="519" 
d="M371 233q-25 0 -62.5 -2.5t-73.5 -12t-63.5 -29.5t-32.5 -55q-3 -23 4 -39.5t21.5 -27t33.5 -15t39 -4.5q36 0 64.5 12t48.5 32.5t32.5 48t17.5 58.5l5 34h-34zM412 287l2 12q16 121 -103 121q-82 0 -151 -55l-33 47q37 33 89 50.5t118 17.5q34 0 64 -10t50.5 -30.5
t30 -51.5t3.5 -74l-29 -209q-4 -27 -5.5 -56.5t-1.5 -48.5h-64q-1 17 0.5 37t4.5 39h-2q-35 -47 -78 -67.5t-100 -20.5q-31 0 -59 8.5t-47.5 26t-29.5 43t-5 59.5q8 57 42 89.5t80.5 48.5t97.5 20t93 4h33zM411 650q4 25 -11 42t-40 17t-45 -17t-24 -42q-3 -25 12 -42
t40 -17t45 17t23 42zM447 650q-3 -20 -13 -37.5t-25 -30.5t-33.5 -20t-37.5 -7q-20 0 -36 7t-27.5 20t-17 30.5t-2.5 37.5t13 37.5t25 30t33.5 20t38.5 7.5q19 0 35.5 -7.5t28 -20t16.5 -30t2 -37.5z" />
    <glyph glyph-name="ae" unicode="&#xe6;" horiz-adv-x="852" 
d="M776 270q4 33 -2 60.5t-22 47.5t-41 31t-58 11q-30 0 -57 -11.5t-49 -31.5t-37 -47.5t-19 -59.5h285zM280 216q-21 0 -44.5 -4t-43.5 -13.5t-35 -25t-18 -39.5q-3 -23 4 -39.5t21.5 -27t33.5 -15t39 -4.5q36 0 66.5 12t54 33t38.5 50t20 64l1 9h-137zM483 216l-1 -9
q-5 -32 0.5 -61t20 -50.5t38.5 -34.5t56 -13q30 0 53.5 6t42 16.5t33 24.5t27.5 29l47 -41q-45 -49 -100 -72t-110 -23q-26 0 -51 6.5t-46 20t-37 34t-25 48.5q-44 -59 -97.5 -84t-126.5 -25q-31 0 -59 8.5t-47.5 26t-29.5 43t-5 59.5q6 47 31 75.5t60 44t76.5 20.5t80.5 5
h111l4 29q4 37 -6.5 60.5t-27.5 37t-36.5 18.5t-32.5 5q-83 0 -150 -56l-34 48q38 32 88 50t107 18q27 0 50.5 -7t42.5 -19t31.5 -28.5t18.5 -35.5q29 42 78.5 66t100.5 24q52 0 89 -18t59.5 -49.5t30.5 -74.5t1 -92l-5 -30h-351z" />
    <glyph glyph-name="ccedilla" unicode="&#xe7;" horiz-adv-x="482" 
d="M244 -60l1 -1q9 3 17.5 5t19.5 2q30 0 51 -19.5t16 -55.5q-3 -23 -16 -40t-31 -27.5t-39 -15.5t-41 -5q-52 0 -94 24l21 36q31 -18 71 -18q22 0 43.5 10t25.5 35q0 4 -1 11t-5.5 13.5t-13.5 11t-24 4.5q-14 0 -25 -3t-22 -8l-16 17l66 75q-30 4 -55 14q-43 19 -70.5 52
t-38.5 78.5t-3 98.5q7 53 31 98.5t60.5 78.5t85 51.5t105.5 17.5q48 -1 89.5 -20.5t70.5 -60.5l-60 -41q-13 26 -41 44t-67 18q-41 1 -75.5 -13t-61 -39t-43 -59.5t-22.5 -74.5t1.5 -74.5t26.5 -59.5t50 -39t72 -13q39 0 72 18t53 44l49 -41q-41 -41 -88 -60.5t-95 -20.5h-8
z" />
    <glyph glyph-name="egrave" unicode="&#xe8;" 
d="M474 270q9 67 -25 108.5t-106 41.5q-32 0 -63.5 -12.5t-57 -33.5t-43 -48t-21.5 -56h316zM148 216q-2 -35 8 -66t29.5 -53.5t48 -35.5t63.5 -13q53 0 95 24.5t66 56.5l45 -42q-49 -53 -103 -76t-112 -23q-52 0 -93.5 18.5t-69.5 51.5t-40 78t-4 98q7 53 31.5 98t61 78
t82 51.5t95.5 18.5q53 0 92.5 -19t63.5 -50.5t33.5 -74t2.5 -90.5l-5 -30h-390zM248 708h91l79 -144h-59z" />
    <glyph glyph-name="eacute" unicode="&#xe9;" 
d="M474 270q9 67 -25 108.5t-106 41.5q-32 0 -63.5 -12.5t-57 -33.5t-43 -48t-21.5 -56h316zM148 216q-2 -35 8 -66t29.5 -53.5t48 -35.5t63.5 -13q53 0 95 24.5t66 56.5l45 -42q-49 -53 -103 -76t-112 -23q-52 0 -93.5 18.5t-69.5 51.5t-40 78t-4 98q7 53 31.5 98t61 78
t82 51.5t95.5 18.5q53 0 92.5 -19t63.5 -50.5t33.5 -74t2.5 -90.5l-5 -30h-390zM355 564h-59l121 144h91z" />
    <glyph glyph-name="ecircumflex" unicode="&#xea;" 
d="M474 270q9 67 -25 108.5t-106 41.5q-32 0 -63.5 -12.5t-57 -33.5t-43 -48t-21.5 -56h316zM148 216q-2 -35 8 -66t29.5 -53.5t48 -35.5t63.5 -13q53 0 95 24.5t66 56.5l45 -42q-49 -53 -103 -76t-112 -23q-52 0 -93.5 18.5t-69.5 51.5t-40 78t-4 98q7 53 31.5 98t61 78
t82 51.5t95.5 18.5q53 0 92.5 -19t63.5 -50.5t33.5 -74t2.5 -90.5l-5 -30h-390zM506 564h-66l-68 108l-98 -108h-66l130 144h80z" />
    <glyph glyph-name="edieresis" unicode="&#xeb;" 
d="M474 270q9 67 -25 108.5t-106 41.5q-32 0 -63.5 -12.5t-57 -33.5t-43 -48t-21.5 -56h316zM148 216q-2 -35 8 -66t29.5 -53.5t48 -35.5t63.5 -13q53 0 95 24.5t66 56.5l45 -42q-49 -53 -103 -76t-112 -23q-52 0 -93.5 18.5t-69.5 51.5t-40 78t-4 98q7 53 31.5 98t61 78
t82 51.5t95.5 18.5q53 0 92.5 -19t63.5 -50.5t33.5 -74t2.5 -90.5l-5 -30h-390zM414 647q3 20 19 35.5t39 15.5t35 -15.5t9 -35.5t-19 -35.5t-39 -15.5t-35 15.5t-9 35.5zM222 647q3 20 19 35.5t39 15.5t35 -15.5t9 -35.5t-19 -35.5t-39 -15.5t-35 15.5t-9 35.5z" />
    <glyph glyph-name="igrave" unicode="&#xec;" horiz-adv-x="240" 
d="M153 0h-66l66 468h66zM90 708h91l79 -144h-59z" />
    <glyph glyph-name="iacute" unicode="&#xed;" horiz-adv-x="240" 
d="M153 0h-66l66 468h66zM197 564h-59l121 144h91z" />
    <glyph glyph-name="icircumflex" unicode="&#xee;" horiz-adv-x="240" 
d="M153 0h-66l66 468h66zM348 564h-66l-68 108l-98 -108h-66l130 144h80z" />
    <glyph glyph-name="idieresis" unicode="&#xef;" horiz-adv-x="240" 
d="M153 0h-66l66 468h66zM256 647q3 20 19 35.5t39 15.5t35 -15.5t9 -35.5t-19 -35.5t-39 -15.5t-35 15.5t-9 35.5zM64 647q3 20 19 35.5t39 15.5t35 -15.5t9 -35.5t-19 -35.5t-39 -15.5t-35 15.5t-9 35.5z" />
    <glyph glyph-name="eth" unicode="&#xf0;" horiz-adv-x="593" 
d="M445 660q39 -46 68.5 -93t47.5 -96.5t23.5 -103.5t-3.5 -113q-7 -45 -25.5 -92t-52.5 -86t-85.5 -63.5t-123.5 -24.5q-54 0 -97 18.5t-71.5 51.5t-40.5 78t-4 98q7 53 32 98t62.5 78t85.5 51.5t102 18.5q44 0 77 -14t65 -44l3 2q-15 37 -29.5 65.5t-30.5 52.5t-33.5 45
t-37.5 41l-118 -57l-31 36l116 56q-22 24 -43 44t-41 35l65 37q23 -21 44.5 -41.5t41.5 -41.5l109 53l35 -35zM153 234q-6 -39 1.5 -73t27 -59t50 -39.5t71.5 -14.5t75.5 14.5t61 39.5t43.5 59t23 73t-2 73t-27.5 59t-50 39.5t-71.5 14.5t-75.5 -14.5t-60.5 -39.5t-43 -59
t-23 -73z" />
    <glyph glyph-name="ntilde" unicode="&#xf1;" 
d="M201 468q-1 -19 -3 -37.5t-5 -37.5h2q13 19 32.5 35t42 27.5t47 18t47.5 6.5q90 0 126.5 -47.5t24.5 -135.5l-42 -297h-66l36 259q6 39 4 69t-13.5 50.5t-34.5 31t-60 10.5q-5 0 -28.5 -4t-51.5 -22t-53 -54t-34 -100l-34 -240h-66l51 365q3 19 5.5 48t4.5 55h68z
M197 576q6 19 15 38t22 33.5t30 23.5t40 9q18 0 35 -7t34 -16q17 -8 33 -15.5t31 -7.5q23 0 36 15.5t20 34.5h43q-6 -20 -15 -38.5t-21.5 -33t-30 -23.5t-39.5 -9q-18 0 -35.5 7.5t-34.5 15.5q-17 9 -32.5 16t-31.5 7q-23 0 -36 -15.5t-20 -34.5h-43z" />
    <glyph glyph-name="ograve" unicode="&#xf2;" horiz-adv-x="593" 
d="M506 234q6 39 -2 73t-27.5 59t-50 39.5t-71.5 14.5t-75.5 -14.5t-60.5 -39.5t-43 -59t-23 -73t1.5 -73t27 -59t50 -39.5t71.5 -14.5t75.5 14.5t61 39.5t43.5 59t23 73zM578 234q-8 -53 -32.5 -98t-62 -78t-86 -51.5t-103.5 -18.5q-54 0 -97 18.5t-71.5 51.5t-40.5 78
t-4 98q7 53 32 98t62.5 78t85.5 51.5t102 18.5q55 0 98 -18.5t71.5 -51.5t40.5 -78t5 -98zM267 708h91l79 -144h-59z" />
    <glyph glyph-name="oacute" unicode="&#xf3;" horiz-adv-x="593" 
d="M506 234q6 39 -2 73t-27.5 59t-50 39.5t-71.5 14.5t-75.5 -14.5t-60.5 -39.5t-43 -59t-23 -73t1.5 -73t27 -59t50 -39.5t71.5 -14.5t75.5 14.5t61 39.5t43.5 59t23 73zM578 234q-8 -53 -32.5 -98t-62 -78t-86 -51.5t-103.5 -18.5q-54 0 -97 18.5t-71.5 51.5t-40.5 78
t-4 98q7 53 32 98t62.5 78t85.5 51.5t102 18.5q55 0 98 -18.5t71.5 -51.5t40.5 -78t5 -98zM374 564h-59l121 144h91z" />
    <glyph glyph-name="ocircumflex" unicode="&#xf4;" horiz-adv-x="593" 
d="M506 234q6 39 -2 73t-27.5 59t-50 39.5t-71.5 14.5t-75.5 -14.5t-60.5 -39.5t-43 -59t-23 -73t1.5 -73t27 -59t50 -39.5t71.5 -14.5t75.5 14.5t61 39.5t43.5 59t23 73zM578 234q-8 -53 -32.5 -98t-62 -78t-86 -51.5t-103.5 -18.5q-54 0 -97 18.5t-71.5 51.5t-40.5 78
t-4 98q7 53 32 98t62.5 78t85.5 51.5t102 18.5q55 0 98 -18.5t71.5 -51.5t40.5 -78t5 -98zM525 564h-66l-68 108l-98 -108h-66l130 144h80z" />
    <glyph glyph-name="otilde" unicode="&#xf5;" horiz-adv-x="593" 
d="M506 234q6 39 -2 73t-27.5 59t-50 39.5t-71.5 14.5t-75.5 -14.5t-60.5 -39.5t-43 -59t-23 -73t1.5 -73t27 -59t50 -39.5t71.5 -14.5t75.5 14.5t61 39.5t43.5 59t23 73zM578 234q-8 -53 -32.5 -98t-62 -78t-86 -51.5t-103.5 -18.5q-54 0 -97 18.5t-71.5 51.5t-40.5 78
t-4 98q7 53 32 98t62.5 78t85.5 51.5t102 18.5q55 0 98 -18.5t71.5 -51.5t40.5 -78t5 -98zM216 576q6 19 15 38t22 33.5t30 23.5t40 9q18 0 35 -7t34 -16q17 -8 33 -15.5t31 -7.5q23 0 36 15.5t20 34.5h43q-6 -20 -15 -38.5t-21.5 -33t-30 -23.5t-39.5 -9q-18 0 -35.5 7.5
t-34.5 15.5q-17 9 -32.5 16t-31.5 7q-23 0 -36 -15.5t-20 -34.5h-43z" />
    <glyph glyph-name="odieresis" unicode="&#xf6;" horiz-adv-x="593" 
d="M506 234q6 39 -2 73t-27.5 59t-50 39.5t-71.5 14.5t-75.5 -14.5t-60.5 -39.5t-43 -59t-23 -73t1.5 -73t27 -59t50 -39.5t71.5 -14.5t75.5 14.5t61 39.5t43.5 59t23 73zM578 234q-8 -53 -32.5 -98t-62 -78t-86 -51.5t-103.5 -18.5q-54 0 -97 18.5t-71.5 51.5t-40.5 78
t-4 98q7 53 32 98t62.5 78t85.5 51.5t102 18.5q55 0 98 -18.5t71.5 -51.5t40.5 -78t5 -98zM433 647q3 20 19 35.5t39 15.5t35 -15.5t9 -35.5t-19 -35.5t-39 -15.5t-35 15.5t-9 35.5zM241 647q3 20 19 35.5t39 15.5t35 -15.5t9 -35.5t-19 -35.5t-39 -15.5t-35 15.5t-9 35.5z
" />
    <glyph glyph-name="divide" unicode="&#xf7;" horiz-adv-x="666" 
d="M407 141q-3 -21 -20.5 -37.5t-41.5 -16.5t-36.5 16.5t-9.5 37.5t20 37.5t41 16.5t37 -16.5t10 -37.5zM452 465q-3 -21 -20 -37.5t-41 -16.5t-37 16.5t-10 37.5t20.5 37.5t41.5 16.5t36.5 -16.5t9.5 -37.5zM626 273h-510l9 60h510z" />
    <glyph glyph-name="oslash" unicode="&#xf8;" horiz-adv-x="593" 
d="M543 397q23 -31 32.5 -72.5t2.5 -90.5q-8 -53 -32.5 -98t-62 -78t-86 -51.5t-103.5 -18.5q-48 0 -85.5 14t-63.5 38l-77 -68l-28 31l76 68q-23 32 -32.5 73.5t-2.5 89.5q7 53 32 98t62.5 78t85.5 51.5t102 18.5q47 0 85 -13.5t67 -38.5l76 68l27 -31zM463 381
q-41 39 -108 39q-41 0 -75.5 -14.5t-60.5 -39.5t-43 -59t-23 -73q-9 -68 18 -114zM196 86q41 -38 107 -38q41 0 75.5 14.5t61 39.5t43.5 59t23 73q5 32 0 61t-18 53z" />
    <glyph glyph-name="ugrave" unicode="&#xf9;" 
d="M410 0q1 19 3 37.5t5 37.5h-2q-14 -19 -33.5 -35t-42 -27.5t-47 -18t-47.5 -6.5q-90 0 -126 47.5t-24 135.5l42 297h66l-37 -259q-5 -39 -3 -69t13.5 -50.5t34.5 -31t60 -10.5q3 0 15.5 1.5t29 7t35.5 17t36.5 31.5t31 50t19.5 73l34 240h66l-52 -365q-2 -19 -4.5 -48
t-4.5 -55h-68zM248 708h91l79 -144h-59z" />
    <glyph glyph-name="uacute" unicode="&#xfa;" 
d="M410 0q1 19 3 37.5t5 37.5h-2q-14 -19 -33.5 -35t-42 -27.5t-47 -18t-47.5 -6.5q-90 0 -126 47.5t-24 135.5l42 297h66l-37 -259q-5 -39 -3 -69t13.5 -50.5t34.5 -31t60 -10.5q3 0 15.5 1.5t29 7t35.5 17t36.5 31.5t31 50t19.5 73l34 240h66l-52 -365q-2 -19 -4.5 -48
t-4.5 -55h-68zM355 564h-59l121 144h91z" />
    <glyph glyph-name="ucircumflex" unicode="&#xfb;" 
d="M410 0q1 19 3 37.5t5 37.5h-2q-14 -19 -33.5 -35t-42 -27.5t-47 -18t-47.5 -6.5q-90 0 -126 47.5t-24 135.5l42 297h66l-37 -259q-5 -39 -3 -69t13.5 -50.5t34.5 -31t60 -10.5q3 0 15.5 1.5t29 7t35.5 17t36.5 31.5t31 50t19.5 73l34 240h66l-52 -365q-2 -19 -4.5 -48
t-4.5 -55h-68zM506 564h-66l-68 108l-98 -108h-66l130 144h80z" />
    <glyph glyph-name="udieresis" unicode="&#xfc;" 
d="M410 0q1 19 3 37.5t5 37.5h-2q-14 -19 -33.5 -35t-42 -27.5t-47 -18t-47.5 -6.5q-90 0 -126 47.5t-24 135.5l42 297h66l-37 -259q-5 -39 -3 -69t13.5 -50.5t34.5 -31t60 -10.5q3 0 15.5 1.5t29 7t35.5 17t36.5 31.5t31 50t19.5 73l34 240h66l-52 -365q-2 -19 -4.5 -48
t-4.5 -55h-68zM414 647q3 20 19 35.5t39 15.5t35 -15.5t9 -35.5t-19 -35.5t-39 -15.5t-35 15.5t-9 35.5zM222 647q3 20 19 35.5t39 15.5t35 -15.5t9 -35.5t-19 -35.5t-39 -15.5t-35 15.5t-9 35.5z" />
    <glyph glyph-name="yacute" unicode="&#xfd;" horiz-adv-x="482" 
d="M257 81l198 387h80l-317 -590q-29 -54 -66 -86t-98 -32q-15 0 -30.5 1t-29.5 6l16 64q11 -6 23 -8.5t26 -2.5q35 0 58 22t44 62l46 90l-125 474h83zM318 564h-59l121 144h91z" />
    <glyph glyph-name="thorn" unicode="&#xfe;" horiz-adv-x="611" 
d="M532 234q6 39 -2 73t-27.5 59t-50 39.5t-71.5 14.5t-77 -14.5t-64.5 -39.5t-47 -59t-24.5 -73t2.5 -73t29.5 -59t53.5 -39.5t75.5 -14.5q41 0 75.5 14.5t61 39.5t43.5 59t23 73zM178 756h66l-52 -375h2q26 30 52.5 49.5t51.5 30.5t48 15t43 4q55 0 98 -18.5t71.5 -51.5
t40.5 -78t5 -98q-8 -53 -32.5 -98t-62 -78t-86 -51.5t-103.5 -18.5q-23 0 -47.5 5t-47.5 16t-42 28t-32 41h-2l-43 -306h-66z" />
    <glyph glyph-name="ydieresis" unicode="&#xff;" horiz-adv-x="482" 
d="M257 81l198 387h80l-317 -590q-29 -54 -66 -86t-98 -32q-15 0 -30.5 1t-29.5 6l16 64q11 -6 23 -8.5t26 -2.5q35 0 58 22t44 62l46 90l-125 474h83zM377 647q3 20 19 35.5t39 15.5t35 -15.5t9 -35.5t-19 -35.5t-39 -15.5t-35 15.5t-9 35.5zM185 647q3 20 19 35.5t39 15.5
t35 -15.5t9 -35.5t-19 -35.5t-39 -15.5t-35 15.5t-9 35.5z" />
    <glyph glyph-name="Amacron" unicode="&#x100;" horiz-adv-x="686" 
d="M224 252h307l-100 372zM84 0h-84l408 708h70l208 -708h-84l-52 186h-362zM587 791h-270l8 54h270z" />
    <glyph glyph-name="amacron" unicode="&#x101;" horiz-adv-x="519" 
d="M371 233q-25 0 -62.5 -2.5t-73.5 -12t-63.5 -29.5t-32.5 -55q-3 -23 4 -39.5t21.5 -27t33.5 -15t39 -4.5q36 0 64.5 12t48.5 32.5t32.5 48t17.5 58.5l5 34h-34zM412 287l2 12q16 121 -103 121q-82 0 -151 -55l-33 47q37 33 89 50.5t118 17.5q34 0 64 -10t50.5 -30.5
t30 -51.5t3.5 -74l-29 -209q-4 -27 -5.5 -56.5t-1.5 -48.5h-64q-1 17 0.5 37t4.5 39h-2q-35 -47 -78 -67.5t-100 -20.5q-31 0 -59 8.5t-47.5 26t-29.5 43t-5 59.5q8 57 42 89.5t80.5 48.5t97.5 20t93 4h33zM479 600h-270l8 54h270z" />
    <glyph glyph-name="Abreve" unicode="&#x102;" horiz-adv-x="686" 
d="M224 252h307l-100 372zM84 0h-84l408 708h70l208 -708h-84l-52 186h-362zM611 892q-13 -63 -58.5 -97.5t-107.5 -34.5t-97.5 34.5t-30.5 97.5h44q1 -39 27.5 -58.5t64.5 -19.5t69.5 19.5t44.5 58.5h44z" />
    <glyph glyph-name="abreve" unicode="&#x103;" horiz-adv-x="519" 
d="M371 233q-25 0 -62.5 -2.5t-73.5 -12t-63.5 -29.5t-32.5 -55q-3 -23 4 -39.5t21.5 -27t33.5 -15t39 -4.5q36 0 64.5 12t48.5 32.5t32.5 48t17.5 58.5l5 34h-34zM412 287l2 12q16 121 -103 121q-82 0 -151 -55l-33 47q37 33 89 50.5t118 17.5q34 0 64 -10t50.5 -30.5
t30 -51.5t3.5 -74l-29 -209q-4 -27 -5.5 -56.5t-1.5 -48.5h-64q-1 17 0.5 37t4.5 39h-2q-35 -47 -78 -67.5t-100 -20.5q-31 0 -59 8.5t-47.5 26t-29.5 43t-5 59.5q8 57 42 89.5t80.5 48.5t97.5 20t93 4h33zM489 708q-13 -63 -58.5 -97.5t-107.5 -34.5t-97.5 34.5t-30.5 97.5
h44q1 -39 27.5 -58.5t64.5 -19.5t69.5 19.5t44.5 58.5h44z" />
    <glyph glyph-name="Aogonek" unicode="&#x104;" horiz-adv-x="686" 
d="M680 -181q-20 -17 -45 -26.5t-50 -9.5q-18 0 -33.5 6t-26.5 17.5t-16.5 27t-2.5 34.5q3 21 14 40.5t26.5 37t33.5 33.5q13 11 26 21h-4l-52 186h-362l-104 -186h-84l408 708h70l208 -708h-30q-37 -33 -59 -58q-24 -28 -28 -57q-3 -21 10 -34.5t33 -13.5q14 0 28.5 5.5
t25.5 16.5zM224 252h307l-100 372z" />
    <glyph glyph-name="aogonek" unicode="&#x105;" horiz-adv-x="519" 
d="M456 -181q-20 -17 -45 -26.5t-50 -9.5q-18 0 -33.5 6t-26.5 17.5t-16.5 27t-2.5 34.5q3 21 14 40.5t26.5 37t33.5 33.5q13 11 26 21q-1 17 0.5 37t4.5 39h-2q-35 -47 -78 -67.5t-100 -20.5q-31 0 -59 8.5t-47.5 26t-29.5 43t-5 59.5q8 57 42 89.5t80.5 48.5t97.5 20t93 4
h33l2 12q16 121 -103 121q-82 0 -151 -55l-33 47q37 33 89 50.5t118 17.5q34 0 64 -10t50.5 -30.5t30 -51.5t3.5 -74l-29 -209q-4 -27 -5.5 -56.5t-1.5 -48.5h-14q-37 -33 -59 -58q-24 -28 -28 -57q-3 -21 10 -34.5t33 -13.5q14 0 28.5 5.5t25.5 16.5zM371 233
q-25 0 -62.5 -2.5t-73.5 -12t-63.5 -29.5t-32.5 -55q-3 -23 4 -39.5t21.5 -27t33.5 -15t39 -4.5q36 0 64.5 12t48.5 32.5t32.5 48t17.5 58.5l5 34h-34z" />
    <glyph glyph-name="Cacute" unicode="&#x106;" horiz-adv-x="704" 
d="M695 112q-22 -27 -52 -51t-66.5 -41.5t-77.5 -27.5t-85 -10q-79 0 -142.5 28t-106 77.5t-60.5 117.5t-7 149t48.5 149t94 117.5t128 77.5t150.5 28q33 0 65.5 -6.5t62.5 -20t56 -34.5t45 -51l-69 -47q-8 17 -25 34t-39.5 30t-49.5 21t-55 8q-68 0 -125.5 -25t-101 -67
t-71 -97.5t-36.5 -116.5t3.5 -116.5t44 -97.5t82 -67t118.5 -25q28 0 56.5 5t56 17t54.5 32.5t51 51.5zM510 760h-59l121 144h91z" />
    <glyph glyph-name="cacute" unicode="&#x107;" horiz-adv-x="482" 
d="M463 358q-13 26 -41 44t-67 18q-41 1 -75.5 -13t-61 -39t-43 -59.5t-22.5 -74.5t1.5 -74.5t26.5 -59.5t50 -39t72 -13q39 0 72 18t53 44l49 -41q-41 -41 -88 -60.5t-95 -20.5q-57 -1 -100.5 17.5t-71 51.5t-38.5 78.5t-3 98.5q7 53 31 98.5t60.5 78.5t85 51.5t105.5 17.5
q48 -1 89.5 -20.5t70.5 -60.5zM358 564h-59l121 144h91z" />
    <glyph glyph-name="Ccircumflex" unicode="&#x108;" horiz-adv-x="704" 
d="M695 112q-22 -27 -52 -51t-66.5 -41.5t-77.5 -27.5t-85 -10q-79 0 -142.5 28t-106 77.5t-60.5 117.5t-7 149t48.5 149t94 117.5t128 77.5t150.5 28q33 0 65.5 -6.5t62.5 -20t56 -34.5t45 -51l-69 -47q-8 17 -25 34t-39.5 30t-49.5 21t-55 8q-68 0 -125.5 -25t-101 -67
t-71 -97.5t-36.5 -116.5t3.5 -116.5t44 -97.5t82 -67t118.5 -25q28 0 56.5 5t56 17t54.5 32.5t51 51.5zM669 760h-66l-68 108l-98 -108h-66l130 144h80z" />
    <glyph glyph-name="ccircumflex" unicode="&#x109;" horiz-adv-x="482" 
d="M463 358q-13 26 -41 44t-67 18q-41 1 -75.5 -13t-61 -39t-43 -59.5t-22.5 -74.5t1.5 -74.5t26.5 -59.5t50 -39t72 -13q39 0 72 18t53 44l49 -41q-41 -41 -88 -60.5t-95 -20.5q-57 -1 -100.5 17.5t-71 51.5t-38.5 78.5t-3 98.5q7 53 31 98.5t60.5 78.5t85 51.5t105.5 17.5
q48 -1 89.5 -20.5t70.5 -60.5zM506 564h-66l-68 108l-98 -108h-66l130 144h80z" />
    <glyph glyph-name="Cdotaccent" unicode="&#x10a;" horiz-adv-x="704" 
d="M695 112q-22 -27 -52 -51t-66.5 -41.5t-77.5 -27.5t-85 -10q-79 0 -142.5 28t-106 77.5t-60.5 117.5t-7 149t48.5 149t94 117.5t128 77.5t150.5 28q33 0 65.5 -6.5t62.5 -20t56 -34.5t45 -51l-69 -47q-8 17 -25 34t-39.5 30t-49.5 21t-55 8q-68 0 -125.5 -25t-101 -67
t-71 -97.5t-36.5 -116.5t3.5 -116.5t44 -97.5t82 -67t118.5 -25q28 0 56.5 5t56 17t54.5 32.5t51 51.5zM480 822q3 20 19.5 35.5t39.5 15.5t34.5 -15.5t8.5 -35.5q-2 -20 -18.5 -35.5t-39.5 -15.5t-34.5 15.5t-9.5 35.5z" />
    <glyph glyph-name="cdotaccent" unicode="&#x10b;" horiz-adv-x="482" 
d="M463 358q-13 26 -41 44t-67 18q-41 1 -75.5 -13t-61 -39t-43 -59.5t-22.5 -74.5t1.5 -74.5t26.5 -59.5t50 -39t72 -13q39 0 72 18t53 44l49 -41q-41 -41 -88 -60.5t-95 -20.5q-57 -1 -100.5 17.5t-71 51.5t-38.5 78.5t-3 98.5q7 53 31 98.5t60.5 78.5t85 51.5t105.5 17.5
q48 -1 89.5 -20.5t70.5 -60.5zM305 657q3 20 19.5 35.5t39.5 15.5t34.5 -15.5t8.5 -35.5q-2 -20 -18.5 -35.5t-39.5 -15.5t-34.5 15.5t-9.5 35.5z" />
    <glyph glyph-name="Ccaron" unicode="&#x10c;" horiz-adv-x="704" 
d="M695 112q-22 -27 -52 -51t-66.5 -41.5t-77.5 -27.5t-85 -10q-79 0 -142.5 28t-106 77.5t-60.5 117.5t-7 149t48.5 149t94 117.5t128 77.5t150.5 28q33 0 65.5 -6.5t62.5 -20t56 -34.5t45 -51l-69 -47q-8 17 -25 34t-39.5 30t-49.5 21t-55 8q-68 0 -125.5 -25t-101 -67
t-71 -97.5t-36.5 -116.5t3.5 -116.5t44 -97.5t82 -67t118.5 -25q28 0 56.5 5t56 17t54.5 32.5t51 51.5zM550 760h-80l-88 144h66l67 -108l99 108h66z" />
    <glyph glyph-name="ccaron" unicode="&#x10d;" horiz-adv-x="482" 
d="M463 358q-13 26 -41 44t-67 18q-41 1 -75.5 -13t-61 -39t-43 -59.5t-22.5 -74.5t1.5 -74.5t26.5 -59.5t50 -39t72 -13q39 0 72 18t53 44l49 -41q-41 -41 -88 -60.5t-95 -20.5q-57 -1 -100.5 17.5t-71 51.5t-38.5 78.5t-3 98.5q7 53 31 98.5t60.5 78.5t85 51.5t105.5 17.5
q48 -1 89.5 -20.5t70.5 -60.5zM392 564h-80l-88 144h66l67 -108l99 108h66z" />
    <glyph glyph-name="Dcaron" unicode="&#x10e;" horiz-adv-x="741" 
d="M167 66h140q81 0 144 24.5t108 65t71.5 92t34.5 106.5q7 55 -4.5 106.5t-45.5 92t-90 65t-137 24.5h-140zM186 708h72h163q66 0 129.5 -22t110.5 -66.5t70.5 -111t11.5 -154.5q-12 -89 -55 -155t-102 -110.5t-129 -66.5t-136 -22h-163h-72zM463 760h-80l-88 144h66
l67 -108l99 108h66z" />
    <glyph glyph-name="dcaron" unicode="&#x10f;" horiz-adv-x="611" 
d="M145 234q-6 -39 1.5 -73t27 -59t50.5 -39.5t72 -14.5q40 0 76.5 14.5t65 39.5t47 59t24.5 73t-3.5 73t-31 59t-54 39.5t-72.5 14.5q-41 0 -75.5 -14.5t-61 -39.5t-43.5 -59t-23 -73zM539 0h-66l11 78h-2q-20 -24 -44 -41t-50 -28t-52 -16t-49 -5q-55 0 -98 18.5
t-71.5 51.5t-40.5 78t-4 98q7 53 32 98t62.5 78t85.5 51.5t103 18.5q23 0 48 -5t47.5 -16t42 -28t32.5 -41h2l51 366h66zM721 523h-57l101 185h71z" />
    <glyph glyph-name="Dcroat" unicode="&#x110;" horiz-adv-x="741" 
d="M167 66h140q81 0 144 24.5t108 65t71.5 92t34.5 106.5q7 55 -4.5 106.5t-45.5 92t-90 65t-137 24.5h-140l-34 -241h258l-7 -54h-258zM135 347h-73l7 54h73l44 307h72h163q66 0 129.5 -22t110.5 -66.5t70.5 -111t11.5 -154.5q-12 -89 -55 -155t-102 -110.5t-129 -66.5
t-136 -22h-163h-72z" />
    <glyph glyph-name="dcroat" unicode="&#x111;" horiz-adv-x="611" 
d="M539 0h-66l11 78h-2q-20 -24 -44 -41t-50 -28t-52 -16t-49 -5q-55 0 -98 18.5t-71.5 51.5t-40.5 78t-4 98q7 53 32 98t62.5 78t85.5 51.5t103 18.5q23 0 48 -5t47.5 -16t42 -28t32.5 -41h2l23 170h-188l8 52h188l20 144h66l-20 -144h65l-8 -52h-65zM145 234
q-6 -39 1.5 -73t27 -59t50.5 -39.5t72 -14.5q40 0 76.5 14.5t65 39.5t47 59t24.5 73t-3.5 73t-31 59t-54 39.5t-72.5 14.5q-41 0 -75.5 -14.5t-61 -39.5t-43.5 -59t-23 -73z" />
    <glyph glyph-name="Emacron" unicode="&#x112;" horiz-adv-x="593" 
d="M177 66h379l-9 -66h-379h-72l100 708h71h368l-10 -66h-367l-34 -241h343l-9 -66h-343zM569 791h-270l8 54h270z" />
    <glyph glyph-name="emacron" unicode="&#x113;" 
d="M474 270q9 67 -25 108.5t-106 41.5q-32 0 -63.5 -12.5t-57 -33.5t-43 -48t-21.5 -56h316zM148 216q-2 -35 8 -66t29.5 -53.5t48 -35.5t63.5 -13q53 0 95 24.5t66 56.5l45 -42q-49 -53 -103 -76t-112 -23q-52 0 -93.5 18.5t-69.5 51.5t-40 78t-4 98q7 53 31.5 98t61 78
t82 51.5t95.5 18.5q53 0 92.5 -19t63.5 -50.5t33.5 -74t2.5 -90.5l-5 -30h-390zM500 600h-270l8 54h270z" />
    <glyph glyph-name="Ebreve" unicode="&#x114;" horiz-adv-x="593" 
d="M177 66h379l-9 -66h-379h-72l100 708h71h368l-10 -66h-367l-34 -241h343l-9 -66h-343zM589 892q-13 -63 -58.5 -97.5t-107.5 -34.5t-97.5 34.5t-30.5 97.5h44q1 -39 27.5 -58.5t64.5 -19.5t69.5 19.5t44.5 58.5h44z" />
    <glyph glyph-name="ebreve" unicode="&#x115;" 
d="M474 270q9 67 -25 108.5t-106 41.5q-32 0 -63.5 -12.5t-57 -33.5t-43 -48t-21.5 -56h316zM148 216q-2 -35 8 -66t29.5 -53.5t48 -35.5t63.5 -13q53 0 95 24.5t66 56.5l45 -42q-49 -53 -103 -76t-112 -23q-52 0 -93.5 18.5t-69.5 51.5t-40 78t-4 98q7 53 31.5 98t61 78
t82 51.5t95.5 18.5q53 0 92.5 -19t63.5 -50.5t33.5 -74t2.5 -90.5l-5 -30h-390zM534 708q-13 -63 -58.5 -97.5t-107.5 -34.5t-97.5 34.5t-30.5 97.5h44q1 -39 27.5 -58.5t64.5 -19.5t69.5 19.5t44.5 58.5h44z" />
    <glyph glyph-name="Edotaccent" unicode="&#x116;" horiz-adv-x="593" 
d="M177 66h379l-9 -66h-379h-72l100 708h71h368l-10 -66h-367l-34 -241h343l-9 -66h-343zM381 822q3 20 19.5 35.5t39.5 15.5t34.5 -15.5t8.5 -35.5q-2 -20 -18.5 -35.5t-39.5 -15.5t-34.5 15.5t-9.5 35.5z" />
    <glyph glyph-name="edotaccent" unicode="&#x117;" 
d="M474 270q9 67 -25 108.5t-106 41.5q-32 0 -63.5 -12.5t-57 -33.5t-43 -48t-21.5 -56h316zM148 216q-2 -35 8 -66t29.5 -53.5t48 -35.5t63.5 -13q53 0 95 24.5t66 56.5l45 -42q-49 -53 -103 -76t-112 -23q-52 0 -93.5 18.5t-69.5 51.5t-40 78t-4 98q7 53 31.5 98t61 78
t82 51.5t95.5 18.5q53 0 92.5 -19t63.5 -50.5t33.5 -74t2.5 -90.5l-5 -30h-390zM320 657q3 20 19.5 35.5t39.5 15.5t34.5 -15.5t8.5 -35.5q-2 -20 -18.5 -35.5t-39.5 -15.5t-34.5 15.5t-9.5 35.5z" />
    <glyph glyph-name="Eogonek" unicode="&#x118;" horiz-adv-x="593" 
d="M551 -181q-20 -17 -45 -26.5t-50 -9.5q-18 0 -33.5 6t-26.5 17.5t-16.5 27t-2.5 34.5q3 21 14 40.5t26.5 37t33.5 33.5q13 11 26 21h-381l100 708h439l-10 -66h-367l-34 -241h343l-9 -66h-343l-38 -269h379l-9 -66h-20q-37 -33 -59 -58q-24 -28 -28 -57q-3 -21 10 -34.5
t33 -13.5q14 0 28.5 5.5t25.5 16.5z" />
    <glyph glyph-name="eogonek" unicode="&#x119;" 
d="M474 270q9 67 -25 108.5t-106 41.5q-32 0 -63.5 -12.5t-57 -33.5t-43 -48t-21.5 -56h316zM148 216q-2 -35 8 -66t29.5 -53.5t48 -35.5t63.5 -13q53 0 95 24.5t66 56.5l45 -42q-49 -53 -103 -76t-112 -23q-52 0 -93.5 18.5t-69.5 51.5t-40 78t-4 98q7 53 31.5 98t61 78
t82 51.5t95.5 18.5q53 0 92.5 -19t63.5 -50.5t33.5 -74t2.5 -90.5l-5 -30h-390zM371 -181q-20 -17 -45 -26.5t-50 -9.5q-18 0 -33.5 6t-26.5 17.5t-16.5 27t-2.5 34.5q3 21 14 40.5t26.5 37t33.5 33t35 27.5h48q-42 -37 -66 -64.5t-28 -56.5q-3 -21 10 -34.5t33 -13.5
q14 0 28.5 5.5t25.5 16.5z" />
    <glyph glyph-name="Ecaron" unicode="&#x11a;" horiz-adv-x="593" 
d="M177 66h379l-9 -66h-379h-72l100 708h71h368l-10 -66h-367l-34 -241h343l-9 -66h-343zM462 760h-80l-88 144h66l67 -108l99 108h66z" />
    <glyph glyph-name="ecaron" unicode="&#x11b;" 
d="M474 270q9 67 -25 108.5t-106 41.5q-32 0 -63.5 -12.5t-57 -33.5t-43 -48t-21.5 -56h316zM148 216q-2 -35 8 -66t29.5 -53.5t48 -35.5t63.5 -13q53 0 95 24.5t66 56.5l45 -42q-49 -53 -103 -76t-112 -23q-52 0 -93.5 18.5t-69.5 51.5t-40 78t-4 98q7 53 31.5 98t61 78
t82 51.5t95.5 18.5q53 0 92.5 -19t63.5 -50.5t33.5 -74t2.5 -90.5l-5 -30h-390zM400 564h-80l-88 144h66l67 -108l99 108h66z" />
    <glyph glyph-name="Gcircumflex" unicode="&#x11c;" horiz-adv-x="778" 
d="M700 578q-31 38 -77.5 60t-112.5 22q-68 0 -125.5 -25t-101 -67t-71 -97.5t-36.5 -116.5t3.5 -116.5t44 -97.5t82 -67t118.5 -25q55 0 107.5 13.5t95.5 36.5l33 237h-169l9 66h169h72l-48 -347q-65 -35 -139.5 -53.5t-139.5 -18.5q-79 0 -142.5 28t-106 77.5t-60.5 117.5
t-7 149t48.5 149t94 117.5t128 77.5t150.5 28q85 0 143.5 -23.5t99.5 -71.5zM667 760h-66l-68 108l-98 -108h-66l130 144h80z" />
    <glyph glyph-name="gcircumflex" unicode="&#x11d;" horiz-adv-x="611" 
d="M154 240q-5 -37 3.5 -69.5t28.5 -57t49.5 -39t66.5 -14.5q36 0 70.5 13t62.5 36.5t47 56.5t23 74q5 37 -2.5 69.5t-27 57t-50.5 39t-72 14.5q-37 0 -70.5 -14.5t-60.5 -39t-45 -57t-23 -69.5zM95 -94q23 -39 66.5 -62.5t100.5 -23.5q50 0 87 14.5t62 39.5t39 58.5
t20 71.5l11 84h-2q-38 -48 -87 -68t-100 -20t-93 18t-70.5 49.5t-41.5 75.5t-6 95t31.5 95t60.5 77t82 51.5t98 18.5q21 0 44 -4t45 -14t42.5 -27.5t37.5 -44.5h2l11 78h66l-65 -464q-6 -38 -21.5 -81t-48 -79t-85 -60t-131.5 -24q-137 0 -212 94zM530 564h-66l-68 108
l-98 -108h-66l130 144h80z" />
    <glyph glyph-name="Gbreve" unicode="&#x11e;" horiz-adv-x="778" 
d="M700 578q-31 38 -77.5 60t-112.5 22q-68 0 -125.5 -25t-101 -67t-71 -97.5t-36.5 -116.5t3.5 -116.5t44 -97.5t82 -67t118.5 -25q55 0 107.5 13.5t95.5 36.5l33 237h-169l9 66h169h72l-48 -347q-65 -35 -139.5 -53.5t-139.5 -18.5q-79 0 -142.5 28t-106 77.5t-60.5 117.5
t-7 149t48.5 149t94 117.5t128 77.5t150.5 28q85 0 143.5 -23.5t99.5 -71.5zM687 892q-13 -63 -58.5 -97.5t-107.5 -34.5t-97.5 34.5t-30.5 97.5h44q1 -39 27.5 -58.5t64.5 -19.5t69.5 19.5t44.5 58.5h44z" />
    <glyph glyph-name="gbreve" unicode="&#x11f;" horiz-adv-x="611" 
d="M154 240q-5 -37 3.5 -69.5t28.5 -57t49.5 -39t66.5 -14.5q36 0 70.5 13t62.5 36.5t47 56.5t23 74q5 37 -2.5 69.5t-27 57t-50.5 39t-72 14.5q-37 0 -70.5 -14.5t-60.5 -39t-45 -57t-23 -69.5zM95 -94q23 -39 66.5 -62.5t100.5 -23.5q50 0 87 14.5t62 39.5t39 58.5
t20 71.5l11 84h-2q-38 -48 -87 -68t-100 -20t-93 18t-70.5 49.5t-41.5 75.5t-6 95t31.5 95t60.5 77t82 51.5t98 18.5q21 0 44 -4t45 -14t42.5 -27.5t37.5 -44.5h2l11 78h66l-65 -464q-6 -38 -21.5 -81t-48 -79t-85 -60t-131.5 -24q-137 0 -212 94zM553 708
q-13 -63 -58.5 -97.5t-107.5 -34.5t-97.5 34.5t-30.5 97.5h44q1 -39 27.5 -58.5t64.5 -19.5t69.5 19.5t44.5 58.5h44z" />
    <glyph glyph-name="Gdotaccent" unicode="&#x120;" horiz-adv-x="778" 
d="M700 578q-31 38 -77.5 60t-112.5 22q-68 0 -125.5 -25t-101 -67t-71 -97.5t-36.5 -116.5t3.5 -116.5t44 -97.5t82 -67t118.5 -25q55 0 107.5 13.5t95.5 36.5l33 237h-169l9 66h169h72l-48 -347q-65 -35 -139.5 -53.5t-139.5 -18.5q-79 0 -142.5 28t-106 77.5t-60.5 117.5
t-7 149t48.5 149t94 117.5t128 77.5t150.5 28q85 0 143.5 -23.5t99.5 -71.5zM474 822q3 20 19.5 35.5t39.5 15.5t34.5 -15.5t8.5 -35.5q-2 -20 -18.5 -35.5t-39.5 -15.5t-34.5 15.5t-9.5 35.5z" />
    <glyph glyph-name="gdotaccent" unicode="&#x121;" horiz-adv-x="611" 
d="M154 240q-5 -37 3.5 -69.5t28.5 -57t49.5 -39t66.5 -14.5q36 0 70.5 13t62.5 36.5t47 56.5t23 74q5 37 -2.5 69.5t-27 57t-50.5 39t-72 14.5q-37 0 -70.5 -14.5t-60.5 -39t-45 -57t-23 -69.5zM95 -94q23 -39 66.5 -62.5t100.5 -23.5q50 0 87 14.5t62 39.5t39 58.5
t20 71.5l11 84h-2q-38 -48 -87 -68t-100 -20t-93 18t-70.5 49.5t-41.5 75.5t-6 95t31.5 95t60.5 77t82 51.5t98 18.5q21 0 44 -4t45 -14t42.5 -27.5t37.5 -44.5h2l11 78h66l-65 -464q-6 -38 -21.5 -81t-48 -79t-85 -60t-131.5 -24q-137 0 -212 94zM348 657q3 20 19.5 35.5
t39.5 15.5t34.5 -15.5t8.5 -35.5q-2 -20 -18.5 -35.5t-39.5 -15.5t-34.5 15.5t-9.5 35.5z" />
    <glyph glyph-name="Gcommaaccent" unicode="&#x122;" horiz-adv-x="778" 
d="M700 578q-31 38 -77.5 60t-112.5 22q-68 0 -125.5 -25t-101 -67t-71 -97.5t-36.5 -116.5t3.5 -116.5t44 -97.5t82 -67t118.5 -25q55 0 107.5 13.5t95.5 36.5l33 237h-169l9 66h169h72l-48 -347q-65 -35 -139.5 -53.5t-139.5 -18.5q-79 0 -142.5 28t-106 77.5t-60.5 117.5
t-7 149t48.5 149t94 117.5t128 77.5t150.5 28q85 0 143.5 -23.5t99.5 -71.5zM365 -230h-57l101 185h71z" />
    <glyph glyph-name="gcommaaccent" unicode="&#x123;" horiz-adv-x="611" 
d="M154 240q-5 -37 3.5 -69.5t28.5 -57t49.5 -39t66.5 -14.5q36 0 70.5 13t62.5 36.5t47 56.5t23 74q5 37 -2.5 69.5t-27 57t-50.5 39t-72 14.5q-37 0 -70.5 -14.5t-60.5 -39t-45 -57t-23 -69.5zM95 -94q23 -39 66.5 -62.5t100.5 -23.5q50 0 87 14.5t62 39.5t39 58.5
t20 71.5l11 84h-2q-38 -48 -87 -68t-100 -20t-93 18t-70.5 49.5t-41.5 75.5t-6 95t31.5 95t60.5 77t82 51.5t98 18.5q21 0 44 -4t45 -14t42.5 -27.5t37.5 -44.5h2l11 78h66l-65 -464q-6 -38 -21.5 -81t-48 -79t-85 -60t-131.5 -24q-137 0 -212 94zM424 749h57l-101 -185h-71
z" />
    <glyph glyph-name="Hcircumflex" unicode="&#x124;" horiz-adv-x="722" 
d="M196 708h72l-44 -307h386l44 307h72l-100 -708h-72l47 335h-386l-47 -335h-72zM613 760h-66l-68 108l-98 -108h-66l130 144h80z" />
    <glyph glyph-name="hcircumflex" unicode="&#x125;" 
d="M178 756h66l-51 -363h2q13 19 32.5 35t42 27.5t47 18t47.5 6.5q90 0 126.5 -47.5t24.5 -135.5l-42 -297h-66l36 259q6 39 4 69t-13.5 50.5t-34.5 31t-60 10.5q-5 0 -28.5 -4t-51.5 -22t-53 -54t-34 -100l-34 -240h-66zM485 796h-66l-68 108l-98 -108h-66l130 144h80z" />
    <glyph glyph-name="Hbar" unicode="&#x126;" horiz-adv-x="722" 
d="M196 708h72l-20 -135h386l20 135h72l-100 -708h-72l47 335h-386l-47 -335h-72zM610 401l16 112h-386l-16 -112h386z" />
    <glyph glyph-name="hbar" unicode="&#x127;" 
d="M178 756h66l-20 -144h188l-8 -52h-188l-23 -167h2q13 19 32.5 35t42 27.5t47 18t47.5 6.5q90 0 126.5 -47.5t24.5 -135.5l-42 -297h-66l36 259q6 39 4 69t-13.5 50.5t-34.5 31t-60 10.5q-5 0 -28.5 -4t-51.5 -22t-53 -54t-34 -100l-34 -240h-66l78 560h-65l8 52h65z" />
    <glyph glyph-name="Itilde" unicode="&#x128;" horiz-adv-x="264" 
d="M168 0h-72l100 708h72zM72 765q6 19 15 38t22 33.5t30 23.5t40 9q18 0 35 -7t34 -16q17 -8 33 -15.5t31 -7.5q23 0 36 15.5t20 34.5h43q-6 -20 -15 -38.5t-21.5 -33t-30 -23.5t-39.5 -9q-18 0 -35.5 7.5t-34.5 15.5q-17 9 -32.5 16t-31.5 7q-23 0 -36 -15.5t-20 -34.5
h-43z" />
    <glyph glyph-name="itilde" unicode="&#x129;" horiz-adv-x="240" 
d="M153 0h-66l66 468h66zM37 576q6 19 15 38t22 33.5t30 23.5t40 9q18 0 35 -7t34 -16q17 -8 33 -15.5t31 -7.5q23 0 36 15.5t20 34.5h43q-6 -20 -15 -38.5t-21.5 -33t-30 -23.5t-39.5 -9q-18 0 -35.5 7.5t-34.5 15.5q-17 9 -32.5 16t-31.5 7q-23 0 -36 -15.5t-20 -34.5h-43
z" />
    <glyph glyph-name="Imacron" unicode="&#x12a;" horiz-adv-x="264" 
d="M168 0h-72l100 708h72zM370 791h-270l8 54h270z" />
    <glyph glyph-name="imacron" unicode="&#x12b;" horiz-adv-x="240" 
d="M153 0h-66l66 468h66zM337 600h-270l8 54h270z" />
    <glyph glyph-name="Iogonek" unicode="&#x12e;" horiz-adv-x="264" 
d="M176 -181q-20 -17 -45 -26.5t-50 -9.5q-18 0 -33.5 6t-26.5 17.5t-16.5 27t-2.5 34.5q3 21 14 40.5t26.5 37t33.5 33.5q13 11 26 21h-6l100 708h72l-100 -708h-16q-37 -33 -59 -58q-24 -28 -28 -57q-3 -21 10 -34.5t33 -13.5q14 0 28.5 5.5t25.5 16.5z" />
    <glyph glyph-name="iogonek" unicode="&#x12f;" horiz-adv-x="240" 
d="M165 -181q-20 -17 -45 -26.5t-50 -9.5q-18 0 -33.5 6t-26.5 17.5t-16.5 27t-2.5 34.5q3 21 14 40.5t26.5 37t33.5 33.5q13 11 26 21h-4l66 468h66l-66 -468h-12q-37 -33 -59 -58q-24 -28 -28 -57q-3 -21 10 -34.5t33 -13.5q14 0 28.5 5.5t25.5 16.5zM259 648
q-3 -21 -20 -34.5t-35 -13.5t-31 13.5t-10 34.5t20 34.5t35 13.5t31 -13.5t10 -34.5z" />
    <glyph glyph-name="Idotaccent" unicode="&#x130;" horiz-adv-x="264" 
d="M168 0h-72l100 708h72zM194 822q3 20 19.5 35.5t39.5 15.5t34.5 -15.5t8.5 -35.5q-2 -20 -18.5 -35.5t-39.5 -15.5t-34.5 15.5t-9.5 35.5z" />
    <glyph glyph-name="dotlessi" unicode="&#x131;" horiz-adv-x="240" 
d="M153 0h-66l66 468h66z" />
    <glyph glyph-name="IJ" unicode="&#x132;" horiz-adv-x="695" 
d="M168 0h-72l100 708h72zM320 145q4 -45 27.5 -71t71.5 -26q39 0 65.5 15.5t43.5 40t26 56t14 64.5l69 484h72l-73 -514q-5 -36 -20 -73.5t-42.5 -68t-68.5 -50.5t-98 -20q-73 0 -116.5 37.5t-45.5 110.5z" />
    <glyph glyph-name="ij" unicode="&#x133;" horiz-adv-x="476" 
d="M259 648q-3 -21 -20 -34.5t-35 -13.5t-31 13.5t-10 34.5t20 34.5t35 13.5t31 -13.5t10 -34.5zM153 0h-66l66 468h66zM495 648q-3 -21 -20 -34.5t-35 -13.5t-31 13.5t-10 34.5t20 34.5t35 13.5t31 -13.5t10 -34.5zM190 -173l3 -1q8 -2 17 -4t17 -2q24 0 39.5 9t24.5 23.5
t13.5 31.5t6.5 34l78 550h66l-79 -561q-2 -10 -6 -34.5t-19.5 -49.5t-45.5 -44t-82 -19q-27 0 -50 10z" />
    <glyph glyph-name="Jcircumflex" unicode="&#x134;" horiz-adv-x="482" 
d="M107 145q4 -45 27.5 -71t71.5 -26q39 0 65.5 15.5t43.5 40t26 56t14 64.5l69 484h72l-73 -514q-5 -36 -20 -73.5t-42.5 -68t-68.5 -50.5t-98 -20q-73 0 -116.5 37.5t-45.5 110.5zM616 760h-66l-68 108l-98 -108h-66l130 144h80z" />
    <glyph glyph-name="jcircumflex" unicode="&#x135;" horiz-adv-x="240" 
d="M-46 -173l3 -1q8 -2 17 -4t17 -2q24 0 39.5 9t24.5 23.5t13.5 31.5t6.5 34l78 550h66l-79 -561q-2 -10 -6 -34.5t-19.5 -49.5t-45.5 -44t-82 -19q-27 0 -50 10zM348 564h-66l-68 108l-98 -108h-66l130 144h80z" />
    <glyph glyph-name="Kcommaaccent" unicode="&#x136;" horiz-adv-x="630" 
d="M224 401h1h9l377 307h103l-403 -321l323 -387h-106l-297 365h-11h-1l-51 -365h-72l100 708h72zM261 -230h-57l101 185h71z" />
    <glyph glyph-name="kcommaaccent" unicode="&#x137;" horiz-adv-x="482" 
d="M174 257l251 211h99l-263 -214l222 -254h-102l-208 246l-35 -246h-66l106 756h66zM183 -230h-57l101 185h71z" />
    <glyph glyph-name="Lacute" unicode="&#x139;" horiz-adv-x="500" 
d="M177 66h330l-9 -66h-330h-72l100 708h72zM247 760h-59l121 144h91z" />
    <glyph glyph-name="lacute" unicode="&#x13a;" horiz-adv-x="240" 
d="M153 0h-66l106 756h66zM254 792h-59l121 144h91z" />
    <glyph glyph-name="Lcommaaccent" unicode="&#x13b;" horiz-adv-x="500" 
d="M177 66h330l-9 -66h-330h-72l100 708h72zM240 -230h-57l101 185h71z" />
    <glyph glyph-name="lcommaaccent" unicode="&#x13c;" horiz-adv-x="240" 
d="M153 0h-66l106 756h66zM36 -230h-57l101 185h71z" />
    <glyph glyph-name="Lcaron" unicode="&#x13d;" horiz-adv-x="500" 
d="M177 66h330l-9 -66h-330h-72l100 708h72zM347 523h-57l101 185h71z" />
    <glyph glyph-name="lcaron" unicode="&#x13e;" horiz-adv-x="240" 
d="M153 0h-66l106 756h66zM331 523h-57l101 185h71z" />
    <glyph glyph-name="Ldot" unicode="&#x13f;" horiz-adv-x="500" 
d="M177 66h330l-9 -66h-330h-72l100 708h72zM384 406q3 20 19.5 35.5t39.5 15.5t34.5 -15.5t8.5 -35.5q-2 -20 -18.5 -35.5t-39.5 -15.5t-34.5 15.5t-9.5 35.5z" />
    <glyph glyph-name="ldot" unicode="&#x140;" horiz-adv-x="300" 
d="M153 0h-66l106 756h66zM277 410q3 20 19.5 35.5t39.5 15.5t34.5 -15.5t8.5 -35.5q-2 -20 -18.5 -35.5t-39.5 -15.5t-34.5 15.5t-9.5 35.5z" />
    <glyph glyph-name="Lslash" unicode="&#x141;" horiz-adv-x="500" 
d="M219 362l242 186l-10 -70l-242 -186l-32 -226h330l-9 -66h-330h-72l32 230l-92 -70l10 70l92 70l58 408h72z" />
    <glyph glyph-name="lslash" unicode="&#x142;" horiz-adv-x="240" 
d="M217 458l93 84l-10 -73l-93 -83l-54 -386h-66l45 317l-93 -83l10 73l93 82l51 367h66z" />
    <glyph glyph-name="Nacute" unicode="&#x143;" horiz-adv-x="778" 
d="M623 108h2l85 600h72l-100 -708h-72h-18l-337 606h-2l-85 -606h-72l100 708h71h19zM479 760h-59l121 144h91z" />
    <glyph glyph-name="nacute" unicode="&#x144;" 
d="M201 468q-1 -19 -3 -37.5t-5 -37.5h2q13 19 32.5 35t42 27.5t47 18t47.5 6.5q90 0 126.5 -47.5t24.5 -135.5l-42 -297h-66l36 259q6 39 4 69t-13.5 50.5t-34.5 31t-60 10.5q-5 0 -28.5 -4t-51.5 -22t-53 -54t-34 -100l-34 -240h-66l51 365q3 19 5.5 48t4.5 55h68z
M356 564h-59l121 144h91z" />
    <glyph glyph-name="Ncommaaccent" unicode="&#x145;" horiz-adv-x="778" 
d="M623 108h2l85 600h72l-100 -708h-72h-18l-337 606h-2l-85 -606h-72l100 708h71h19zM320 -230h-57l101 185h71z" />
    <glyph glyph-name="ncommaaccent" unicode="&#x146;" 
d="M201 468q-1 -19 -3 -37.5t-5 -37.5h2q13 19 32.5 35t42 27.5t47 18t47.5 6.5q90 0 126.5 -47.5t24.5 -135.5l-42 -297h-66l36 259q6 39 4 69t-13.5 50.5t-34.5 31t-60 10.5q-5 0 -28.5 -4t-51.5 -22t-53 -54t-34 -100l-34 -240h-66l51 365q3 19 5.5 48t4.5 55h68z
M201 -230h-57l101 185h71z" />
    <glyph glyph-name="Ncaron" unicode="&#x147;" horiz-adv-x="778" 
d="M623 108h2l85 600h72l-100 -708h-72h-18l-337 606h-2l-85 -606h-72l100 708h71h19zM510 760h-80l-88 144h66l67 -108l99 108h66z" />
    <glyph glyph-name="ncaron" unicode="&#x148;" 
d="M201 468q-1 -19 -3 -37.5t-5 -37.5h2q13 19 32.5 35t42 27.5t47 18t47.5 6.5q90 0 126.5 -47.5t24.5 -135.5l-42 -297h-66l36 259q6 39 4 69t-13.5 50.5t-34.5 31t-60 10.5q-5 0 -28.5 -4t-51.5 -22t-53 -54t-34 -100l-34 -240h-66l51 365q3 19 5.5 48t4.5 55h68z
M389 564h-80l-88 144h66l67 -108l99 108h66z" />
    <glyph glyph-name="napostrophe" unicode="&#x149;" 
d="M201 468q-1 -19 -3 -37.5t-5 -37.5h2q13 19 32.5 35t42 27.5t47 18t47.5 6.5q90 0 126.5 -47.5t24.5 -135.5l-42 -297h-66l36 259q6 39 4 69t-13.5 50.5t-34.5 31t-60 10.5q-5 0 -28.5 -4t-51.5 -22t-53 -54t-34 -100l-34 -240h-66l51 365q3 19 5.5 48t4.5 55h68z
M134 523h-57l101 185h71z" />
    <glyph glyph-name="Omacron" unicode="&#x14c;" horiz-adv-x="834" 
d="M758 354q9 61 -3.5 116.5t-44 97.5t-82 67t-118.5 25t-125.5 -25t-101 -67t-71 -97.5t-36.5 -116.5t3.5 -116.5t44 -97.5t82 -67t118.5 -25t125.5 25t101 67t71 97.5t36.5 116.5zM836 354q-11 -81 -49 -149t-94.5 -117.5t-128 -77.5t-150.5 -28t-142.5 28t-106 77.5
t-60.5 117.5t-7 149t48.5 149t94 117.5t128 77.5t150.5 28t142.5 -28t106 -77.5t61 -117.5t7.5 -149zM657 791h-270l8 54h270z" />
    <glyph glyph-name="omacron" unicode="&#x14d;" horiz-adv-x="593" 
d="M506 234q6 39 -2 73t-27.5 59t-50 39.5t-71.5 14.5t-75.5 -14.5t-60.5 -39.5t-43 -59t-23 -73t1.5 -73t27 -59t50 -39.5t71.5 -14.5t75.5 14.5t61 39.5t43.5 59t23 73zM578 234q-8 -53 -32.5 -98t-62 -78t-86 -51.5t-103.5 -18.5q-54 0 -97 18.5t-71.5 51.5t-40.5 78
t-4 98q7 53 32 98t62.5 78t85.5 51.5t102 18.5q55 0 98 -18.5t71.5 -51.5t40.5 -78t5 -98zM520 600h-270l8 54h270z" />
    <glyph glyph-name="Obreve" unicode="&#x14e;" horiz-adv-x="834" 
d="M758 354q9 61 -3.5 116.5t-44 97.5t-82 67t-118.5 25t-125.5 -25t-101 -67t-71 -97.5t-36.5 -116.5t3.5 -116.5t44 -97.5t82 -67t118.5 -25t125.5 25t101 67t71 97.5t36.5 116.5zM836 354q-11 -81 -49 -149t-94.5 -117.5t-128 -77.5t-150.5 -28t-142.5 28t-106 77.5
t-60.5 117.5t-7 149t48.5 149t94 117.5t128 77.5t150.5 28t142.5 -28t106 -77.5t61 -117.5t7.5 -149zM673 892q-13 -63 -58.5 -97.5t-107.5 -34.5t-97.5 34.5t-30.5 97.5h44q1 -39 27.5 -58.5t64.5 -19.5t69.5 19.5t44.5 58.5h44z" />
    <glyph glyph-name="obreve" unicode="&#x14f;" horiz-adv-x="593" 
d="M506 234q6 39 -2 73t-27.5 59t-50 39.5t-71.5 14.5t-75.5 -14.5t-60.5 -39.5t-43 -59t-23 -73t1.5 -73t27 -59t50 -39.5t71.5 -14.5t75.5 14.5t61 39.5t43.5 59t23 73zM578 234q-8 -53 -32.5 -98t-62 -78t-86 -51.5t-103.5 -18.5q-54 0 -97 18.5t-71.5 51.5t-40.5 78
t-4 98q7 53 32 98t62.5 78t85.5 51.5t102 18.5q55 0 98 -18.5t71.5 -51.5t40.5 -78t5 -98zM532 708q-13 -63 -58.5 -97.5t-107.5 -34.5t-97.5 34.5t-30.5 97.5h44q1 -39 27.5 -58.5t64.5 -19.5t69.5 19.5t44.5 58.5h44z" />
    <glyph glyph-name="Ohungarumlaut" unicode="&#x150;" horiz-adv-x="834" 
d="M758 354q9 61 -3.5 116.5t-44 97.5t-82 67t-118.5 25t-125.5 -25t-101 -67t-71 -97.5t-36.5 -116.5t3.5 -116.5t44 -97.5t82 -67t118.5 -25t125.5 25t101 67t71 97.5t36.5 116.5zM836 354q-11 -81 -49 -149t-94.5 -117.5t-128 -77.5t-150.5 -28t-142.5 28t-106 77.5
t-60.5 117.5t-7 149t48.5 149t94 117.5t128 77.5t150.5 28t142.5 -28t106 -77.5t61 -117.5t7.5 -149zM628 760h-59l121 144h91zM427 760h-59l122 144h91z" />
    <glyph glyph-name="ohungarumlaut" unicode="&#x151;" horiz-adv-x="593" 
d="M506 234q6 39 -2 73t-27.5 59t-50 39.5t-71.5 14.5t-75.5 -14.5t-60.5 -39.5t-43 -59t-23 -73t1.5 -73t27 -59t50 -39.5t71.5 -14.5t75.5 14.5t61 39.5t43.5 59t23 73zM578 234q-8 -53 -32.5 -98t-62 -78t-86 -51.5t-103.5 -18.5q-54 0 -97 18.5t-71.5 51.5t-40.5 78
t-4 98q7 53 32 98t62.5 78t85.5 51.5t102 18.5q55 0 98 -18.5t71.5 -51.5t40.5 -78t5 -98zM470 564h-59l121 144h91zM269 564h-59l122 144h91z" />
    <glyph glyph-name="OE" unicode="&#x152;" horiz-adv-x="944" 
d="M610 642h-57q-69 0 -130.5 -18.5t-110 -55t-80.5 -91t-42 -125.5q-3 -21 -2 -50.5t9 -61t25.5 -63t48 -56t76.5 -40t111 -15.5h71zM648 401h282l-9 -66h-282l-38 -269h306l-9 -66h-307h-72h-68q-107 0 -176 34t-108 86t-50.5 115t-3.5 120q12 89 55 155.5t104 110.5
t133.5 65.5t143.5 21.5h70h71h296l-10 -66h-294z" />
    <glyph glyph-name="oe" unicode="&#x153;" horiz-adv-x="922" 
d="M846 270q4 33 -2 60.5t-22 47.5t-41 31t-58 11q-30 0 -57 -11.5t-49 -31.5t-37 -47.5t-19 -59.5h285zM484 234q5 37 -1 71t-23.5 59.5t-46.5 40.5t-69 15q-36 0 -68.5 -14.5t-58 -39.5t-42 -59t-22.5 -73t1.5 -73t26 -59t47 -39.5t64.5 -14.5q40 0 73.5 15t58 40.5t40 59
t20.5 71.5zM553 216l-1 -9q-5 -32 0.5 -61t20 -50.5t38.5 -34.5t56 -13q30 0 53.5 6t42 16.5t33 24.5t27.5 29l47 -41q-45 -49 -100 -72t-110 -23q-57 0 -102 26t-65 80q-23 -29 -50.5 -49t-55.5 -32.5t-55 -18.5t-49 -6q-54 0 -95 18.5t-67 51.5t-37 78t-3 98q7 53 31.5 98
t61 78t82.5 51.5t96 18.5q57 0 107.5 -24t76.5 -81q40 51 85 78t108 27q52 0 89 -18t59.5 -49.5t30.5 -74.5t1 -92l-5 -30h-351z" />
    <glyph glyph-name="Racute" unicode="&#x154;" horiz-adv-x="593" 
d="M224 395h128q48 0 82.5 10t57 26.5t34.5 39t16 48.5q3 25 -2.5 47.5t-23.5 39.5t-50 26.5t-80 9.5h-128zM168 0h-72l100 708h71h147q108 0 163.5 -47t42.5 -142q-11 -74 -64.5 -124.5t-142.5 -58.5l157 -336h-88l-148 329h-120zM401 760h-59l121 144h91z" />
    <glyph glyph-name="racute" unicode="&#x155;" horiz-adv-x="332" 
d="M124 322q4 31 7.5 63t9.5 83h65l-12 -87h2q10 19 25 36.5t35.5 31.5t46 22.5t56.5 8.5q28 0 49 -6l-23 -65q-12 5 -37 5q-38 0 -67 -14.5t-50 -37t-33.5 -48.5t-15.5 -50l-37 -264h-66zM236 564h-59l121 144h91z" />
    <glyph glyph-name="Rcommaaccent" unicode="&#x156;" horiz-adv-x="593" 
d="M224 395h128q48 0 82.5 10t57 26.5t34.5 39t16 48.5q3 25 -2.5 47.5t-23.5 39.5t-50 26.5t-80 9.5h-128zM168 0h-72l100 708h71h147q108 0 163.5 -47t42.5 -142q-11 -74 -64.5 -124.5t-142.5 -58.5l157 -336h-88l-148 329h-120zM229 -230h-57l101 185h71z" />
    <glyph glyph-name="rcommaaccent" unicode="&#x157;" horiz-adv-x="332" 
d="M124 322q4 31 7.5 63t9.5 83h65l-12 -87h2q10 19 25 36.5t35.5 31.5t46 22.5t56.5 8.5q28 0 49 -6l-23 -65q-12 5 -37 5q-38 0 -67 -14.5t-50 -37t-33.5 -48.5t-15.5 -50l-37 -264h-66zM46 -230h-57l101 185h71z" />
    <glyph glyph-name="Rcaron" unicode="&#x158;" horiz-adv-x="593" 
d="M224 395h128q48 0 82.5 10t57 26.5t34.5 39t16 48.5q3 25 -2.5 47.5t-23.5 39.5t-50 26.5t-80 9.5h-128zM168 0h-72l100 708h71h147q108 0 163.5 -47t42.5 -142q-11 -74 -64.5 -124.5t-142.5 -58.5l157 -336h-88l-148 329h-120zM433 760h-80l-88 144h66l67 -108l99 108
h66z" />
    <glyph glyph-name="rcaron" unicode="&#x159;" horiz-adv-x="332" 
d="M124 322q4 31 7.5 63t9.5 83h65l-12 -87h2q10 19 25 36.5t35.5 31.5t46 22.5t56.5 8.5q28 0 49 -6l-23 -65q-12 5 -37 5q-38 0 -67 -14.5t-50 -37t-33.5 -48.5t-15.5 -50l-37 -264h-66zM284 564h-80l-88 144h66l67 -108l99 108h66z" />
    <glyph glyph-name="Sacute" unicode="&#x15a;" 
d="M514 591q-36 69 -127 69q-28 0 -56 -7.5t-51.5 -23t-40.5 -40t-21 -57.5q-5 -36 7 -59.5t35.5 -39.5t54.5 -27t63.5 -22.5t63 -25.5t53 -36t33.5 -54.5t4 -80.5t-33 -86.5t-63 -64.5t-80.5 -40t-85.5 -14q-65 0 -120 24.5t-88 80.5l72 47q17 -39 55 -62.5t94 -23.5
q27 0 55 8.5t52 25t41 40.5t22 55q5 37 -7 61.5t-35.5 41t-54.5 27.5t-63.5 22t-63 25t-53 35.5t-33.5 54t-4 81.5q7 51 32 89t60.5 63t78.5 37t86 12q60 0 106.5 -19t81.5 -67zM409 760h-59l121 144h91z" />
    <glyph glyph-name="sacute" unicode="&#x15b;" horiz-adv-x="426" 
d="M370 357q-11 29 -33.5 46t-58.5 17q-17 0 -35 -4t-33 -12.5t-25.5 -21.5t-13.5 -32q-5 -33 16 -48t66 -26l65 -16q47 -11 75 -44.5t21 -83.5q-6 -38 -25.5 -65.5t-47.5 -45t-62 -25.5t-68 -8q-54 0 -97.5 20.5t-69.5 70.5l63 39q16 -32 43.5 -51t69.5 -19q20 0 40.5 4.5
t37.5 14t28.5 24.5t14.5 35q2 18 -3 30t-16 20.5t-26.5 14t-33.5 10.5l-62 15q-12 3 -31 10t-36.5 21t-28.5 36.5t-6 55.5q5 36 23 63t44.5 44t59 25.5t65.5 8.5q49 0 88.5 -19t56.5 -65zM276 564h-59l121 144h91z" />
    <glyph glyph-name="Scircumflex" unicode="&#x15c;" 
d="M514 591q-36 69 -127 69q-28 0 -56 -7.5t-51.5 -23t-40.5 -40t-21 -57.5q-5 -36 7 -59.5t35.5 -39.5t54.5 -27t63.5 -22.5t63 -25.5t53 -36t33.5 -54.5t4 -80.5t-33 -86.5t-63 -64.5t-80.5 -40t-85.5 -14q-65 0 -120 24.5t-88 80.5l72 47q17 -39 55 -62.5t94 -23.5
q27 0 55 8.5t52 25t41 40.5t22 55q5 37 -7 61.5t-35.5 41t-54.5 27.5t-63.5 22t-63 25t-53 35.5t-33.5 54t-4 81.5q7 51 32 89t60.5 63t78.5 37t86 12q60 0 106.5 -19t81.5 -67zM537 760h-66l-68 108l-98 -108h-66l130 144h80z" />
    <glyph glyph-name="scircumflex" unicode="&#x15d;" horiz-adv-x="426" 
d="M370 357q-11 29 -33.5 46t-58.5 17q-17 0 -35 -4t-33 -12.5t-25.5 -21.5t-13.5 -32q-5 -33 16 -48t66 -26l65 -16q47 -11 75 -44.5t21 -83.5q-6 -38 -25.5 -65.5t-47.5 -45t-62 -25.5t-68 -8q-54 0 -97.5 20.5t-69.5 70.5l63 39q16 -32 43.5 -51t69.5 -19q20 0 40.5 4.5
t37.5 14t28.5 24.5t14.5 35q2 18 -3 30t-16 20.5t-26.5 14t-33.5 10.5l-62 15q-12 3 -31 10t-36.5 21t-28.5 36.5t-6 55.5q5 36 23 63t44.5 44t59 25.5t65.5 8.5q49 0 88.5 -19t56.5 -65zM434 564h-66l-68 108l-98 -108h-66l130 144h80z" />
    <glyph glyph-name="Scedilla" unicode="&#x15e;" 
d="M274 -60l1 -1q9 3 17.5 5t19.5 2q30 0 51 -19.5t16 -55.5q-3 -23 -16 -40t-31 -27.5t-39 -15.5t-41 -5q-52 0 -94 24l21 36q31 -18 71 -18q22 0 43.5 10t25.5 35q0 4 -1 11t-5.5 13.5t-13.5 11t-24 4.5q-14 0 -25 -3t-22 -8l-16 17l58 66q-65 0 -120 24.5t-88 80.5l72 47
q17 -39 55 -62.5t94 -23.5q27 0 55 8.5t52 25t41 40.5t22 55q5 37 -7 61.5t-35.5 41t-54.5 27.5t-63.5 22t-63 25t-53 35.5t-33.5 54t-4 81.5q7 51 32 89t60.5 63t78.5 37t86 12q60 0 106.5 -19t81.5 -67l-70 -49q-36 69 -127 69q-28 0 -56 -7.5t-51.5 -23t-40.5 -40
t-21 -57.5q-5 -36 7 -59.5t35.5 -39.5t54.5 -27t63.5 -22.5t63 -25.5t53 -36t33.5 -54.5t4 -80.5t-33 -86.5t-63 -64.5t-81 -40q-20 -6 -41 -10z" />
    <glyph glyph-name="scedilla" unicode="&#x15f;" horiz-adv-x="426" 
d="M210 -60l1 -1q9 3 17.5 5t19.5 2q30 0 51 -19.5t16 -55.5q-3 -23 -16 -40t-31 -27.5t-39 -15.5t-41 -5q-52 0 -94 24l21 36q31 -18 71 -18q22 0 43.5 10t25.5 35q0 4 -1 11t-5.5 13.5t-13.5 11t-24 4.5q-14 0 -25 -3t-22 -8l-16 17l63 72q-54 0 -97.5 20.5t-69.5 70.5
l63 39q16 -32 43.5 -51t69.5 -19q20 0 40.5 4.5t37.5 14t28.5 24.5t14.5 35q2 18 -3 30t-16 20.5t-26.5 14t-33.5 10.5l-62 15q-12 3 -31 10t-36.5 21t-28.5 36.5t-6 55.5q5 36 23 63t44.5 44t59 25.5t65.5 8.5q49 0 88.5 -19t56.5 -65l-65 -39q-11 29 -33.5 46t-58.5 17
q-17 0 -35 -4t-33 -12.5t-25.5 -21.5t-13.5 -32q-5 -33 16 -48t66 -26l65 -16q47 -11 75 -44.5t21 -83.5q-6 -38 -25.5 -65.5t-47.5 -45t-62 -25.5l-24 -4z" />
    <glyph glyph-name="Scaron" unicode="&#x160;" 
d="M514 591q-36 69 -127 69q-28 0 -56 -7.5t-51.5 -23t-40.5 -40t-21 -57.5q-5 -36 7 -59.5t35.5 -39.5t54.5 -27t63.5 -22.5t63 -25.5t53 -36t33.5 -54.5t4 -80.5t-33 -86.5t-63 -64.5t-80.5 -40t-85.5 -14q-65 0 -120 24.5t-88 80.5l72 47q17 -39 55 -62.5t94 -23.5
q27 0 55 8.5t52 25t41 40.5t22 55q5 37 -7 61.5t-35.5 41t-54.5 27.5t-63.5 22t-63 25t-53 35.5t-33.5 54t-4 81.5q7 51 32 89t60.5 63t78.5 37t86 12q60 0 106.5 -19t81.5 -67zM422 739h-80l-88 144h66l67 -108l99 108h66z" />
    <glyph glyph-name="scaron" unicode="&#x161;" horiz-adv-x="426" 
d="M370 357q-11 29 -33.5 46t-58.5 17q-17 0 -35 -4t-33 -12.5t-25.5 -21.5t-13.5 -32q-5 -33 16 -48t66 -26l65 -16q47 -11 75 -44.5t21 -83.5q-6 -38 -25.5 -65.5t-47.5 -45t-62 -25.5t-68 -8q-54 0 -97.5 20.5t-69.5 70.5l63 39q16 -32 43.5 -51t69.5 -19q20 0 40.5 4.5
t37.5 14t28.5 24.5t14.5 35q2 18 -3 30t-16 20.5t-26.5 14t-33.5 10.5l-62 15q-12 3 -31 10t-36.5 21t-28.5 36.5t-6 55.5q5 36 23 63t44.5 44t59 25.5t65.5 8.5q49 0 88.5 -19t56.5 -65zM332 564h-80l-88 144h66l67 -108l99 108h66z" />
    <glyph glyph-name="Tcommaaccent" unicode="&#x162;" horiz-adv-x="574" 
d="M323 0h-72l90 642h-237l10 66h235h73h238l-10 -66h-237zM209 -230h-57l101 185h71z" />
    <glyph glyph-name="tcommaaccent" unicode="&#x163;" horiz-adv-x="332" 
d="M371 408h-135l-38 -276q-4 -26 -1.5 -42.5t10 -25.5t20 -12.5t27.5 -3.5q17 0 35.5 5t34.5 13l-5 -61q-40 -17 -92 -17q-19 0 -38.5 5t-34.5 19t-23 38t-2 63l41 295h-99l9 60h99l18 132h66l-18 -132h135zM133 -230h-57l101 185h71z" />
    <glyph glyph-name="Tcaron" unicode="&#x164;" horiz-adv-x="574" 
d="M323 0h-72l90 642h-237l10 66h235h73h238l-10 -66h-237zM424 760h-80l-88 144h66l67 -108l99 108h66z" />
    <glyph glyph-name="tcaron" unicode="&#x165;" horiz-adv-x="332" 
d="M371 408h-135l-38 -276q-4 -26 -1.5 -42.5t10 -25.5t20 -12.5t27.5 -3.5q17 0 35.5 5t34.5 13l-5 -61q-40 -17 -92 -17q-19 0 -38.5 5t-34.5 19t-23 38t-2 63l41 295h-99l9 60h99l18 132h66l-18 -132h135zM355 523h-57l101 185h71z" />
    <glyph glyph-name="Tbar" unicode="&#x166;" horiz-adv-x="574" 
d="M591 403h-212l-56 -403h-72l56 403h-196l9 60h196l25 179h-237l10 66h546l-10 -66h-237l-25 -179h212z" />
    <glyph glyph-name="tbar" unicode="&#x167;" horiz-adv-x="332" 
d="M371 408h-135l-14 -102h120l-8 -53h-120l-16 -121q-4 -26 -1.5 -42.5t10 -25.5t20 -12.5t27.5 -3.5q17 0 35.5 5t34.5 13l-5 -61q-40 -17 -92 -17q-19 0 -38.5 5t-34.5 19t-23 38t-2 63l19 140h-73l8 53h73l14 102h-99l9 60h99l18 132h66l-18 -132h135z" />
    <glyph glyph-name="Utilde" unicode="&#x168;" horiz-adv-x="686" 
d="M639 264q-6 -44 -23.5 -93.5t-52.5 -91.5t-89.5 -69.5t-133.5 -27.5q-80 0 -126 27.5t-69 69.5t-26.5 91.5t2.5 93.5l63 444h72l-62 -436q-7 -51 -2 -87.5t18 -61.5t31.5 -39.5t38 -22.5t38 -10.5t32.5 -2.5q20 0 53 6.5t66 29t60.5 67t38.5 121.5l62 436h72zM291 765
q6 19 15 38t22 33.5t30 23.5t40 9q18 0 35 -7t34 -16q17 -8 33 -15.5t31 -7.5q23 0 36 15.5t20 34.5h43q-6 -20 -15 -38.5t-21.5 -33t-30 -23.5t-39.5 -9q-18 0 -35.5 7.5t-34.5 15.5q-17 9 -32.5 16t-31.5 7q-23 0 -36 -15.5t-20 -34.5h-43z" />
    <glyph glyph-name="utilde" unicode="&#x169;" 
d="M410 0q1 19 3 37.5t5 37.5h-2q-14 -19 -33.5 -35t-42 -27.5t-47 -18t-47.5 -6.5q-90 0 -126 47.5t-24 135.5l42 297h66l-37 -259q-5 -39 -3 -69t13.5 -50.5t34.5 -31t60 -10.5q3 0 15.5 1.5t29 7t35.5 17t36.5 31.5t31 50t19.5 73l34 240h66l-52 -365q-2 -19 -4.5 -48
t-4.5 -55h-68zM184 576q6 19 15 38t22 33.5t30 23.5t40 9q18 0 35 -7t34 -16q17 -8 33 -15.5t31 -7.5q23 0 36 15.5t20 34.5h43q-6 -20 -15 -38.5t-21.5 -33t-30 -23.5t-39.5 -9q-18 0 -35.5 7.5t-34.5 15.5q-17 9 -32.5 16t-31.5 7q-23 0 -36 -15.5t-20 -34.5h-43z" />
    <glyph glyph-name="Umacron" unicode="&#x16a;" horiz-adv-x="686" 
d="M639 264q-6 -44 -23.5 -93.5t-52.5 -91.5t-89.5 -69.5t-133.5 -27.5q-80 0 -126 27.5t-69 69.5t-26.5 91.5t2.5 93.5l63 444h72l-62 -436q-7 -51 -2 -87.5t18 -61.5t31.5 -39.5t38 -22.5t38 -10.5t32.5 -2.5q20 0 53 6.5t66 29t60.5 67t38.5 121.5l62 436h72zM584 791
h-270l8 54h270z" />
    <glyph glyph-name="umacron" unicode="&#x16b;" 
d="M410 0q1 19 3 37.5t5 37.5h-2q-14 -19 -33.5 -35t-42 -27.5t-47 -18t-47.5 -6.5q-90 0 -126 47.5t-24 135.5l42 297h66l-37 -259q-5 -39 -3 -69t13.5 -50.5t34.5 -31t60 -10.5q3 0 15.5 1.5t29 7t35.5 17t36.5 31.5t31 50t19.5 73l34 240h66l-52 -365q-2 -19 -4.5 -48
t-4.5 -55h-68zM479 600h-270l8 54h270z" />
    <glyph glyph-name="Ubreve" unicode="&#x16c;" horiz-adv-x="686" 
d="M639 264q-6 -44 -23.5 -93.5t-52.5 -91.5t-89.5 -69.5t-133.5 -27.5q-80 0 -126 27.5t-69 69.5t-26.5 91.5t2.5 93.5l63 444h72l-62 -436q-7 -51 -2 -87.5t18 -61.5t31.5 -39.5t38 -22.5t38 -10.5t32.5 -2.5q20 0 53 6.5t66 29t60.5 67t38.5 121.5l62 436h72zM612 892
q-13 -63 -58.5 -97.5t-107.5 -34.5t-97.5 34.5t-30.5 97.5h44q1 -39 27.5 -58.5t64.5 -19.5t69.5 19.5t44.5 58.5h44z" />
    <glyph glyph-name="ubreve" unicode="&#x16d;" 
d="M410 0q1 19 3 37.5t5 37.5h-2q-14 -19 -33.5 -35t-42 -27.5t-47 -18t-47.5 -6.5q-90 0 -126 47.5t-24 135.5l42 297h66l-37 -259q-5 -39 -3 -69t13.5 -50.5t34.5 -31t60 -10.5q3 0 15.5 1.5t29 7t35.5 17t36.5 31.5t31 50t19.5 73l34 240h66l-52 -365q-2 -19 -4.5 -48
t-4.5 -55h-68zM503 708q-13 -63 -58.5 -97.5t-107.5 -34.5t-97.5 34.5t-30.5 97.5h44q1 -39 27.5 -58.5t64.5 -19.5t69.5 19.5t44.5 58.5h44z" />
    <glyph glyph-name="Uring" unicode="&#x16e;" horiz-adv-x="686" 
d="M639 264q-6 -44 -23.5 -93.5t-52.5 -91.5t-89.5 -69.5t-133.5 -27.5q-80 0 -126 27.5t-69 69.5t-26.5 91.5t2.5 93.5l63 444h72l-62 -436q-7 -51 -2 -87.5t18 -61.5t31.5 -39.5t38 -22.5t38 -10.5t32.5 -2.5q20 0 53 6.5t66 29t60.5 67t38.5 121.5l62 436h72zM515 835
q4 25 -11 42t-40 17t-45 -17t-24 -42q-3 -25 12 -42t40 -17t45 17t23 42zM551 835q-3 -20 -13 -37.5t-25 -30.5t-33.5 -20t-37.5 -7q-20 0 -36 7t-27.5 20t-17 30.5t-2.5 37.5t13 37.5t25 30t33.5 20t38.5 7.5q19 0 35.5 -7.5t28 -20t16.5 -30t2 -37.5z" />
    <glyph glyph-name="uring" unicode="&#x16f;" 
d="M410 0q1 19 3 37.5t5 37.5h-2q-14 -19 -33.5 -35t-42 -27.5t-47 -18t-47.5 -6.5q-90 0 -126 47.5t-24 135.5l42 297h66l-37 -259q-5 -39 -3 -69t13.5 -50.5t34.5 -31t60 -10.5q3 0 15.5 1.5t29 7t35.5 17t36.5 31.5t31 50t19.5 73l34 240h66l-52 -365q-2 -19 -4.5 -48
t-4.5 -55h-68zM418 650q4 25 -11 42t-40 17t-45 -17t-24 -42q-3 -25 12 -42t40 -17t45 17t23 42zM454 650q-3 -20 -13 -37.5t-25 -30.5t-33.5 -20t-37.5 -7q-20 0 -36 7t-27.5 20t-17 30.5t-2.5 37.5t13 37.5t25 30t33.5 20t38.5 7.5q19 0 35.5 -7.5t28 -20t16.5 -30
t2 -37.5z" />
    <glyph glyph-name="Uhungarumlaut" unicode="&#x170;" horiz-adv-x="686" 
d="M639 264q-6 -44 -23.5 -93.5t-52.5 -91.5t-89.5 -69.5t-133.5 -27.5q-80 0 -126 27.5t-69 69.5t-26.5 91.5t2.5 93.5l63 444h72l-62 -436q-7 -51 -2 -87.5t18 -61.5t31.5 -39.5t38 -22.5t38 -10.5t32.5 -2.5q20 0 53 6.5t66 29t60.5 67t38.5 121.5l62 436h72zM542 760
h-59l121 144h91zM341 760h-59l122 144h91z" />
    <glyph glyph-name="uhungarumlaut" unicode="&#x171;" 
d="M410 0q1 19 3 37.5t5 37.5h-2q-14 -19 -33.5 -35t-42 -27.5t-47 -18t-47.5 -6.5q-90 0 -126 47.5t-24 135.5l42 297h66l-37 -259q-5 -39 -3 -69t13.5 -50.5t34.5 -31t60 -10.5q3 0 15.5 1.5t29 7t35.5 17t36.5 31.5t31 50t19.5 73l34 240h66l-52 -365q-2 -19 -4.5 -48
t-4.5 -55h-68zM447 564h-59l121 144h91zM246 564h-59l122 144h91z" />
    <glyph glyph-name="Uogonek" unicode="&#x172;" horiz-adv-x="686" 
d="M417 -181q-20 -17 -45 -26.5t-50 -9.5q-18 0 -33.5 6t-26.5 17.5t-16.5 27t-2.5 34.5q3 21 14 40.5t26.5 37t33.5 33.5l4 4q-67 3 -107 26q-46 28 -69 70t-26.5 91.5t2.5 93.5l63 444h72l-62 -436q-7 -51 -2 -87.5t18 -61.5t31.5 -39.5t38 -22.5t38 -10.5t32.5 -2.5
q20 0 53 6.5t66 29t60.5 67t38.5 121.5l62 436h72l-63 -444q-6 -44 -23.5 -93.5t-52.5 -91.5t-90 -70q-42 -20 -98 -25q-25 -24 -41 -42q-24 -28 -28 -57q-3 -21 10 -34.5t33 -13.5q14 0 28.5 5.5t25.5 16.5z" />
    <glyph glyph-name="uogonek" unicode="&#x173;" 
d="M487 -181q-20 -17 -45 -26.5t-50 -9.5q-18 0 -33.5 6t-26.5 17.5t-16.5 27t-2.5 34.5q3 21 14 40.5t26.5 37t33.5 33.5q13 11 26 21h-3q1 19 3 37.5t5 37.5h-2q-14 -19 -33.5 -35t-42 -27.5t-47 -18t-47.5 -6.5q-90 0 -126 47.5t-24 135.5l42 297h66l-37 -259
q-5 -39 -3 -69t13.5 -50.5t34.5 -31t60 -10.5q3 0 15.5 1.5t29 7t35.5 17t36.5 31.5t31 50t19.5 73l34 240h66l-52 -365q-2 -19 -4.5 -48t-4.5 -55h-15q-37 -33 -59 -58q-24 -28 -28 -57q-3 -21 10 -34.5t33 -13.5q14 0 28.5 5.5t25.5 16.5z" />
    <glyph glyph-name="Wcircumflex" unicode="&#x174;" horiz-adv-x="944" 
d="M264 102h2l264 606h86l92 -606h2l254 606h80l-309 -708h-84l-93 606h-2l-263 -606h-84l-109 708h80zM731 760h-66l-68 108l-98 -108h-66l130 144h80z" />
    <glyph glyph-name="wcircumflex" unicode="&#x175;" horiz-adv-x="722" 
d="M158 468l54 -380h2l179 380h68l71 -380h2l162 380h78l-214 -468h-74l-70 384h-2l-178 -384h-74l-82 468h78zM587 564h-66l-68 108l-98 -108h-66l130 144h80z" />
    <glyph glyph-name="Ycircumflex" unicode="&#x176;" horiz-adv-x="574" 
d="M323 0h-72l43 305l-208 403h90l164 -334l258 334h90l-322 -403zM545 760h-66l-68 108l-98 -108h-66l130 144h80z" />
    <glyph glyph-name="ycircumflex" unicode="&#x177;" horiz-adv-x="482" 
d="M257 81l198 387h80l-317 -590q-29 -54 -66 -86t-98 -32q-15 0 -30.5 1t-29.5 6l16 64q11 -6 23 -8.5t26 -2.5q35 0 58 22t44 62l46 90l-125 474h83zM470 564h-66l-68 108l-98 -108h-66l130 144h80z" />
    <glyph glyph-name="Ydieresis" unicode="&#x178;" horiz-adv-x="574" 
d="M323 0h-72l43 305l-208 403h90l164 -334l258 334h90l-322 -403zM448 822q3 20 19 35.5t39 15.5t35 -15.5t9 -35.5t-19 -35.5t-39 -15.5t-35 15.5t-9 35.5zM256 822q3 20 19 35.5t39 15.5t35 -15.5t9 -35.5t-19 -35.5t-39 -15.5t-35 15.5t-9 35.5z" />
    <glyph glyph-name="Zacute" unicode="&#x179;" 
d="M618 648l-495 -582h419l-9 -66h-510l8 60l496 582h-408l10 66h498zM363 760h-59l121 144h91z" />
    <glyph glyph-name="zacute" unicode="&#x17a;" horiz-adv-x="426" 
d="M452 420l-325 -360h284l-8 -60h-380l7 48l324 360h-260l9 60h356zM297 564h-59l121 144h91z" />
    <glyph glyph-name="Zdotaccent" unicode="&#x17b;" 
d="M618 648l-495 -582h419l-9 -66h-510l8 60l496 582h-408l10 66h498zM319 822q3 20 19.5 35.5t39.5 15.5t34.5 -15.5t8.5 -35.5q-2 -20 -18.5 -35.5t-39.5 -15.5t-34.5 15.5t-9.5 35.5z" />
    <glyph glyph-name="zdotaccent" unicode="&#x17c;" horiz-adv-x="426" 
d="M452 420l-325 -360h284l-8 -60h-380l7 48l324 360h-260l9 60h356zM246 657q3 20 19.5 35.5t39.5 15.5t34.5 -15.5t8.5 -35.5q-2 -20 -18.5 -35.5t-39.5 -15.5t-34.5 15.5t-9.5 35.5z" />
    <glyph glyph-name="Zcaron" unicode="&#x17d;" 
d="M618 648l-495 -582h419l-9 -66h-510l8 60l496 582h-408l10 66h498zM422 739h-80l-88 144h66l67 -108l99 108h66z" />
    <glyph glyph-name="zcaron" unicode="&#x17e;" horiz-adv-x="426" 
d="M452 420l-325 -360h284l-8 -60h-380l7 48l324 360h-260l9 60h356zM332 564h-80l-88 144h66l67 -108l99 108h66z" />
    <glyph glyph-name="florin" unicode="&#x192;" 
d="M474 365h-119l-116 -352q-9 -27 -22.5 -54t-34.5 -49t-50.5 -35.5t-69.5 -13.5q-22 0 -42.5 5.5t-35.5 18.5l39 48q10 -6 23.5 -9t26.5 -3q23 0 39.5 9.5t28 24.5t19.5 34t14 38l110 338h-108l8 54h119l47 144q10 31 24.5 59t35 50t48.5 35t66 13q53 0 91 -29l-41 -48
q-11 8 -25 12.5t-29 4.5q-25 0 -43 -12t-30.5 -30t-20.5 -38t-13 -36l-39 -125h108z" />
    <glyph glyph-name="Scommaaccent" unicode="&#x218;" 
d="M514 591q-36 69 -127 69q-28 0 -56 -7.5t-51.5 -23t-40.5 -40t-21 -57.5q-5 -36 7 -59.5t35.5 -39.5t54.5 -27t63.5 -22.5t63 -25.5t53 -36t33.5 -54.5t4 -80.5t-33 -86.5t-63 -64.5t-80.5 -40t-85.5 -14q-65 0 -120 24.5t-88 80.5l72 47q17 -39 55 -62.5t94 -23.5
q27 0 55 8.5t52 25t41 40.5t22 55q5 37 -7 61.5t-35.5 41t-54.5 27.5t-63.5 22t-63 25t-53 35.5t-33.5 54t-4 81.5q7 51 32 89t60.5 63t78.5 37t86 12q60 0 106.5 -19t81.5 -67zM208 -230h-57l101 185h71z" />
    <glyph glyph-name="scommaaccent" unicode="&#x219;" horiz-adv-x="426" 
d="M370 357q-11 29 -33.5 46t-58.5 17q-17 0 -35 -4t-33 -12.5t-25.5 -21.5t-13.5 -32q-5 -33 16 -48t66 -26l65 -16q47 -11 75 -44.5t21 -83.5q-6 -38 -25.5 -65.5t-47.5 -45t-62 -25.5t-68 -8q-54 0 -97.5 20.5t-69.5 70.5l63 39q16 -32 43.5 -51t69.5 -19q20 0 40.5 4.5
t37.5 14t28.5 24.5t14.5 35q2 18 -3 30t-16 20.5t-26.5 14t-33.5 10.5l-62 15q-12 3 -31 10t-36.5 21t-28.5 36.5t-6 55.5q5 36 23 63t44.5 44t59 25.5t65.5 8.5q49 0 88.5 -19t56.5 -65zM145 -230h-57l101 185h71z" />
    <glyph glyph-name="uni021A" unicode="&#x21a;" horiz-adv-x="574" 
d="M323 0h-72l90 642h-237l10 66h235h73h238l-10 -66h-237zM209 -230h-57l101 185h71z" />
    <glyph glyph-name="uni021B" unicode="&#x21b;" horiz-adv-x="332" 
d="M371 408h-135l-38 -276q-4 -26 -1.5 -42.5t10 -25.5t20 -12.5t27.5 -3.5q17 0 35.5 5t34.5 13l-5 -61q-40 -17 -92 -17q-19 0 -38.5 5t-34.5 19t-23 38t-2 63l41 295h-99l9 60h99l18 132h66l-18 -132h135zM133 -230h-57l101 185h71z" />
    <glyph glyph-name="circumflex" unicode="&#x2c6;" horiz-adv-x="240" 
d="M348 564h-66l-68 108l-98 -108h-66l130 144h80z" />
    <glyph glyph-name="caron" unicode="&#x2c7;" horiz-adv-x="240" 
d="M239 564h-80l-88 144h66l67 -108l99 108h66z" />
    <glyph glyph-name="uni02C9" unicode="&#x2c9;" horiz-adv-x="240" 
d="M339 600h-270l8 54h270z" />
    <glyph glyph-name="breve" unicode="&#x2d8;" horiz-adv-x="240" 
d="M367 708q-13 -63 -58.5 -97.5t-107.5 -34.5t-97.5 34.5t-30.5 97.5h44q1 -39 27.5 -58.5t64.5 -19.5t69.5 19.5t44.5 58.5h44z" />
    <glyph glyph-name="dotaccent" unicode="&#x2d9;" horiz-adv-x="240" 
d="M161 657q3 20 19.5 35.5t39.5 15.5t34.5 -15.5t8.5 -35.5q-2 -20 -18.5 -35.5t-39.5 -15.5t-34.5 15.5t-9.5 35.5z" />
    <glyph glyph-name="ring" unicode="&#x2da;" horiz-adv-x="240" 
d="M271 650q4 25 -11 42t-40 17t-45 -17t-24 -42q-3 -25 12 -42t40 -17t45 17t23 42zM307 650q-3 -20 -13 -37.5t-25 -30.5t-33.5 -20t-37.5 -7q-20 0 -36 7t-27.5 20t-17 30.5t-2.5 37.5t13 37.5t25 30t33.5 20t38.5 7.5q19 0 35.5 -7.5t28 -20t16.5 -30t2 -37.5z" />
    <glyph glyph-name="ogonek" unicode="&#x2db;" horiz-adv-x="240" 
d="M185 -181q-20 -17 -45 -26.5t-50 -9.5q-18 0 -33.5 6t-26.5 17.5t-16.5 27t-2.5 34.5q3 21 14 40.5t26.5 37t33.5 33t35 27.5h48q-42 -37 -66 -64.5t-28 -56.5q-3 -21 10 -34.5t33 -13.5q14 0 28.5 5.5t25.5 16.5z" />
    <glyph glyph-name="tilde" unicode="&#x2dc;" horiz-adv-x="240" 
d="M39 576q6 19 15 38t22 33.5t30 23.5t40 9q18 0 35 -7t34 -16q17 -8 33 -15.5t31 -7.5q23 0 36 15.5t20 34.5h43q-6 -20 -15 -38.5t-21.5 -33t-30 -23.5t-39.5 -9q-18 0 -35.5 7.5t-34.5 15.5q-17 9 -32.5 16t-31.5 7q-23 0 -36 -15.5t-20 -34.5h-43z" />
    <glyph glyph-name="hungarumlaut" unicode="&#x2dd;" horiz-adv-x="240" 
d="M263 564h-59l121 144h91zM62 564h-59l122 144h91z" />
    <glyph glyph-name="uni0394" unicode="&#x394;" horiz-adv-x="670" 
d="M15 0l281 712h74l287 -712h-642zM332 645l-226 -583h455z" />
    <glyph glyph-name="uni03A9" unicode="&#x3a9;" horiz-adv-x="744" 
d="M434 0v181q45 8 79.5 28.5t58 51.5t35 70t11.5 84q0 54 -19.5 99t-53.5 77.5t-80 50.5t-99 18t-99 -18.5t-80 -51t-53.5 -77.5t-19.5 -98q0 -44 11.5 -83.5t35 -70.5t58 -52t79.5 -28v-181h-251v58h197v82q-47 13 -83.5 40t-62 63.5t-38.5 80.5t-13 92q0 67 25.5 123
t69.5 96.5t102 63t123 22.5t122.5 -22.5t101 -63t69 -96.5t25.5 -122q0 -48 -13 -92.5t-38 -81t-61.5 -63.5t-84.5 -40v-82h197v-58h-251z" />
    <glyph glyph-name="uni03BC" unicode="&#x3bc;" 
d="M138 468h66l-37 -259q-12 -86 10.5 -123.5t94.5 -37.5q30 0 57.5 12t50 35t38 56.5t21.5 76.5l34 240h66l-52 -365q-3 -26 -5 -51.5t-4 -51.5h-71l11 76h-2q-14 -18 -33.5 -34t-42 -28t-47 -19t-47.5 -7q-68 0 -106 29l-34 -245h-66z" />
    <glyph glyph-name="pi" unicode="&#x3c0;" horiz-adv-x="563" 
d="M530 11q-17 -8 -31.5 -12.5t-32.5 -4.5q-29 0 -45.5 9.5t-24 26t-9 37.5t-1.5 44v298h-220v-409h-64v409h-70v59h494v-59h-76v-305q0 -22 5.5 -38t32.5 -16q20 0 42 10v-49v0z" />
    <glyph glyph-name="endash" unicode="&#x2013;" horiz-adv-x="500" 
d="M529 207h-500l9 66h500z" />
    <glyph glyph-name="emdash" unicode="&#x2014;" horiz-adv-x="1000" 
d="M1029 207h-1000l9 66h1000z" />
    <glyph glyph-name="quoteleft" unicode="&#x2018;" horiz-adv-x="260" 
d="M237 708h67l-101 -235h-81z" />
    <glyph glyph-name="quoteright" unicode="&#x2019;" horiz-adv-x="260" 
d="M189 473h-67l101 235h81z" />
    <glyph glyph-name="quotesinglbase" unicode="&#x201a;" horiz-adv-x="260" 
d="M103 -140h-67l100 235h81z" />
    <glyph glyph-name="quotedblleft" unicode="&#x201c;" horiz-adv-x="519" 
d="M457 708h67l-101 -235h-81zM276 708h67l-101 -235h-81z" />
    <glyph glyph-name="quotedblright" unicode="&#x201d;" horiz-adv-x="519" 
d="M228 473h-67l101 235h81zM409 473h-67l101 235h81z" />
    <glyph glyph-name="quotedblbase" unicode="&#x201e;" horiz-adv-x="519" 
d="M142 -140h-67l100 235h81zM323 -140h-67l100 235h81z" />
    <glyph glyph-name="dagger" unicode="&#x2020;" 
d="M382 504h204l-9 -60h-204l-80 -570h-66l80 570h-204l9 60h204l29 204h66z" />
    <glyph glyph-name="daggerdbl" unicode="&#x2021;" 
d="M384 516h195l-9 -60h-195l-46 -330h195l-9 -60h-195l-27 -192h-66l27 192h-195l9 60h195l46 330h-195l9 60h195l27 192h66z" />
    <glyph glyph-name="bullet" unicode="&#x2022;" horiz-adv-x="500" 
d="M123 354q5 37 23.5 69t46 56t61.5 38t71 14t67 -14t51 -38t30 -56t4 -69t-23.5 -69t-46 -56t-61.5 -38t-71 -14t-67 14t-51 38t-30 56t-4 69z" />
    <glyph glyph-name="ellipsis" unicode="&#x2026;" horiz-adv-x="1000" 
d="M894 48q-3 -21 -20.5 -37.5t-41.5 -16.5t-36.5 16.5t-9.5 37.5t20 37.5t41 16.5t37 -16.5t10 -37.5zM561 48q-3 -21 -20.5 -37.5t-41.5 -16.5t-36.5 16.5t-9.5 37.5t20 37.5t41 16.5t37 -16.5t10 -37.5zM228 48q-3 -21 -20.5 -37.5t-41.5 -16.5t-36.5 16.5t-9.5 37.5
t20 37.5t41 16.5t37 -16.5t10 -37.5z" />
    <glyph glyph-name="perthousand" unicode="&#x2030;" horiz-adv-x="1000" 
d="M121 -31l-49 27l556 743l47 -27zM941 142q6 42 -18.5 71t-66.5 29q-21 0 -40 -8t-34 -21.5t-25.5 -31.5t-13.5 -39q-6 -42 18.5 -71t66.5 -29q21 0 40 8t34 21.5t25.5 31.5t13.5 39zM995 142q-5 -32 -20.5 -60t-39.5 -49t-53.5 -33t-61.5 -12t-58 12t-44 33t-26 49t-3 60
q4 31 20 59t40 49t53.5 33.5t61.5 12.5t58 -12.5t44 -33.5t25.5 -49t3.5 -59zM591 142q6 42 -18.5 71t-66.5 29q-21 0 -40 -8t-34 -21.5t-25.5 -31.5t-13.5 -39q-6 -42 18.5 -71t66.5 -29q21 0 40 8t34 21.5t25.5 31.5t13.5 39zM645 142q-5 -32 -20.5 -60t-39.5 -49
t-53.5 -33t-61.5 -12t-58 12t-44 33t-26 49t-3 60q4 31 20 59t40 49t53.5 33.5t61.5 12.5t58 -12.5t44 -33.5t25.5 -49t3.5 -59zM357 566q5 42 -19 71t-66 29q-21 0 -40 -8t-34.5 -21.5t-25.5 -31.5t-13 -39q-6 -42 18 -71t66 -29q21 0 40 8t34.5 21.5t26 31.5t13.5 39z
M411 566q-5 -32 -20.5 -60t-39.5 -49t-53.5 -33t-61.5 -12t-58 12t-44 33t-26 49t-3 60q4 31 20 59t39.5 49t53 33.5t61.5 12.5t58 -12.5t44 -33.5t26 -49t4 -59z" />
    <glyph glyph-name="guilsinglleft" unicode="&#x2039;" horiz-adv-x="315" 
d="M255 64l-52 -33l-110 209l169 209l42 -33l-139 -176z" />
    <glyph glyph-name="guilsinglright" unicode="&#x203a;" horiz-adv-x="315" 
d="M127 416l52 33l111 -209l-170 -209l-42 33l140 176z" />
    <glyph glyph-name="fraction" unicode="&#x2044;" horiz-adv-x="168" 
d="M-167 0l555 740l47 -31l-554 -741z" />
    <glyph glyph-name="Euro" unicode="&#x20ac;" 
d="M584 618q-21 17 -54 28t-75 11q-150 0 -211 -182h283l-25 -56h-275q-8 -36 -14 -76q-2 -14 -3.5 -27.5t-2.5 -27.5h240l-25 -55h-216q3 -87 37.5 -136t106.5 -49q40 0 76.5 18.5t57.5 45.5l42 -34q-35 -46 -87.5 -68t-106.5 -22t-92 18t-61.5 50.5t-35.5 77.5t-12 99h-75
l27 55h49q1 14 3 28.5t4 29.5q5 38 13 73h-69l28 56h57q42 126 121 185.5t176 59.5q42 0 84 -12t65 -28z" />
    <glyph glyph-name="afii61289" unicode="&#x2113;" horiz-adv-x="500" 
d="M459 621q0 -45 -20 -90.5t-53.5 -90t-77.5 -86.5t-91 -79q-13 -54 -20 -87t-10.5 -51.5t-4 -27t-0.5 -14.5q0 -33 17.5 -45t36.5 -12q22 0 44.5 9t54.5 32h2l19 -40q-36 -27 -69 -40t-68 -13q-47 0 -76.5 24.5t-29.5 72.5q0 6 1 14t3.5 23.5t8 41t14.5 66.5l-69 -60h-2
l-21 39l105 84l56 262q18 87 60 127.5t96 40.5q42 0 68 -28t26 -72zM401 617q0 24 -11.5 40t-30.5 16q-24 0 -45.5 -22.5t-34.5 -83.5l-49 -228q26 24 56 57t55.5 70t42.5 76t17 75z" />
    <glyph glyph-name="trademark" unicode="&#x2122;" horiz-adv-x="1000" 
d="M970 296h-60l48 346h-2l-187 -346h-39l-91 346h-2l-48 -346h-60l58 412h58h35l84 -316l174 316h29h61zM493 654h-133l-50 -358h-60l50 358h-136l8 54h135h60h134z" />
    <glyph glyph-name="Omega" unicode="&#x2126;" horiz-adv-x="744" 
d="M434 0v181q45 8 79.5 28.5t58 51.5t35 70t11.5 84q0 54 -19.5 99t-53.5 77.5t-80 50.5t-99 18t-99 -18.5t-80 -51t-53.5 -77.5t-19.5 -98q0 -44 11.5 -83.5t35 -70.5t58 -52t79.5 -28v-181h-251v58h197v82q-47 13 -83.5 40t-62 63.5t-38.5 80.5t-13 92q0 67 25.5 123
t69.5 96.5t102 63t123 22.5t122.5 -22.5t101 -63t69 -96.5t25.5 -122q0 -48 -13 -92.5t-38 -81t-61.5 -63.5t-84.5 -40v-82h197v-58h-251z" />
    <glyph glyph-name="estimated" unicode="&#x212e;" horiz-adv-x="604" 
d="M157 259v-181q59 -59 145 -59q63 0 109 28.5t84 91.5l35 -21q-23 -36 -46.5 -61.5t-51 -42t-59.5 -24t-71 -7.5q-59 0 -106.5 21.5t-81.5 59t-52 87.5t-18 108t18 108.5t52 87.5t81.5 58.5t106.5 21.5q58 0 105.5 -20.5t81.5 -57t53 -87t19 -111.5h-404zM448 295v145
q-63 60 -147 60t-144 -60v-145h291z" />
    <glyph glyph-name="partialdiff" unicode="&#x2202;" horiz-adv-x="496" 
d="M455 363q0 -55 -8 -120.5t-32 -122t-68.5 -94.5t-116.5 -38q-47 0 -84 18.5t-62.5 49.5t-39 71.5t-13.5 84.5q0 43 13 82t38 68t61 46t82 17q49 0 92 -23t74 -61q0 13 0.5 26t0.5 26q0 42 -8.5 89.5t-29 88.5t-55 68t-86.5 27q-35 0 -60.5 -13t-51.5 -33l-36 43
q32 28 67 43t78 15q48 0 85 -15.5t64 -42.5t45.5 -62.5t29.5 -75.5t16 -81.5t5 -80.5zM386 278q-27 36 -67 63.5t-88 27.5q-34 0 -59.5 -13t-43 -35t-26 -51t-8.5 -60q0 -30 8.5 -60t26 -54.5t43 -39.5t59.5 -15q43 0 72 24t47 60t26 77.5t10 75.5z" />
    <glyph glyph-name="Delta" unicode="&#x2206;" horiz-adv-x="670" 
d="M15 0l281 712h74l287 -712h-642zM332 645l-226 -583h455z" />
    <glyph glyph-name="product" unicode="&#x220f;" horiz-adv-x="711" 
d="M575 -214v938h-438v-938h-66v1000h570v-1000h-66z" />
    <glyph glyph-name="summation" unicode="&#x2211;" horiz-adv-x="604" 
d="M25 -214v55l329 448l-315 441v56h527v-62h-442l309 -435l-328 -442h473v-61h-553z" />
    <glyph glyph-name="minus" unicode="&#x2212;" horiz-adv-x="666" 
d="M626 273h-510l9 60h510z" />
    <glyph glyph-name="uni2215" unicode="&#x2215;" horiz-adv-x="168" 
d="M-167 0l555 740l47 -31l-554 -741z" />
    <glyph glyph-name="uni2219" unicode="&#x2219;" horiz-adv-x="278" 
d="M237 314q-3 -21 -20 -37.5t-41 -16.5t-37 16.5t-10 37.5t20.5 37.5t41.5 16.5t36.5 -16.5t9.5 -37.5z" />
    <glyph glyph-name="radical" unicode="&#x221a;" horiz-adv-x="493" 
d="M292 -214h-66l-164 340l-46 -22l-24 50l100 48l158 -332l189 916h63z" />
    <glyph glyph-name="infinity" unicode="&#x221e;" horiz-adv-x="741" 
d="M700 252q0 -31 -10 -58t-28 -47t-44 -31.5t-58 -11.5q-29 0 -55 9.5t-49 25t-44.5 34.5t-40.5 38q-22 -18 -43 -37t-43.5 -34.5t-48 -25.5t-55.5 -10q-32 0 -57.5 11t-44 30.5t-28.5 46t-10 57.5q0 30 9.5 57t27.5 47.5t43.5 32t57.5 11.5q29 0 55.5 -10.5t50 -27t45 -36
t41.5 -38.5q20 19 40.5 39t43 36.5t48 27t55.5 10.5q32 0 58 -11t45 -30.5t29 -46.5t10 -58zM643 249q0 38 -21 65t-62 27q-21 0 -41.5 -9.5t-40 -23.5t-37 -30.5t-32.5 -29.5q16 -14 33.5 -29t37 -28t40 -21t43.5 -8q38 0 59 25t21 62zM333 249q-15 13 -33 28.5t-38.5 29.5
t-41.5 23.5t-42 9.5q-19 0 -34 -7.5t-25 -20t-15.5 -28.5t-5.5 -34q0 -38 22 -63t62 -25q20 0 41 8.5t41 21.5t37.5 28.5t31.5 28.5z" />
    <glyph glyph-name="integral" unicode="&#x222b;" horiz-adv-x="543" 
d="M406 736q0 -17 -10.5 -25.5t-26.5 -8.5q-14 0 -21 6t-11.5 13.5t-8.5 14t-11 6.5q-12 0 -19 -13t-10.5 -32.5t-5 -42.5t-1 -44.5t1 -37.5t0.5 -21v-504q0 -32 -1 -76.5t-12 -85.5t-36 -69.5t-73 -28.5q-21 0 -40.5 11t-19.5 36q0 14 9.5 23t23.5 9q13 0 20 -6t11.5 -13
t8.5 -13t10 -6q13 0 20 22.5t9.5 51t2.5 54v31.5l1 21v495q0 23 -1 53t0.5 61.5t7 61.5t19 54t36 38.5t57.5 14.5q11 0 23.5 -2.5t23 -8.5t17 -15.5t6.5 -23.5z" />
    <glyph glyph-name="approxequal" unicode="&#x2248;" horiz-adv-x="666" 
d="M596 402q-3 -26 -11.5 -51t-23.5 -44t-36.5 -30.5t-51.5 -11.5q-32 0 -69.5 11.5t-75.5 25.5q-37 14 -71.5 25t-61.5 11q-34 0 -54 -24.5t-25 -55.5h-45q3 26 11.5 51t23.5 44.5t37 31.5t52 12q33 0 69.5 -11t73.5 -25q38 -14 72.5 -25.5t63.5 -11.5q36 0 54 23t25 55h43
v0zM596 232q-3 -26 -11.5 -51t-23.5 -44.5t-37 -31t-52 -11.5q-32 0 -69.5 11.5t-74.5 25.5t-71.5 25t-61.5 11q-34 0 -54 -24.5t-25 -55.5h-45q4 26 12 51t22.5 45t36.5 32t52 12q33 0 69.5 -11t74.5 -25q37 -14 72 -25.5t64 -11.5q35 0 53 23t25 55h44v0z" />
    <glyph glyph-name="notequal" unicode="&#x2260;" horiz-adv-x="666" 
d="M297 120l-76 -144l-52 27l62 117h-149v60h181l68 130h-249v60h282l77 147l52 -28l-63 -119h154v-60h-186l-69 -130h255v-60h-287z" />
    <glyph glyph-name="lessequal" unicode="&#x2264;" horiz-adv-x="666" 
d="M82 296v65l502 189v-65l-419 -157l419 -155v-65zM82 6v59h502v-59h-502z" />
    <glyph glyph-name="greaterequal" unicode="&#x2265;" horiz-adv-x="666" 
d="M82 108v65l420 155l-420 157v65l502 -189v-65zM82 6v59h502v-59h-502z" />
    <glyph glyph-name="lozenge" unicode="&#x25ca;" horiz-adv-x="593" 
d="M327 -35h-63l-169 391l169 391h63l171 -391zM296 681l-136 -325l136 -325l137 325z" />
    <glyph glyph-name="dotlessj" unicode="&#xe0d6;" horiz-adv-x="240" 
d="M-46 -173l3 -1q8 -2 17 -4t17 -2q24 0 39.5 9t24.5 23.5t13.5 31.5t6.5 34l78 550h66l-79 -561q-2 -10 -6 -34.5t-19.5 -49.5t-45.5 -44t-82 -19q-27 0 -50 10z" />
    <glyph glyph-name="grave.cap" unicode="&#xe300;" horiz-adv-x="240" 
d="M90 904h91l79 -144h-59z" />
    <glyph glyph-name="acute.cap" unicode="&#xe301;" horiz-adv-x="240" 
d="M197 760h-59l121 144h91z" />
    <glyph glyph-name="circumflex.cap" unicode="&#xe302;" horiz-adv-x="240" 
d="M348 760h-66l-68 108l-98 -108h-66l130 144h80z" />
    <glyph glyph-name="caron.cap" unicode="&#xe303;" horiz-adv-x="240" 
d="M239 760h-80l-88 144h66l67 -108l99 108h66z" />
    <glyph glyph-name="tilde.cap" unicode="&#xe304;" horiz-adv-x="240" 
d="M39 765q6 19 15 38t22 33.5t30 23.5t40 9q18 0 35 -7t34 -16q17 -8 33 -15.5t31 -7.5q23 0 36 15.5t20 34.5h43q-6 -20 -15 -38.5t-21.5 -33t-30 -23.5t-39.5 -9q-18 0 -35.5 7.5t-34.5 15.5q-17 9 -32.5 16t-31.5 7q-23 0 -36 -15.5t-20 -34.5h-43z" />
    <glyph glyph-name="dieresis.cap" unicode="&#xe305;" horiz-adv-x="240" 
d="M256 822q3 20 19 35.5t39 15.5t35 -15.5t9 -35.5t-19 -35.5t-39 -15.5t-35 15.5t-9 35.5zM64 822q3 20 19 35.5t39 15.5t35 -15.5t9 -35.5t-19 -35.5t-39 -15.5t-35 15.5t-9 35.5z" />
    <glyph glyph-name="macron.cap" unicode="&#xe306;" horiz-adv-x="240" 
d="M339 791h-270l8 54h270z" />
    <glyph glyph-name="breve.cap" unicode="&#xe307;" horiz-adv-x="240" 
d="M367 892q-13 -63 -58.5 -97.5t-107.5 -34.5t-97.5 34.5t-30.5 97.5h44q1 -39 27.5 -58.5t64.5 -19.5t69.5 19.5t44.5 58.5h44z" />
    <glyph glyph-name="ring.cap" unicode="&#xe308;" horiz-adv-x="240" 
d="M271 835q4 25 -11 42t-40 17t-45 -17t-24 -42q-3 -25 12 -42t40 -17t45 17t23 42zM307 835q-3 -20 -13 -37.5t-25 -30.5t-33.5 -20t-37.5 -7q-20 0 -36 7t-27.5 20t-17 30.5t-2.5 37.5t13 37.5t25 30t33.5 20t38.5 7.5q19 0 35.5 -7.5t28 -20t16.5 -30t2 -37.5z" />
    <glyph glyph-name="hungarumlaut.cap" unicode="&#xe309;" horiz-adv-x="240" 
d="M263 760h-59l121 144h91zM62 760h-59l122 144h91z" />
    <glyph glyph-name="dotaccent.cap" unicode="&#xe30a;" horiz-adv-x="240" 
d="M161 822q3 20 19.5 35.5t39.5 15.5t34.5 -15.5t8.5 -35.5q-2 -20 -18.5 -35.5t-39.5 -15.5t-34.5 15.5t-9.5 35.5z" />
    <glyph glyph-name="caron.alt" unicode="&#xe30b;" horiz-adv-x="240" 
d="M138 523h-57l101 185h71z" />
    <glyph glyph-name="commaaccent" unicode="&#xe30c;" horiz-adv-x="240" 
d="M78 -230h-57l101 185h71z" />
    <glyph glyph-name="commaaccent.alt" unicode="&#xe30d;" horiz-adv-x="240" 
d="M208 749h57l-101 -185h-71z" />
    <glyph glyph-name="uniF8FF" unicode="&#xf8ff;" horiz-adv-x="512" 
d="M222 117v67h56v-67h-56zM225 234l-2 17q0 56 13 81q7 13 18 27.5t28 31.5q16 15 26 26.5t15 21t7 18t2 17.5q0 36 -22.5 60.5t-53.5 24.5t-53.5 -22t-28.5 -73l-50 8q7 72 44 104.5t91 32.5t89 -35.5t35 -95.5q0 -32 -12.5 -58.5t-50.5 -61.5q-37 -33 -43 -52
q-6 -20 -6 -72h-46zM462 50v617h-412v-617h412zM512 718v-718h-512v718h512z" />
    <glyph glyph-name="fi" unicode="&#xfb01;" horiz-adv-x="537" 
d="M556 648q-3 -21 -20 -34.5t-35 -13.5t-31 13.5t-10 34.5t20 34.5t35 13.5t31 -13.5t10 -34.5zM450 0h-66l66 468h66zM347 408h-111l-57 -408h-66l57 408h-99l9 60h99l18 128q13 93 61.5 132.5t119.5 39.5q14 0 28 -2t28 -5l-20 -60q-12 3 -24.5 5t-25.5 2q-27 0 -45.5 -9
t-29.5 -25.5t-17.5 -38.5t-9.5 -47l-17 -120h111z" />
    <glyph glyph-name="fl" unicode="&#xfb02;" horiz-adv-x="537" 
d="M450 0h-66l106 756h66zM347 408h-111l-57 -408h-66l57 408h-99l9 60h99l18 128q13 93 61.5 132.5t119.5 39.5q14 0 28 -2t28 -5l-20 -60q-12 3 -24.5 5t-25.5 2q-27 0 -45.5 -9t-29.5 -25.5t-17.5 -38.5t-9.5 -47l-17 -120h111z" />
    </font>
</defs>
</svg>
