<?xml version="1.0" standalone="no"?>
<!DOCTYPE svg PUBLIC "-//W3C//DTD SVG 1.1//EN" "http://www.w3.org/Graphics/SVG/1.1/DTD/svg11.dtd" >
<svg xmlns="http://www.w3.org/2000/svg" xmlns:xlink="http://www.w3.org/1999/xlink" version="1.1">
<metadata>
Created by FontForge 20161003 at Thu Aug 23 13:42:53 2018
 By www-data
Copyright(c) 2007 Linotype GmbH, www.linotype.com. All rights reserved.
</metadata>
<defs>
<font id="AvenirHeavyOblique" horiz-adv-x="260" >
  <font-face 
    font-family="AvenirHeavyOblique"
    font-weight="900"
    font-style="oblique"
    font-stretch="normal"
    units-per-em="1000"
    panose-1="2 11 7 3 2 2 3 9 2 4"
    ascent="800"
    descent="-200"
    x-height="480"
    cap-height="708"
    bbox="-165 -258 1184.72 940"
    underline-thickness="50"
    underline-position="-150"
    slope="-8"
    unicode-range="U+000D-FB02"
  />
<missing-glyph horiz-adv-x="512" 
d="M222 117v67h56v-67h-56zM225 234l-2 17q0 56 13 81q7 13 18 27.5t28 31.5q32 30 41 47.5t9 35.5q0 36 -22.5 60.5t-53.5 24.5t-53.5 -22t-28.5 -73l-50 8q7 72 44 104.5t91 32.5t89 -35.5t35 -95.5q0 -32 -12.5 -58.5t-50.5 -61.5q-37 -33 -43 -52q-6 -20 -6 -72h-46z
M462 50v617h-412v-617h412zM512 718v-718h-512v718h512z" />
    <glyph glyph-name=".notdef" horiz-adv-x="512" 
d="M222 117v67h56v-67h-56zM225 234l-2 17q0 56 13 81q7 13 18 27.5t28 31.5q32 30 41 47.5t9 35.5q0 36 -22.5 60.5t-53.5 24.5t-53.5 -22t-28.5 -73l-50 8q7 72 44 104.5t91 32.5t89 -35.5t35 -95.5q0 -32 -12.5 -58.5t-50.5 -61.5q-37 -33 -43 -52q-6 -20 -6 -72h-46z
M462 50v617h-412v-617h412zM512 718v-718h-512v718h512z" />
    <glyph glyph-name=".null" horiz-adv-x="0" 
 />
    <glyph glyph-name="nonmarkingreturn" unicode="&#xd;" horiz-adv-x="0" 
 />
    <glyph glyph-name="space" unicode=" " horiz-adv-x="296" 
 />
    <glyph glyph-name="exclam" unicode="!" horiz-adv-x="296" 
d="M239 222h-120l68 486h120zM77 70q5 32 31.5 55t59.5 23q32 0 53 -22t17 -54q-5 -32 -31.5 -55t-59.5 -23q-16 0 -29.5 6t-23.5 16t-14.5 24t-2.5 30z" />
    <glyph glyph-name="quotedbl" unicode="&#x22;" horiz-adv-x="519" 
d="M219 708h102l-37 -264h-102zM396 708h102l-37 -264h-102z" />
    <glyph glyph-name="numbersign" unicode="#" horiz-adv-x="592" 
d="M166 209h-90l12 84h101l35 122h-90l12 84h101l59 209h88l-59 -209h103l59 209h87l-59 -209h90l-12 -84h-102l-34 -122h90l-12 -84h-100l-60 -209h-87l59 209h-104l-59 -209h-87zM311 415l-34 -122h103l34 122h-103z" />
    <glyph glyph-name="dollar" unicode="$" horiz-adv-x="592" 
d="M419 720h9q51 0 101.5 -17.5t84.5 -51.5l-96 -93q-20 25 -49.5 39.5t-64.5 14.5l-29 -200l4 -1q40 -11 79 -25t67.5 -36.5t43 -56.5t7.5 -85q-7 -50 -30.5 -88.5t-58.5 -66t-79 -43.5t-92 -21l-10 -72h-54l10 71q-66 -1 -124 20t-97 69l104 93q20 -34 55.5 -52t76.5 -22
l30 211l-5 1q-41 12 -77 26.5t-61.5 38t-38 57t-5.5 83.5q6 45 29 81t56.5 62.5t75 42.5t84.5 20l9 67h54zM349 610q-36 -6 -66.5 -29.5t-36.5 -61.5q-3 -23 2.5 -37t16.5 -24t26.5 -16.5t32.5 -14.5zM331 96q43 8 77 33.5t40 69.5q3 22 -4 37t-20.5 25t-31 17t-34.5 13z
" />
    <glyph glyph-name="percent" unicode="%" horiz-adv-x="907" 
d="M529 174q5 39 24.5 72.5t48 59t64.5 40t75 14.5t70.5 -14.5t53.5 -40t31.5 -59t4.5 -72.5q-6 -39 -25 -72.5t-48 -59t-64.5 -40t-74.5 -14.5t-71 14.5t-53.5 40t-31.5 59t-4 72.5zM805 174q5 38 -17 64t-60 26q-19 0 -36.5 -7t-31.5 -19t-23 -28.5t-12 -35.5
q-5 -38 17 -64t60 -26q19 0 36.5 7t31.5 19t23 28.5t12 35.5zM105 534q5 39 24.5 72.5t48 59t64.5 40t75 14.5t70.5 -14.5t53.5 -40t31.5 -59t4.5 -72.5q-6 -39 -25.5 -72.5t-48 -59t-64.5 -40t-75 -14.5t-70.5 14.5t-53 40t-31.5 59t-4 72.5zM381 534q5 38 -17.5 64
t-60.5 26q-19 0 -36 -7t-31 -19t-23 -28.5t-12 -35.5q-5 -38 17 -64t60 -26q19 0 36.5 7t31.5 19t23 28.5t12 35.5zM725 740l77 -38l-519 -734l-78 38z" />
    <glyph glyph-name="ampersand" unicode="&#x26;" horiz-adv-x="741" 
d="M597 167l130 -167h-155l-64 81q-51 -51 -103 -75t-120 -24q-47 0 -88.5 13.5t-71 40t-44 65t-7.5 89.5q5 36 21.5 66.5t41 56t55 45t63.5 31.5q-14 19 -26.5 37t-20.5 37t-11.5 41t0.5 48q6 43 27.5 76t52.5 54.5t69.5 32.5t78.5 11t74.5 -10t59 -30.5t36.5 -52.5t6 -75
q-5 -33 -21 -60.5t-39 -50t-51 -41t-56 -31.5l97 -123l96 120h141zM411 618q-35 0 -62.5 -19.5t-32.5 -51.5q-4 -28 14.5 -54.5t38.5 -48.5q16 8 34.5 18.5t34.5 24t27.5 29.5t14.5 36q4 29 -16.5 47.5t-52.5 18.5zM321 318q-19 -11 -38 -22.5t-35 -25.5t-27 -32t-14 -41
t3 -43t19.5 -34t32.5 -22t42 -8q42 0 75.5 22t64.5 48z" />
    <glyph glyph-name="quotesingle" unicode="'" horiz-adv-x="296" 
d="M196 708h102l-37 -264h-102z" />
    <glyph glyph-name="parenleft" unicode="(" horiz-adv-x="296" 
d="M374 680l-1 -4q-72 -84 -120.5 -184.5t-62.5 -203.5q-14 -104 5.5 -204.5t67.5 -184.5l-91 -55q-56 95 -78.5 208t-5.5 236q17 122 72 235.5t136 208.5z" />
    <glyph glyph-name="parenright" unicode=")" horiz-adv-x="296" 
d="M2 -104l1 4q72 84 120.5 184.5t62.5 203.5q14 104 -5.5 204t-67.5 184l91 56q56 -95 78.5 -208t5.5 -236q-17 -122 -72 -235.5t-136 -208.5z" />
    <glyph glyph-name="asterisk" unicode="*" horiz-adv-x="463" 
d="M353 566l141 44l15 -80l-142 -44l69 -117l-76 -50l-69 118l-100 -115l-60 51l102 113l-131 47l38 80l129 -47l20 142h84z" />
    <glyph glyph-name="plus" unicode="+" horiz-adv-x="666" 
d="M331 354l31 220h102l-31 -220h220l-14 -102h-220l-31 -220h-102l31 220h-220l14 102h220z" />
    <glyph glyph-name="comma" unicode="," horiz-adv-x="296" 
d="M127 138h122l-122 -264h-107z" />
    <glyph glyph-name="hyphen" unicode="-" horiz-adv-x="315" 
d="M308 195h-247l14 102h247z" />
    <glyph glyph-name="period" unicode="." horiz-adv-x="296" 
d="M77 70q5 32 31.5 55t59.5 23q32 0 53 -22t17 -54q-5 -32 -31.5 -55t-59.5 -23q-16 0 -29.5 6t-23.5 16t-14.5 24t-2.5 30z" />
    <glyph glyph-name="slash" unicode="/" horiz-adv-x="389" 
d="M67 -48l-78 30l420 776l79 -32z" />
    <glyph glyph-name="zero" unicode="0" horiz-adv-x="592" 
d="M89 354q12 84 34 143.5t49.5 100t58.5 65t61.5 37t57.5 16.5t47 4t46 -4t52.5 -16.5t50.5 -37t40.5 -65t21.5 -100t-7 -143.5t-33.5 -143.5t-49 -100t-59 -65t-61.5 -37t-57 -16.5t-47 -4t-46 4t-52.5 16.5t-51 37t-40.5 65t-21.5 100t6.5 143.5zM209 354
q-5 -33 -6.5 -76.5t7.5 -82.5t32 -66t68 -27t75.5 27t50.5 66t30 82.5t15 76.5t7 76.5t-7 82.5t-32 66t-68 27t-75.5 -27t-50.5 -66t-30.5 -82.5t-15.5 -76.5z" />
    <glyph glyph-name="one" unicode="1" horiz-adv-x="592" 
d="M348 570l-151 -123l-58 83l239 178h109l-99 -708h-120z" />
    <glyph glyph-name="two" unicode="2" horiz-adv-x="592" 
d="M76 127l313 266q14 12 28.5 25.5t27.5 28.5t22 31.5t12 34.5q6 44 -21 68.5t-69 24.5q-45 0 -78 -26t-45 -70l-124 10q11 49 35.5 86.5t59 62.5t77.5 38t91 13t88 -12.5t67.5 -37t39.5 -62.5t5 -89q-9 -67 -46.5 -115.5t-91.5 -92.5l-247 -203h328l-15 -108h-474z" />
    <glyph glyph-name="three" unicode="3" horiz-adv-x="592" 
d="M281 423h31q26 0 51 3t46 13t35 29t19 51q6 41 -18 67t-69 26q-36 0 -68 -20.5t-49 -57.5l-123 34q17 39 43.5 68t59 47.5t70 27.5t76.5 9q46 0 85.5 -12t67 -35.5t41 -59t6.5 -82.5q-8 -57 -46.5 -101.5t-96.5 -58.5l-1 -2q67 -10 95 -58t19 -114q-7 -51 -32 -90
t-62 -65.5t-82 -40t-92 -13.5q-44 0 -81.5 9.5t-66.5 29.5t-47.5 51.5t-24.5 75.5l133 34q5 -44 29.5 -68t72.5 -24q24 0 46.5 8t41 22.5t31 35t16.5 45.5q5 34 -6.5 55.5t-32.5 33t-48.5 15.5t-54.5 4h-29z" />
    <glyph glyph-name="four" unicode="4" horiz-adv-x="592" 
d="M355 144h-301l16 119l348 445h136l-64 -456h103l-15 -108h-103l-20 -144h-120zM410 538h-2l-217 -286h179z" />
    <glyph glyph-name="five" unicode="5" horiz-adv-x="592" 
d="M589 600h-285l-23 -141q15 5 36.5 7t40.5 2q52 0 93 -16.5t68 -47.5t38 -74t4 -97q-8 -57 -34 -102.5t-64.5 -77t-88 -48.5t-103.5 -17q-85 0 -139 40t-67 122l130 34q7 -38 33 -60t72 -22q27 0 51 9t42.5 25.5t30.5 38.5t16 48q5 37 -5 63t-30.5 42.5t-49.5 24t-62 7.5
q-39 0 -79 -9t-74 -25l61 382h403z" />
    <glyph glyph-name="six" unicode="6" horiz-adv-x="592" 
d="M536 708l-207 -262l2 -2q11 6 30.5 9t37.5 3q47 0 83.5 -18t60.5 -49t33.5 -72t3.5 -87q-8 -55 -33 -100t-63.5 -76.5t-87 -48.5t-102.5 -17q-56 0 -99.5 16.5t-72.5 47.5t-41.5 76t-4.5 101t32.5 101.5t60.5 92.5l221 285h146zM202 231q-4 -27 3 -50.5t22 -41t37 -27.5
t49 -10t51.5 10t44.5 27.5t33.5 41t17.5 50.5t-3 50.5t-22 41t-37 27.5t-49 10t-51.5 -10t-44.5 -27.5t-33.5 -41t-17.5 -50.5z" />
    <glyph glyph-name="seven" unicode="7" horiz-adv-x="592" 
d="M141 708h481l-15 -110l-367 -598h-141l372 594h-346z" />
    <glyph glyph-name="eight" unicode="8" horiz-adv-x="592" 
d="M397 720q45 0 82.5 -12.5t64 -36t38.5 -58t6 -79.5q-8 -57 -41 -100t-89 -59v-2q25 -5 46 -20.5t35.5 -38t21 -51.5t2.5 -62q-8 -53 -32 -92.5t-60.5 -66.5t-82 -40.5t-94.5 -13.5q-50 0 -91.5 13.5t-70 40.5t-42 66.5t-5.5 92.5q4 33 19 62t36 51.5t46.5 38t51.5 20.5v2
q-51 16 -71.5 59t-12.5 100q6 45 28 79.5t54.5 58t74 36t86.5 12.5zM382 618q-46 0 -75.5 -28t-34.5 -68q-6 -42 16 -70.5t67 -28.5q20 0 38.5 7.5t33.5 21t25.5 31.5t13.5 39q5 40 -18.5 68t-65.5 28zM341 327q-24 0 -47 -8t-41 -23t-30.5 -35.5t-15.5 -44.5
q-8 -51 21.5 -82.5t81.5 -31.5t89.5 32t45.5 82q3 24 -3.5 44.5t-21 35.5t-35 23t-44.5 8z" />
    <glyph glyph-name="nine" unicode="9" horiz-adv-x="592" 
d="M155 0l206 262l-1 2q-12 -6 -31 -9t-37 -3q-47 0 -83.5 18t-60.5 49t-34 72t-3 87q7 55 32.5 100t63.5 76.5t87 48.5t103 17q55 0 99 -16.5t73 -47.5t41.5 -76t4.5 -101t-33 -101.5t-60 -92.5l-221 -285h-146zM489 477q4 27 -3 50.5t-22 41t-37 27.5t-49 10t-51.5 -10
t-44.5 -27.5t-33.5 -41t-17.5 -50.5t3 -50.5t22 -41t36.5 -27.5t48.5 -10t52 10t45 27.5t33.5 41t17.5 50.5z" />
    <glyph glyph-name="colon" unicode=":" horiz-adv-x="296" 
d="M77 70q5 32 31.5 55t59.5 23q32 0 53 -22t17 -54q-5 -32 -31.5 -55t-59.5 -23q-16 0 -29.5 6t-23.5 16t-14.5 24t-2.5 30zM125 409q5 32 31.5 55t59.5 23q32 0 52.5 -22t16.5 -54q-5 -32 -31.5 -55t-59.5 -23q-16 0 -29.5 6t-23 16t-14 24t-2.5 30z" />
    <glyph glyph-name="semicolon" unicode=";" horiz-adv-x="296" 
d="M127 138h122l-122 -264h-107zM125 409q5 32 31.5 55t59.5 23q32 0 52.5 -22t16.5 -54q-5 -32 -31.5 -55t-59.5 -23q-16 0 -29.5 6t-23 16t-14 24t-2.5 30z" />
    <glyph glyph-name="less" unicode="&#x3c;" horiz-adv-x="666" 
d="M117 267l10 72l538 225l-16 -110l-359 -151l317 -151l-16 -110z" />
    <glyph glyph-name="equal" unicode="=" horiz-adv-x="666" 
d="M666 444l-14 -102h-542l14 102h542zM641 264l-15 -102h-542l15 102h542z" />
    <glyph glyph-name="greater" unicode="&#x3e;" horiz-adv-x="666" 
d="M633 339l-10 -72l-538 -225l16 110l359 151l-317 151l16 110z" />
    <glyph glyph-name="question" unicode="?" horiz-adv-x="519" 
d="M239 209l8 55q3 22 7.5 37.5t12.5 28t20 24t30 27.5l88 78q29 26 34 65t-16.5 63.5t-60.5 24.5q-42 0 -73.5 -28.5t-40.5 -69.5l-127 10q25 96 95.5 149t166.5 53q45 0 81.5 -13t61.5 -37.5t36 -61t4 -83.5q-5 -33 -17 -58t-30 -46t-40.5 -40t-47.5 -40q-16 -13 -27 -23
t-19 -20.5t-13 -24t-8 -32.5l-5 -38h-120zM199 70q5 32 31.5 55t59.5 23q32 0 53 -22t17 -54q-5 -32 -31.5 -55t-59.5 -23q-16 0 -29.5 6t-23.5 16t-14.5 24t-2.5 30z" />
    <glyph glyph-name="at" unicode="@" horiz-adv-x="800" 
d="M465 456q-25 0 -46 -9.5t-37 -26t-26.5 -38.5t-13.5 -47q-1 -8 -2 -23.5t4.5 -30.5t21 -26.5t46.5 -11.5q28 0 48.5 11t34 28.5t21 39t10.5 42.5q5 40 -9 66t-52 26zM745 133q-64 -74 -150 -112.5t-178 -38.5q-80 0 -146.5 27.5t-112.5 76.5t-67 117.5t-10 149.5
q11 80 51 148t99 118t132.5 78.5t152.5 28.5q66 0 126.5 -21.5t104.5 -63.5t65.5 -103.5t10.5 -140.5q-11 -80 -44 -128t-72.5 -74t-78.5 -34t-61 -8q-42 0 -57.5 17t-13.5 37h-2q-23 -20 -55.5 -37t-80.5 -17q-32 0 -57 12.5t-40.5 34.5t-21.5 53t-1 68q6 44 25.5 84.5
t49.5 72t69.5 50t86.5 18.5q40 0 64.5 -13t35.5 -44h2l15 45h94l-65 -197l-10 -28t-7 -29q-3 -18 1.5 -27.5t20.5 -9.5t32.5 8.5t31 27t26 46.5t17.5 67q8 60 -5 105.5t-43.5 76.5t-76 46.5t-102.5 15.5q-62 0 -116 -21t-96 -59t-69 -90t-36 -113q-9 -66 6 -118t49 -88
t85.5 -55.5t114.5 -19.5q57 0 106.5 16t90.5 45h110z" />
    <glyph glyph-name="A" unicode="A" horiz-adv-x="722" 
d="M407 708h109l206 -708h-144l-44 162h-307l-86 -162h-141zM505 270l-68 288l-152 -288h220z" />
    <glyph glyph-name="B" unicode="B" horiz-adv-x="648" 
d="M178 708h276q40 0 77.5 -9.5t65.5 -31t42 -55.5t7 -82q-8 -60 -48 -99t-97 -56v-2q33 -4 59 -18.5t43.5 -37t24.5 -52t2 -63.5q-8 -58 -36.5 -96.5t-69.5 -62t-90.5 -33.5t-99.5 -10h-255zM264 420h115q63 0 98 24.5t40 64.5q7 46 -22.5 68.5t-101.5 22.5h-104zM220 108
h116q24 0 52 3t52 14t42 31.5t23 55.5q8 56 -25.5 78t-110.5 22h-121z" />
    <glyph glyph-name="C" unicode="C" horiz-adv-x="685" 
d="M641 542q-34 42 -68 56t-71 14q-55 0 -102.5 -19.5t-84.5 -54t-61 -80.5t-31 -99q-8 -57 2.5 -105t37.5 -83t69 -55t97 -20q43 0 86 20.5t85 65.5l94 -74q-58 -66 -131 -96t-151 -30q-82 0 -147 26.5t-107.5 75t-61 116.5t-6.5 151q12 85 49.5 154.5t94 118.5t129 75.5
t154.5 26.5q72 0 129.5 -25.5t102.5 -86.5z" />
    <glyph glyph-name="D" unicode="D" horiz-adv-x="759" 
d="M178 708h279q70 0 132 -21.5t105.5 -65.5t64.5 -110.5t8 -156.5q-13 -91 -57 -157.5t-104 -110t-129.5 -65t-133.5 -21.5h-264zM315 114q59 0 113 13.5t97 42t72 74t38 110.5q9 64 -4.5 110t-45 74.5t-78 42t-104.5 13.5h-115l-67 -480h94z" />
    <glyph glyph-name="E" unicode="E" horiz-adv-x="611" 
d="M178 708h469l-16 -114h-343l-24 -174h325l-16 -114h-325l-27 -192h361l-16 -114h-487z" />
    <glyph glyph-name="F" unicode="F" horiz-adv-x="574" 
d="M178 708h457l-16 -114h-331l-26 -186h312l-16 -114h-312l-41 -294h-126z" />
    <glyph glyph-name="G" unicode="G" horiz-adv-x="778" 
d="M715 52q-142 -70 -303 -70q-82 0 -147 26.5t-107.5 75t-61 116.5t-6.5 151q12 85 49.5 154.5t94 118.5t129 75.5t154.5 26.5q81 0 149 -19.5t117 -69.5l-106 -94q-29 33 -75 51t-100 18q-55 0 -102.5 -19.5t-84.5 -54t-61 -80.5t-31 -99q-8 -57 2.5 -105t37.5 -83t69 -55
t97 -20q48 0 92 9t79 28l24 167h-145l16 114h271z" />
    <glyph glyph-name="H" unicode="H" horiz-adv-x="741" 
d="M178 708h126l-40 -282h331l40 282h126l-99 -708h-126l43 312h-331l-43 -312h-126z" />
    <glyph glyph-name="I" unicode="I" horiz-adv-x="278" 
d="M175 708h126l-99 -708h-126z" />
    <glyph glyph-name="J" unicode="J" horiz-adv-x="500" 
d="M453 196q-6 -42 -25 -81t-49.5 -68.5t-73 -47t-95.5 -17.5q-84 0 -132 39t-53 124l122 28q1 -35 20.5 -56t52.5 -21q54 0 78.5 36.5t33.5 100.5l67 475h126z" />
    <glyph glyph-name="K" unicode="K" horiz-adv-x="685" 
d="M178 708h126l-42 -300h6l335 300h170l-377 -327l300 -381h-177l-259 348h-7l-48 -348h-126z" />
    <glyph glyph-name="L" unicode="L" horiz-adv-x="519" 
d="M178 708h126l-83 -594h301l-16 -114h-427z" />
    <glyph glyph-name="M" unicode="M" horiz-adv-x="926" 
d="M181 708h192l119 -496l261 496h190l-99 -708h-120l82 588h-2l-297 -588h-88l-133 588h-2l-82 -588h-120z" />
    <glyph glyph-name="N" unicode="N" horiz-adv-x="796" 
d="M178 708h167l269 -526h2l74 526h126l-99 -708h-160l-274 543h-2l-76 -543h-126z" />
    <glyph glyph-name="O" unicode="O" horiz-adv-x="833" 
d="M90 351q12 85 49.5 154.5t94 118.5t129 75.5t154.5 26.5q83 1 148.5 -24.5t108.5 -74.5t61 -118t6 -154q-12 -83 -49 -151t-94 -117t-130 -76.5t-156 -28.5q-82 0 -147 26.5t-107.5 75t-61 116.5t-6.5 151zM223 359q-8 -57 2.5 -105t37.5 -83t69 -55t97 -20t103 20t85 55
t61 83t32 105q7 53 -3.5 99t-37.5 80.5t-69.5 54t-97.5 19.5t-102.5 -19.5t-84.5 -54t-61 -80.5t-31 -99z" />
    <glyph glyph-name="P" unicode="P" horiz-adv-x="611" 
d="M178 708h238q51 0 97 -10t78.5 -33.5t48.5 -63t8 -98.5q-9 -67 -38 -108t-71 -63.5t-94.5 -30.5t-108.5 -8h-90l-41 -293h-126zM337 401q27 0 56.5 2t55 12t44 30t23.5 56q4 33 -7 52.5t-31.5 30t-47 13.5t-51.5 3h-90l-28 -199h76z" />
    <glyph glyph-name="Q" unicode="Q" horiz-adv-x="852" 
d="M839 0h-412q-83 0 -150 25.5t-112 73t-65 116t-8 154.5q11 78 50 143.5t97 113t129 74t147 26.5t139.5 -26.5t108 -74t64.5 -113t9 -143.5q-8 -56 -27.5 -98.5t-45.5 -75t-55.5 -54.5t-57.5 -37v-2h203zM496 612q-51 0 -97.5 -18.5t-82.5 -51.5t-60.5 -78t-31.5 -98
q-8 -54 4 -100.5t39 -80t68 -52.5t93 -19t99 19t84 52.5t61 80t32 100.5q7 53 -4 98t-38.5 78t-69.5 51.5t-96 18.5z" />
    <glyph glyph-name="R" unicode="R" horiz-adv-x="630" 
d="M178 708h246q51 0 97.5 -9.5t80 -32.5t50 -62t7.5 -99q-5 -38 -20.5 -71t-40 -58t-57.5 -41t-73 -22l145 -313h-152l-122 300h-92l-42 -300h-126zM360 408q27 0 54.5 2.5t51 12t40.5 29t22 54.5q4 31 -6.5 50t-30 28.5t-44.5 12.5t-49 3h-109l-27 -192h98z" />
    <glyph glyph-name="S" unicode="S" horiz-adv-x="574" 
d="M504 556q-17 29 -48 42.5t-68 13.5q-22 0 -43.5 -5t-39.5 -16t-30.5 -28.5t-15.5 -41.5q-5 -36 17 -55t57.5 -33t77 -27t76 -36t54 -61t10.5 -101q-8 -57 -35 -99.5t-66.5 -70.5t-88.5 -42t-101 -14q-66 0 -124 22t-95 74l108 92q19 -35 53.5 -54.5t76.5 -19.5
q22 0 44.5 6t42 18t33.5 30.5t18 42.5q5 39 -17 60t-57.5 35.5t-77 27.5t-75.5 35.5t-54 60t-11 100.5q8 55 36 95t68.5 66.5t89.5 39.5t98 13q56 0 106.5 -17t85.5 -56z" />
    <glyph glyph-name="T" unicode="T" horiz-adv-x="574" 
d="M307 594h-217l16 114h560l-16 -114h-217l-83 -594h-126z" />
    <glyph glyph-name="U" unicode="U" horiz-adv-x="722" 
d="M682 260q-9 -64 -38 -115.5t-72.5 -87.5t-98 -55.5t-115.5 -19.5t-110.5 19.5t-82.5 55.5t-47.5 87.5t-5.5 115.5l63 448h126l-62 -444q-4 -26 0 -54.5t19 -52.5t43.5 -39.5t73.5 -15.5t78 15.5t54.5 39.5t33.5 52.5t16 54.5l62 444h126z" />
    <glyph glyph-name="V" unicode="V" horiz-adv-x="667" 
d="M96 708h145l118 -535l274 535h136l-385 -708h-109z" />
    <glyph glyph-name="W" unicode="W" horiz-adv-x="981" 
d="M99 708h138l61 -510h2l231 510h124l84 -510h2l211 510h128l-305 -708h-120l-89 539h-2l-239 -539h-116z" />
    <glyph glyph-name="X" unicode="X" horiz-adv-x="685" 
d="M304 370l-189 338h159l130 -262l202 262h153l-279 -338l205 -370h-160l-145 299l-228 -299h-152z" />
    <glyph glyph-name="Y" unicode="Y" horiz-adv-x="630" 
d="M294 303l-209 405h158l134 -282l216 282h150l-323 -405l-42 -303h-126z" />
    <glyph glyph-name="Z" unicode="Z" horiz-adv-x="611" 
d="M51 114l445 480h-372l16 114h529l-16 -114l-448 -480h387l-16 -114h-541z" />
    <glyph glyph-name="bracketleft" unicode="[" horiz-adv-x="278" 
d="M349 654h-90l-102 -732h90l-11 -78h-192l124 888h192z" />
    <glyph glyph-name="backslash" unicode="\" horiz-adv-x="389" 
d="M192 758l203 -776l-87 -30l-203 774z" />
    <glyph glyph-name="bracketright" unicode="]" horiz-adv-x="278" 
d="M9 -78h90l102 732h-90l11 78h192l-124 -888h-191z" />
    <glyph glyph-name="asciicircum" unicode="^" horiz-adv-x="666" 
d="M117 343l274 365h82l172 -365h-118l-114 239l-178 -239h-118z" />
    <glyph glyph-name="underscore" unicode="_" horiz-adv-x="500" 
d="M-17 -125l7 50h499l-7 -50h-499z" />
    <glyph glyph-name="grave" unicode="`" 
d="M256 564h-94l-121 144h136z" />
    <glyph glyph-name="a" unicode="a" horiz-adv-x="537" 
d="M377 66h-3q-32 -41 -74.5 -59.5t-90.5 -18.5q-33 0 -63.5 9t-52.5 27t-33 45t-6 63q8 58 43 91.5t83 50.5t101.5 21t98.5 4h30l1 13q7 45 -21 67.5t-76 22.5q-38 0 -73 -13.5t-62 -36.5l-54 63q45 41 101.5 59t113.5 18q51 0 84.5 -11.5t54 -29.5t29.5 -41.5t11 -47.5
t-0.5 -46.5t-4.5 -39.5l-38 -276h-108zM391 215h-25q-25 0 -56.5 -2t-60 -9.5t-49.5 -22t-25 -40.5q-2 -17 4 -28.5t17 -19.5t25 -11.5t29 -3.5q62 0 96 29.5t41 80.5z" />
    <glyph glyph-name="b" unicode="b" horiz-adv-x="630" 
d="M174 756h120l-48 -337h3q11 12 27 24.5t37.5 23.5t48.5 18t61 7q51 0 91 -19.5t66 -53.5t36 -80t3 -99q-8 -53 -30.5 -99t-57.5 -80t-82 -53.5t-102 -19.5q-51 0 -92 20t-61 64h-2l-10 -72h-114zM499 240q4 28 -2 54t-21.5 46t-40 32t-57.5 12t-60.5 -12t-48.5 -32
t-34.5 -46t-17.5 -54t2 -54t21.5 -46t40 -32t57.5 -12t61 12t49 32t34 46t17 54z" />
    <glyph glyph-name="c" unicode="c" horiz-adv-x="482" 
d="M443 336q-18 22 -39.5 35t-45.5 13q-33 0 -60.5 -12t-48.5 -32t-34.5 -46t-17.5 -54t2 -54t21.5 -46t40 -32t57.5 -12q28 0 53.5 11.5t45.5 33.5l68 -86q-21 -18 -46 -31t-50 -21t-47.5 -11.5t-38.5 -3.5q-54 0 -99.5 18t-76 51t-44.5 79.5t-6 103.5t35 103.5t67 79.5
t90.5 51t104.5 18q46 0 90 -17.5t73 -55.5z" />
    <glyph glyph-name="d" unicode="d" horiz-adv-x="630" 
d="M458 72h-2q-33 -44 -79.5 -64t-97.5 -20q-56 0 -97 19.5t-67 53.5t-36 80t-2 99q7 53 31 99t59.5 80t81 53.5t96.5 19.5q34 0 59 -7t43 -18t30 -23.5t20 -24.5h3l48 337h120l-106 -756h-114zM197 240q-4 -28 2 -54t21.5 -46t40 -32t57.5 -12t61 12t49 32t34 46t17 54
t-2 54t-21.5 46t-40 32t-57.5 12t-60.5 -12t-48.5 -32t-34.5 -46t-17.5 -54z" />
    <glyph glyph-name="e" unicode="e" horiz-adv-x="574" 
d="M191 198q-1 -27 7.5 -48t23.5 -35.5t36 -22.5t46 -8q45 0 78.5 18.5t59.5 46.5l77 -65q-49 -52 -104 -74t-112 -22q-54 0 -99.5 18t-76 51t-44.5 79.5t-6 103.5t35 103.5t67 79.5t90.5 51t104.5 18q101 0 153 -67.5t35 -193.5l-5 -33h-366zM450 288q7 53 -21 83.5
t-85 30.5q-54 0 -90 -31t-50 -83h246z" />
    <glyph glyph-name="f" unicode="f" horiz-adv-x="352" 
d="M164 378h-99l14 102h99l10 68q7 50 19.5 90.5t36 69.5t60.5 44.5t93 15.5q41 0 75 -7l-22 -102q-12 3 -24 5t-25 2q-25 0 -41.5 -8t-26.5 -21.5t-15 -31.5t-8 -38l-12 -87h111l-14 -102h-111l-53 -378h-120z" />
    <glyph glyph-name="g" unicode="g" horiz-adv-x="630" 
d="M629 480l-61 -437q-9 -65 -32.5 -117.5t-62 -89t-92.5 -56.5t-124 -20q-67 0 -124.5 17t-102.5 62l86 98q31 -33 67.5 -51t87.5 -18q43 0 74 12t51.5 33t32.5 50.5t17 65.5l4 35h-2q-31 -35 -76 -52.5t-90 -17.5q-54 0 -95.5 19.5t-68 52.5t-37.5 78t-4 96q7 53 30 99
t58.5 80t82 53.5t102.5 19.5q51 0 92 -20t61 -64h2l10 72h114zM359 384q-32 0 -59.5 -10.5t-48.5 -29t-35.5 -45t-18.5 -58.5q-4 -29 3.5 -54t23.5 -44t40.5 -30t54.5 -11q33 0 61 11t49 29.5t34.5 44.5t18.5 56q8 63 -24.5 102t-98.5 39z" />
    <glyph glyph-name="h" unicode="h" horiz-adv-x="574" 
d="M246 413h2q18 30 57 54.5t95 24.5q48 0 79.5 -16t48.5 -42t21 -60t-1 -71l-42 -303h-120l34 243q3 20 4 44.5t-4.5 46t-21.5 36t-47 14.5q-30 0 -52 -10t-37.5 -27t-25 -39t-12.5 -46l-36 -262h-120l106 756h120z" />
    <glyph glyph-name="i" unicode="i" 
d="M137 480h120l-67 -480h-120zM143 643q4 29 28.5 50.5t57.5 21.5t53 -20.5t15 -51.5t-30 -51.5t-58 -20.5t-51.5 21.5t-14.5 50.5z" />
    <glyph glyph-name="j" unicode="j" 
d="M257 480l-72 -509q-6 -45 -17.5 -83.5t-32.5 -67t-55 -44.5t-85 -16q-17 0 -33 2t-31 7l24 104q20 -5 37 -5q22 0 35.5 9.5t21 24.5t11 33t5.5 35l72 510h120zM143 643q4 29 28.5 50.5t57.5 21.5t53 -20.5t15 -51.5t-30 -51.5t-58 -20.5t-51.5 21.5t-14.5 50.5z" />
    <glyph glyph-name="k" unicode="k" horiz-adv-x="537" 
d="M174 756h120l-67 -475l213 199h154l-237 -218l183 -262h-159l-157 245h-2l-34 -245h-120z" />
    <glyph glyph-name="l" unicode="l" 
d="M176 756h120l-106 -756h-120z" />
    <glyph glyph-name="m" unicode="m" horiz-adv-x="870" 
d="M130 480h114l-11 -75h2q21 34 60.5 60.5t99.5 26.5q113 0 137 -89q33 46 75 67.5t96 21.5q48 0 78.5 -16t47 -44t20.5 -65.5t-2 -80.5l-40 -286h-120l38 272q3 22 2 42.5t-9 36t-24 24.5t-43 9q-28 0 -49 -10.5t-35.5 -28t-23.5 -40t-12 -45.5l-36 -260h-120l40 286
q6 45 -9.5 71.5t-59.5 26.5q-30 0 -52 -10t-37.5 -27t-25 -39t-12.5 -46l-36 -262h-120z" />
    <glyph glyph-name="n" unicode="n" horiz-adv-x="574" 
d="M135 480h114l-11 -77h2q22 36 61 62.5t99 26.5q48 0 79.5 -16t48.5 -42t21 -60t-1 -71l-42 -303h-120l34 243q3 20 4 44.5t-4.5 46t-21.5 36t-47 14.5q-30 0 -52 -10t-37.5 -27t-25 -39t-12.5 -46l-36 -262h-120z" />
    <glyph glyph-name="o" unicode="o" horiz-adv-x="610" 
d="M77 240q8 57 35 103.5t67 79.5t90.5 51t104.5 18t99 -18t75.5 -51t44.5 -79.5t6 -103.5t-35 -103.5t-66.5 -79.5t-90 -51t-104.5 -18t-99.5 18t-76 51t-44.5 79.5t-6 103.5zM197 240q-4 -28 2 -54t21.5 -46t40 -32t57.5 -12t61 12t49 32t34 46t17 54t-2 54t-21.5 46
t-40 32t-57.5 12t-60.5 -12t-48.5 -32t-34.5 -46t-17.5 -54z" />
    <glyph glyph-name="p" unicode="p" horiz-adv-x="630" 
d="M135 480h114l-10 -72h2q32 44 79 64t98 20q55 0 96.5 -19.5t67 -53.5t35 -80t2.5 -99q-8 -53 -31 -99t-58.5 -80t-81 -53.5t-96.5 -19.5q-34 0 -59 7t-43.5 18t-30.5 23.5t-20 24.5h-3l-41 -289h-120zM499 240q4 28 -2 54t-21.5 46t-40 32t-57.5 12t-60.5 -12t-48.5 -32
t-34.5 -46t-17.5 -54t2 -54t21.5 -46t40 -32t57.5 -12t61 12t49 32t34 46t17 54z" />
    <glyph glyph-name="q" unicode="q" horiz-adv-x="630" 
d="M529 -228h-120l41 289h-3q-11 -12 -26.5 -24.5t-37 -23.5t-48.5 -18t-61 -7q-51 0 -91 19.5t-66 53.5t-37 80t-3 99q7 53 30 99t58.5 80t82 53.5t102.5 19.5q51 0 92 -20t61 -64h2l10 72h114zM197 240q-4 -28 2 -54t21.5 -46t40 -32t57.5 -12t61 12t49 32t34 46t17 54
t-2 54t-21.5 46t-40 32t-57.5 12t-60.5 -12t-48.5 -32t-34.5 -46t-17.5 -54z" />
    <glyph glyph-name="r" unicode="r" horiz-adv-x="389" 
d="M135 480h120l-11 -76h2q26 42 66.5 65t88.5 23q11 0 21 -2t21 -5l-17 -116q-14 4 -28 6.5t-28 2.5q-42 0 -70 -15.5t-44.5 -35.5t-23.5 -40t-8 -30l-36 -257h-120z" />
    <glyph glyph-name="s" unicode="s" horiz-adv-x="444" 
d="M372 347q-28 49 -87 49q-12 0 -25 -3t-24 -9t-18.5 -16t-9.5 -23q-3 -22 14.5 -32t45.5 -17t60.5 -14.5t59 -23t42 -42.5t8.5 -74q-6 -43 -28.5 -72.5t-54.5 -47.5t-70 -26t-75 -8q-56 0 -101 16t-76 58l91 75q20 -26 43.5 -42.5t61.5 -16.5q13 0 27.5 3t27.5 10t22 17.5
t11 24.5q4 25 -13.5 37t-45.5 19.5t-60.5 14t-59.5 21t-42.5 40.5t-8.5 72q6 40 26.5 69.5t50.5 48.5t66 28t72 9q48 0 92.5 -16.5t67.5 -56.5z" />
    <glyph glyph-name="t" unicode="t" horiz-adv-x="389" 
d="M65 378l14 102h99l19 139h120l-19 -139h132l-14 -102h-132l-30 -210q-5 -36 5.5 -57t50.5 -21q16 0 35.5 3.5t31.5 11.5l-14 -101q-20 -9 -48 -12.5t-49 -3.5q-48 0 -77 10.5t-43.5 32t-16.5 53.5t4 74l31 220h-99z" />
    <glyph glyph-name="u" unicode="u" horiz-adv-x="574" 
d="M506 0h-114l10 77h-2q-21 -36 -60 -62.5t-99 -26.5q-48 0 -79.5 15.5t-48.5 42t-21.5 60.5t0.5 71l43 303h120l-34 -243q-3 -20 -4.5 -44.5t4 -46t21 -36t47.5 -14.5q30 0 52 10t37.5 27t25 39t12.5 46l37 262h120z" />
    <glyph glyph-name="v" unicode="v" horiz-adv-x="519" 
d="M70 480h131l81 -336h2l176 336h123l-256 -480h-128z" />
    <glyph glyph-name="w" unicode="w" horiz-adv-x="796" 
d="M70 480h130l57 -336h2l144 336h130l57 -336h2l147 336h121l-230 -480h-119l-68 328h-2l-147 -328h-124z" />
    <glyph glyph-name="x" unicode="x" horiz-adv-x="537" 
d="M228 258l-135 222h146l76 -144l124 144h137l-195 -222l157 -258h-146l-101 172l-150 -172h-142z" />
    <glyph glyph-name="y" unicode="y" horiz-adv-x="519" 
d="M70 480h132l87 -333h2l167 333h125l-309 -583q-18 -34 -37 -59.5t-42.5 -43t-53 -26t-69.5 -8.5q-48 0 -90 12l30 108q14 -5 28.5 -8.5t30.5 -3.5q22 0 37.5 4t27 12.5t21 22t19.5 32.5l31 57z" />
    <glyph glyph-name="z" unicode="z" horiz-adv-x="482" 
d="M49 111l295 271v2h-245l14 96h390l-15 -109l-299 -275h272l-13 -96h-414z" />
    <glyph glyph-name="braceleft" unicode="{" horiz-adv-x="278" 
d="M46 332q10 0 26.5 3t33 10.5t29 21.5t15.5 35l28 198q4 34 21.5 58.5t40 41t45.5 24.5t39 8h91l-11 -84h-55q-21 0 -34.5 -7t-21.5 -17.5t-11.5 -22.5t-4.5 -23l-27 -188q-5 -29 -18 -48t-30 -30.5t-34.5 -16.5t-29.5 -6v-2q12 -1 28 -5t29.5 -15t21.5 -31.5t4 -55.5
l-26 -182q-2 -11 -2 -23t5 -22.5t16.5 -17.5t32.5 -7h55l-11 -84h-91q-16 0 -37 8t-39 24.5t-28.5 41t-5.5 58.5l27 191q3 24 -5.5 39t-22 23.5t-29.5 11.5t-26 3z" />
    <glyph glyph-name="bar" unicode="|" horiz-adv-x="222" 
d="M267 750l-141 -1000h-102l141 1000h102z" />
    <glyph glyph-name="braceright" unicode="}" horiz-adv-x="278" 
d="M312 244q-11 0 -27 -3t-32.5 -10.5t-29 -21.5t-15.5 -35l-28 -198q-5 -34 -22.5 -58.5t-39.5 -41t-45 -24.5t-39 -8h-90l11 84h54q21 0 34.5 7t21.5 17.5t11 22.5t5 23l27 188q4 29 17.5 48t30.5 30t34.5 16t29.5 7v2q-12 1 -28 5t-29.5 15t-22 31.5t-3.5 55.5l26 182
q1 11 1.5 23t-4.5 22.5t-16.5 17.5t-32.5 7h-55l11 84h91q16 0 37 -8t38.5 -24.5t28 -41t6.5 -58.5l-27 -191q-3 -24 5.5 -39t22 -23.5t29 -11.5t26.5 -3z" />
    <glyph glyph-name="asciitilde" unicode="~" horiz-adv-x="666" 
d="M607 301q-14 -16 -28 -31.5t-30.5 -27.5t-36 -19.5t-42.5 -7.5q-28 0 -51.5 9.5t-46.5 23.5q-22 14 -48.5 24.5t-61.5 10.5q-17 0 -31.5 -6.5t-26 -16t-21 -21.5t-16.5 -24l-24 84q10 16 23.5 31.5t30 27.5t36.5 19.5t44 7.5q29 0 57 -9.5t54 -22.5q26 -12 51 -24t45 -12
q15 0 28.5 6.5t25.5 16t23 21.5l22 24z" />
    <glyph glyph-name="uni00A0" unicode="&#xa0;" horiz-adv-x="296" 
 />
    <glyph glyph-name="exclamdown" unicode="&#xa1;" horiz-adv-x="296" 
d="M125 265h120l-69 -487h-120zM286 416q-5 -32 -31.5 -55t-59.5 -23q-16 0 -29.5 6t-23 16t-14 24t-2.5 30q5 32 31.5 55t59.5 23q16 0 29.5 -6t23 -16t14 -24t2.5 -30z" />
    <glyph glyph-name="cent" unicode="&#xa2;" horiz-adv-x="592" 
d="M423 492q47 -2 90.5 -17t69.5 -52l-88 -78q-16 20 -38 31.5t-49 13.5l-42 -300q28 0 55.5 13t48.5 33l62 -79q-38 -35 -85.5 -51t-94.5 -18l-10 -72h-54l10 72q-51 4 -89 25.5t-62 55t-33.5 77.5t-2.5 95q7 52 29 95.5t55 75.5t77 52.5t97 27.5l9 67h54zM354 389
q-57 -11 -89 -52.5t-40 -96.5q-8 -53 14 -94.5t73 -55.5z" />
    <glyph glyph-name="sterling" unicode="&#xa3;" horiz-adv-x="592" 
d="M79 96h102l31 219h-102l12 84h102l14 100q5 37 23.5 76t51 71.5t79.5 53t109 20.5q54 0 102 -15.5t80 -48.5l-94 -87q-19 20 -43 31.5t-56 11.5q-28 0 -51 -10.5t-40.5 -27.5t-28.5 -39t-14 -46l-12 -90h162l-12 -84h-162l-31 -219h253l-13 -96h-475z" />
    <glyph glyph-name="currency" unicode="&#xa4;" horiz-adv-x="592" 
d="M57 155l56 49q-19 32 -26.5 70t-1.5 81q6 42 24.5 80.5t46.5 70.5l-42 49l68 59l42 -48q35 23 75 35.5t83 12.5t79 -12.5t65 -35.5l56 48l52 -59l-56 -49q39 -68 27 -151q-5 -42 -23.5 -80.5t-46.5 -70.5l42 -49l-68 -60l-42 49q-35 -23 -75 -36t-83 -13q-84 0 -144 49
l-56 -49zM199 355q-10 -69 24 -110.5t101 -41.5t112 41.5t55 110.5t-23.5 110t-100.5 41t-112.5 -41t-55.5 -110z" />
    <glyph glyph-name="yen" unicode="&#xa5;" horiz-adv-x="592" 
d="M260 177h-170l11 78h170l7 48l-14 34h-151l11 78h108l-121 293h135l114 -294l190 294h129l-203 -293h108l-11 -78h-151l-24 -34l-7 -48h170l-11 -78h-170l-24 -177h-120z" />
    <glyph glyph-name="brokenbar" unicode="&#xa6;" horiz-adv-x="222" 
d="M256 675l-49 -350h-102l49 350h102zM186 175l-49 -350h-102l49 350h102z" />
    <glyph glyph-name="section" unicode="&#xa7;" horiz-adv-x="593" 
d="M477 566q-6 30 -30 47t-56 17q-15 0 -30 -4t-27.5 -12t-21.5 -20.5t-11 -29.5q-4 -28 15.5 -46.5t50.5 -34t68 -31.5t67 -38.5t48 -54.5t11 -79q-6 -42 -35 -76.5t-68 -51.5q26 -22 37.5 -52.5t6.5 -66.5q-6 -45 -31 -78.5t-60 -55.5t-76.5 -32.5t-80.5 -10.5
q-36 0 -68 6.5t-59 20.5t-47 37.5t-30 58.5l114 52q3 -19 12.5 -32.5t23.5 -22.5t32 -13.5t36 -4.5q15 0 32 3.5t31.5 11t24.5 20t13 30.5q4 28 -16 46t-51 33t-68 30.5t-67 37t-48 52t-11 77.5q8 55 39 90t77 58q-28 20 -41.5 48t-8.5 66q6 42 28.5 73t54.5 51.5t70 30.5
t75 10q29 0 58.5 -5t55 -17t45 -31.5t29.5 -47.5zM389 194q20 10 36.5 30t19.5 40q3 19 -3 32t-16.5 23t-23.5 17.5t-26 15.5l-83 42q-26 -11 -44.5 -26t-23.5 -44q-3 -18 3 -31.5t17 -23t25 -17t28 -13.5z" />
    <glyph glyph-name="dieresis" unicode="&#xa8;" 
d="M39 636q4 29 28.5 50.5t57.5 21.5t53 -20.5t15 -51.5t-30 -51.5t-58 -20.5t-51.5 21.5t-14.5 50.5zM245 636q4 29 28.5 50.5t57.5 21.5t53 -20.5t15 -51.5t-30 -51.5t-58 -20.5t-51.5 21.5t-14.5 50.5z" />
    <glyph glyph-name="copyright" unicode="&#xa9;" horiz-adv-x="800" 
d="M629 297q-11 -38 -31 -66.5t-46.5 -48t-57.5 -29.5t-64 -10q-47 0 -82 16.5t-56.5 45.5t-29 68t-1.5 84q6 46 24.5 84.5t47 66.5t67.5 43.5t87 15.5q68 0 113 -36t47 -109h-94q-2 35 -22.5 48t-47.5 13q-58 0 -88 -35t-38 -89q-4 -28 -0.5 -52t14.5 -42t29.5 -28
t44.5 -10q32 0 57 15.5t33 54.5h94zM77 354q11 77 50 144.5t96.5 118t129.5 80t149 29.5t140.5 -29.5t107 -80t63 -118t8.5 -144.5t-49.5 -144.5t-96.5 -118t-129.5 -80t-148.5 -29.5t-140.5 29.5t-107 80t-63.5 118t-9 144.5zM173 354q-8 -60 6 -112.5t45.5 -91.5t79 -61.5
t105.5 -22.5t111.5 22.5t96.5 61.5t71.5 91.5t36.5 112.5q9 60 -5 112.5t-45.5 91.5t-79 61.5t-105.5 22.5t-111.5 -22.5t-96.5 -61.5t-71.5 -91.5t-37.5 -112.5z" />
    <glyph glyph-name="ordfeminine" unicode="&#xaa;" horiz-adv-x="349" 
d="M309 470h-2q-19 -25 -50 -35t-60 -10q-13 0 -31 3.5t-34 13t-26 27t-6 44.5q5 35 27.5 55t53.5 30t66 12.5t65 2.5h17l1 8q2 17 -17 25t-48 8q-25 0 -46 -8.5t-41 -23.5l-36 53q30 23 67.5 34t77.5 11q72 0 99 -29.5t19 -90.5l-24 -169h-78zM288 553q-12 0 -29.5 -1
t-33 -5t-27.5 -11t-14 -20q-2 -15 12.5 -23t33.5 -8q43 0 62 17.5t23 44.5l1 6h-28z" />
    <glyph glyph-name="guillemotleft" unicode="&#xab;" horiz-adv-x="519" 
d="M176 248l92 -175l-83 -51l-121 226l184 224l68 -51zM399 248l92 -175l-83 -51l-121 226l184 224l68 -51z" />
    <glyph glyph-name="logicalnot" unicode="&#xac;" horiz-adv-x="666" 
d="M550 342h-440l14 102h542l-42 -297h-102z" />
    <glyph glyph-name="uni00AD" unicode="&#xad;" horiz-adv-x="315" 
d="M308 195h-247l14 102h247z" />
    <glyph glyph-name="registered" unicode="&#xae;" horiz-adv-x="800" 
d="M334 553h125q34 0 65 -5t53.5 -17.5t34.5 -35t7 -57.5q-4 -26 -14.5 -47.5t-25.5 -36.5t-32 -24.5t-33 -11.5l78 -155h-105l-68 150h-23l-21 -150h-96zM406 391h47q9 0 20 1t21.5 5t18 12.5t9.5 23.5t-3 23.5t-14 12.5t-20 5t-20 1h-47zM77 354q11 77 50 144.5t96.5 118
t129.5 80t149 29.5t140.5 -29.5t107 -80t63 -118t8.5 -144.5t-49.5 -144.5t-96.5 -118t-129.5 -80t-148.5 -29.5t-140.5 29.5t-107 80t-63.5 118t-9 144.5zM173 354q-8 -60 6 -112.5t45.5 -91.5t79 -61.5t105.5 -22.5t111.5 22.5t96.5 61.5t71.5 91.5t36.5 112.5
q9 60 -5 112.5t-45.5 91.5t-79 61.5t-105.5 22.5t-111.5 -22.5t-96.5 -61.5t-71.5 -91.5t-37.5 -112.5z" />
    <glyph glyph-name="macron" unicode="&#xaf;" 
d="M373 595h-320l11 78h320z" />
    <glyph glyph-name="degree" unicode="&#xb0;" horiz-adv-x="400" 
d="M118 560q5 33 22 62t41.5 51t55.5 34.5t64 12.5t60.5 -12.5t46 -34.5t27 -51t3.5 -62t-21.5 -62t-41 -51t-55.5 -34.5t-64 -12.5t-60.5 12.5t-46 34.5t-27.5 51t-4 62zM196 560q-2 -17 2.5 -32t14 -26t23.5 -17.5t31 -6.5q34 0 61 24t32 58t-15.5 58t-54.5 24
q-17 0 -33 -6.5t-28.5 -17.5t-21 -26t-11.5 -32z" />
    <glyph glyph-name="plusminus" unicode="&#xb1;" horiz-adv-x="666" 
d="M363 574h102l-20 -143h219l-14 -102h-219l-20 -143h-102l20 143h-221l14 102h221zM80 134h542l-14 -102h-542z" />
    <glyph glyph-name="twosuperior" unicode="&#xb2;" horiz-adv-x="385" 
d="M84 384l202 152q15 12 31 26t18 29q2 21 -13 30t-38 9q-27 0 -46 -15.5t-24 -38.5l-95 6q15 71 65 104.5t118 33.5q66 0 105 -32t30 -96t-74 -109l-155 -108v-2h198l-12 -84h-323z" />
    <glyph glyph-name="threesuperior" unicode="&#xb3;" horiz-adv-x="385" 
d="M223 552h32q27 0 49.5 8t26.5 37q2 16 -11 24.5t-37 8.5q-23 0 -41 -11.5t-26 -32.5l-100 20q12 32 30.5 53.5t42 35t51 19.5t56.5 6q30 0 57 -7t46.5 -21t29.5 -35.5t6 -50.5q-5 -35 -29 -60.5t-63 -32.5l-1 -2q41 -5 59.5 -34t13.5 -66q-5 -32 -21.5 -56t-41.5 -40
t-56 -24t-65 -8q-31 0 -57 6.5t-45.5 20.5t-31 36.5t-14.5 54.5l106 22q2 -23 15 -36.5t40 -13.5t47 11t24 37q2 17 -4 26.5t-17.5 14t-27.5 5.5t-32 1h-23z" />
    <glyph glyph-name="acute" unicode="&#xb4;" 
d="M281 708h136l-161 -144h-94z" />
    <glyph glyph-name="mu" unicode="&#xb5;" horiz-adv-x="574" 
d="M255 480l-34 -243q-3 -20 -4.5 -44.5t4 -46t21 -36t47.5 -14.5q30 0 52 10t37.5 27t25 39t12.5 46l37 262h120l-67 -480h-114l10 77h-2q-21 -36 -60 -62.5t-99 -26.5q-33 0 -54 7l-32 -223h-120l100 708h120z" />
    <glyph glyph-name="paragraph" unicode="&#xb6;" horiz-adv-x="600" 
d="M293 338q-49 0 -86.5 13.5t-62.5 38t-35.5 58t-4.5 72.5q7 50 28.5 86t55.5 58.5t78.5 33t96.5 10.5h269l-117 -834h-90l107 762h-107l-107 -762h-90z" />
    <glyph glyph-name="periodcentered" unicode="&#xb7;" horiz-adv-x="296" 
d="M108 291q5 32 31.5 55t59.5 23q32 0 53 -22t17 -54q-5 -32 -31.5 -55t-59.5 -23q-16 0 -29.5 6t-23.5 16t-14.5 24t-2.5 30z" />
    <glyph glyph-name="cedilla" unicode="&#xb8;" 
d="M168 -60q22 0 43.5 -2t37.5 -10.5t24 -25t4 -45.5q-4 -27 -19.5 -46t-37.5 -30t-47.5 -16t-47.5 -5q-57 0 -102 28l28 46q35 -20 79 -20q8 0 18.5 2t20 6.5t16 13t8.5 20.5q3 19 -13.5 27.5t-32.5 8.5q-10 0 -19 -2t-19 -5l-23 25l75 90h58z" />
    <glyph glyph-name="onesuperior" unicode="&#xb9;" horiz-adv-x="385" 
d="M264 606l-95 -75l-46 66l167 117h91l-60 -425h-102z" />
    <glyph glyph-name="ordmasculine" unicode="&#xba;" horiz-adv-x="397" 
d="M256 425q-35 0 -64 10.5t-48.5 30t-28.5 46.5t-4 60q4 33 21 60t42 46.5t57 30.5t67 11t64.5 -11t49.5 -30.5t29 -46.5t5 -60q-5 -33 -22 -60t-42.5 -46.5t-58 -30t-67.5 -10.5zM266 497q21 0 38 7t29 18t19.5 24t9.5 26t-1.5 26.5t-12.5 24.5t-24 18t-36 7t-38 -7
t-29 -18t-19 -24.5t-9 -26.5t1.5 -26t12.5 -24t23.5 -18t35.5 -7z" />
    <glyph glyph-name="guillemotright" unicode="&#xbb;" horiz-adv-x="519" 
d="M411 246l-91 175l83 51l120 -226l-183 -224l-68 51zM188 246l-91 175l83 51l120 -226l-183 -224l-68 51z" />
    <glyph glyph-name="onequarter" unicode="&#xbc;" horiz-adv-x="889" 
d="M253 606l-95 -75l-46 66l167 117h91l-60 -425h-102zM716 85h-198l11 78l225 262h112l-36 -256h53l-12 -84h-53l-11 -85h-102zM747 303l-1 2l-114 -136h96zM704 740l77 -38l-519 -734l-78 38z" />
    <glyph glyph-name="onehalf" unicode="&#xbd;" horiz-adv-x="889" 
d="M256 606l-95 -75l-46 66l167 117h91l-60 -425h-102zM548 95l200 152q15 12 31 26t18 29q3 21 -12.5 30t-38.5 9q-27 0 -45.5 -15.5t-23.5 -38.5l-95 6q14 71 64 104.5t118 33.5q66 0 105 -32t30 -96q-9 -65 -73 -109l-155 -108l-1 -2h198l-11 -84h-322zM706 740l77 -38
l-519 -734l-78 38z" />
    <glyph glyph-name="threequarters" unicode="&#xbe;" horiz-adv-x="889" 
d="M762 335h-2l-143 -176v-2h120zM219 552h32q27 0 49.5 8t26.5 37q2 16 -11 24.5t-37 8.5q-23 0 -41 -11.5t-26 -32.5l-100 20q12 32 30.5 53.5t42 35t51 19.5t56.5 6q30 0 57 -7t46.5 -21t29.5 -35.5t6 -50.5q-5 -35 -29 -60.5t-63 -32.5l-1 -2q41 -5 59.5 -34t13.5 -66
q-5 -32 -21.5 -56t-41.5 -40t-56 -24t-65 -8q-31 0 -57 6.5t-45.5 20.5t-31 36.5t-14.5 54.5l106 22q2 -23 15 -36.5t40 -13.5t47 11t24 37q2 17 -4 26.5t-17.5 14t-27.5 5.5t-32 1h-23zM723 85h-198l11 78l225 262h112l-36 -256h52l-12 -84h-52l-11 -85h-102zM731 740
l77 -38l-519 -734l-78 38z" />
    <glyph glyph-name="questiondown" unicode="&#xbf;" horiz-adv-x="519" 
d="M347 277l-7 -55q-3 -23 -8 -38t-13 -27.5t-20 -24t-30 -27.5l-88 -78q-28 -25 -34 -65q-5 -39 17 -63.5t61 -24.5q42 0 73 28.5t41 69.5l126 -10q-25 -96 -95 -149t-166 -53q-45 0 -81.5 12.5t-61.5 37.5t-36.5 61.5t-4.5 83.5q4 33 16.5 58t30.5 46t40.5 40t47.5 40
q16 13 27.5 23t19.5 20.5t12.5 23.5t7.5 33l5 38h120zM387 416q-5 -32 -31.5 -55t-59.5 -23q-16 0 -29.5 6t-23 16t-14 24t-2.5 30q5 32 31.5 55t59.5 23q16 0 29.5 -6t23 -16t14 -24t2.5 -30z" />
    <glyph glyph-name="Agrave" unicode="&#xc0;" horiz-adv-x="722" 
d="M407 708h109l206 -708h-144l-44 162h-307l-86 -162h-141zM505 270l-68 288l-152 -288h220zM514 756h-94l-121 144h136z" />
    <glyph glyph-name="Aacute" unicode="&#xc1;" horiz-adv-x="722" 
d="M407 708h109l206 -708h-144l-44 162h-307l-86 -162h-141zM505 270l-68 288l-152 -288h220zM539 900h136l-161 -144h-94z" />
    <glyph glyph-name="Acircumflex" unicode="&#xc2;" horiz-adv-x="722" 
d="M407 708h109l206 -708h-144l-44 162h-307l-86 -162h-141zM505 270l-68 288l-152 -288h220zM535 756l-57 90l-81 -90h-112l135 144h135l94 -144h-114z" />
    <glyph glyph-name="Atilde" unicode="&#xc3;" horiz-adv-x="722" 
d="M407 708h109l206 -708h-144l-44 162h-307l-86 -162h-141zM505 270l-68 288l-152 -288h220zM283 760q7 24 18 47t26.5 40.5t36.5 28.5t49 11q20 0 39.5 -6t37.5 -12.5t34 -12.5t28 -6q20 0 32 12.5t20 29.5h66q-8 -24 -18.5 -47t-26 -40.5t-36.5 -28.5t-49 -11
q-20 0 -39.5 6t-37.5 13t-34 13t-28 6q-20 0 -32 -13t-20 -30h-66z" />
    <glyph glyph-name="Adieresis" unicode="&#xc4;" horiz-adv-x="722" 
d="M407 708h109l206 -708h-144l-44 162h-307l-86 -162h-141zM505 270l-68 288l-152 -288h220zM297 828q4 29 28.5 50.5t57.5 21.5t53 -20.5t15 -51.5t-30 -51.5t-58 -20.5t-52 21.5t-14 50.5zM503 828q4 29 28.5 50.5t57.5 21.5t53 -20.5t15 -51.5t-30 -51.5t-58 -20.5
t-52 21.5t-14 50.5z" />
    <glyph glyph-name="Aring" unicode="&#xc5;" horiz-adv-x="722" 
d="M407 708h109l206 -708h-144l-44 162h-307l-86 -162h-141zM505 270l-68 288l-152 -288h220zM583 837q-6 -45 -40 -73.5t-79 -28.5t-71 28t-20 73q3 22 13.5 41t26.5 32.5t36 21.5t43 8q45 0 71.5 -28.5t19.5 -73.5zM535 837q3 23 -11.5 38.5t-37.5 15.5t-42.5 -15.5
t-22.5 -38.5t12 -38.5t38 -15.5t42 15t22 39z" />
    <glyph glyph-name="AE" unicode="&#xc6;" horiz-adv-x="1000" 
d="M555 186h-268l-140 -186h-153l552 708h496l-16 -114h-288l-24 -174h270l-16 -114h-270l-27 -192h300l-16 -114h-426zM570 294l42 300h-15l-229 -300h202z" />
    <glyph glyph-name="Ccedilla" unicode="&#xc7;" horiz-adv-x="685" 
d="M641 542q-34 42 -68 56t-71 14q-55 0 -102.5 -19.5t-84.5 -54t-61 -80.5t-31 -99q-8 -57 2.5 -105t37.5 -83t69 -55t97 -20q43 0 86 20.5t85 65.5l94 -74q-57 -66 -128.5 -95.5t-149.5 -30.5l-35 -42q22 0 43.5 -2t37.5 -10.5t24 -25t4 -45.5q-4 -27 -19.5 -46t-37.5 -30
t-47.5 -16t-47.5 -5q-57 0 -102 28l28 46q35 -20 79 -20q8 0 18.5 2t20 6.5t16 13t8.5 20.5q3 19 -13.5 27.5t-32.5 8.5q-10 0 -19 -2t-19 -5l-23 25l61 75q-71 8 -126 38t-90.5 77.5t-50 111t-3.5 139.5q12 85 49.5 154.5t94 118.5t129 75.5t154.5 26.5q72 0 129.5 -25.5
t102.5 -86.5z" />
    <glyph glyph-name="Egrave" unicode="&#xc8;" horiz-adv-x="611" 
d="M178 708h469l-16 -114h-343l-24 -174h325l-16 -114h-325l-27 -192h361l-16 -114h-487zM459 756h-94l-121 144h136z" />
    <glyph glyph-name="Eacute" unicode="&#xc9;" horiz-adv-x="611" 
d="M178 708h469l-16 -114h-343l-24 -174h325l-16 -114h-325l-27 -192h361l-16 -114h-487zM484 900h136l-161 -144h-94z" />
    <glyph glyph-name="Ecircumflex" unicode="&#xca;" horiz-adv-x="611" 
d="M178 708h469l-16 -114h-343l-24 -174h325l-16 -114h-325l-27 -192h361l-16 -114h-487zM480 756l-57 90l-81 -90h-112l135 144h135l94 -144h-114z" />
    <glyph glyph-name="Edieresis" unicode="&#xcb;" horiz-adv-x="611" 
d="M178 708h469l-16 -114h-343l-24 -174h325l-16 -114h-325l-27 -192h361l-16 -114h-487zM242 828q4 29 28.5 50.5t57.5 21.5t53 -20.5t15 -51.5t-30 -51.5t-58 -20.5t-52 21.5t-14 50.5zM448 828q4 29 28.5 50.5t57.5 21.5t53 -20.5t15 -51.5t-30 -51.5t-58 -20.5t-52 21.5
t-14 50.5z" />
    <glyph glyph-name="Igrave" unicode="&#xcc;" horiz-adv-x="278" 
d="M175 708h126l-99 -708h-126zM292 756h-94l-121 144h136z" />
    <glyph glyph-name="Iacute" unicode="&#xcd;" horiz-adv-x="278" 
d="M175 708h126l-99 -708h-126zM317 900h136l-161 -144h-94z" />
    <glyph glyph-name="Icircumflex" unicode="&#xce;" horiz-adv-x="278" 
d="M175 708h126l-99 -708h-126zM313 756l-57 90l-81 -90h-112l135 144h135l94 -144h-114z" />
    <glyph glyph-name="Idieresis" unicode="&#xcf;" horiz-adv-x="278" 
d="M175 708h126l-99 -708h-126zM75 828q4 29 28.5 50.5t57.5 21.5t53 -20.5t15 -51.5t-30 -51.5t-58 -20.5t-52 21.5t-14 50.5zM281 828q4 29 28.5 50.5t57.5 21.5t53 -20.5t15 -51.5t-30 -51.5t-58 -20.5t-52 21.5t-14 50.5z" />
    <glyph glyph-name="Eth" unicode="&#xd0;" horiz-adv-x="759" 
d="M124 324h-66l12 84h66l42 300h279q70 0 132 -21.5t105.5 -65.5t64.5 -110.5t8 -156.5q-13 -91 -57 -157.5t-104 -110t-129.5 -65t-133.5 -21.5h-264zM315 114q59 0 113 13.5t97 42t72 74t38 110.5q9 64 -4.5 110t-45 74.5t-78 42t-104.5 13.5h-115l-26 -186h216l-12 -84
h-216l-29 -210h94z" />
    <glyph glyph-name="Ntilde" unicode="&#xd1;" horiz-adv-x="796" 
d="M178 708h167l269 -526h2l74 526h126l-99 -708h-160l-274 543h-2l-76 -543h-126zM320 760q7 24 18 47t26.5 40.5t36.5 28.5t49 11q20 0 39.5 -6t37.5 -12.5t34 -12.5t28 -6q20 0 32 12.5t20 29.5h66q-8 -24 -18.5 -47t-26 -40.5t-36.5 -28.5t-49 -11q-20 0 -39.5 6
t-37.5 13t-34 13t-28 6q-20 0 -32 -13t-20 -30h-66z" />
    <glyph glyph-name="Ograve" unicode="&#xd2;" horiz-adv-x="833" 
d="M90 351q12 85 49.5 154.5t94 118.5t129 75.5t154.5 26.5q83 1 148.5 -24.5t108.5 -74.5t61 -118t6 -154q-12 -83 -49 -151t-94 -117t-130 -76.5t-156 -28.5q-82 0 -147 26.5t-107.5 75t-61 116.5t-6.5 151zM223 359q-8 -57 2.5 -105t37.5 -83t69 -55t97 -20t103 20t85 55
t61 83t32 105q7 53 -3.5 99t-37.5 80.5t-69.5 54t-97.5 19.5t-102.5 -19.5t-84.5 -54t-61 -80.5t-31 -99zM570 756h-94l-121 144h136z" />
    <glyph glyph-name="Oacute" unicode="&#xd3;" horiz-adv-x="833" 
d="M90 351q12 85 49.5 154.5t94 118.5t129 75.5t154.5 26.5q83 1 148.5 -24.5t108.5 -74.5t61 -118t6 -154q-12 -83 -49 -151t-94 -117t-130 -76.5t-156 -28.5q-82 0 -147 26.5t-107.5 75t-61 116.5t-6.5 151zM223 359q-8 -57 2.5 -105t37.5 -83t69 -55t97 -20t103 20t85 55
t61 83t32 105q7 53 -3.5 99t-37.5 80.5t-69.5 54t-97.5 19.5t-102.5 -19.5t-84.5 -54t-61 -80.5t-31 -99zM595 900h136l-161 -144h-94z" />
    <glyph glyph-name="Ocircumflex" unicode="&#xd4;" horiz-adv-x="833" 
d="M90 351q12 85 49.5 154.5t94 118.5t129 75.5t154.5 26.5q83 1 148.5 -24.5t108.5 -74.5t61 -118t6 -154q-12 -83 -49 -151t-94 -117t-130 -76.5t-156 -28.5q-82 0 -147 26.5t-107.5 75t-61 116.5t-6.5 151zM223 359q-8 -57 2.5 -105t37.5 -83t69 -55t97 -20t103 20t85 55
t61 83t32 105q7 53 -3.5 99t-37.5 80.5t-69.5 54t-97.5 19.5t-102.5 -19.5t-84.5 -54t-61 -80.5t-31 -99zM591 756l-57 90l-81 -90h-112l135 144h135l94 -144h-114z" />
    <glyph glyph-name="Otilde" unicode="&#xd5;" horiz-adv-x="833" 
d="M90 351q12 85 49.5 154.5t94 118.5t129 75.5t154.5 26.5q83 1 148.5 -24.5t108.5 -74.5t61 -118t6 -154q-12 -83 -49 -151t-94 -117t-130 -76.5t-156 -28.5q-82 0 -147 26.5t-107.5 75t-61 116.5t-6.5 151zM223 359q-8 -57 2.5 -105t37.5 -83t69 -55t97 -20t103 20t85 55
t61 83t32 105q7 53 -3.5 99t-37.5 80.5t-69.5 54t-97.5 19.5t-102.5 -19.5t-84.5 -54t-61 -80.5t-31 -99zM339 760q7 24 18 47t26.5 40.5t36.5 28.5t49 11q20 0 39.5 -6t37.5 -12.5t34 -12.5t28 -6q20 0 32 12.5t20 29.5h66q-8 -24 -18.5 -47t-26 -40.5t-36.5 -28.5t-49 -11
q-20 0 -39.5 6t-37.5 13t-34 13t-28 6q-20 0 -32 -13t-20 -30h-66z" />
    <glyph glyph-name="Odieresis" unicode="&#xd6;" horiz-adv-x="833" 
d="M90 351q12 85 49.5 154.5t94 118.5t129 75.5t154.5 26.5q83 1 148.5 -24.5t108.5 -74.5t61 -118t6 -154q-12 -83 -49 -151t-94 -117t-130 -76.5t-156 -28.5q-82 0 -147 26.5t-107.5 75t-61 116.5t-6.5 151zM223 359q-8 -57 2.5 -105t37.5 -83t69 -55t97 -20t103 20t85 55
t61 83t32 105q7 53 -3.5 99t-37.5 80.5t-69.5 54t-97.5 19.5t-102.5 -19.5t-84.5 -54t-61 -80.5t-31 -99zM353 828q4 29 28.5 50.5t57.5 21.5t53 -20.5t15 -51.5t-30 -51.5t-58 -20.5t-52 21.5t-14 50.5zM559 828q4 29 28.5 50.5t57.5 21.5t53 -20.5t15 -51.5t-30 -51.5
t-58 -20.5t-52 21.5t-14 50.5z" />
    <glyph glyph-name="multiply" unicode="&#xd7;" horiz-adv-x="666" 
d="M385 374l208 182l60 -70l-207 -181l159 -186l-84 -74l-158 181l-206 -181l-64 73l211 182l-158 186l82 71z" />
    <glyph glyph-name="Oslash" unicode="&#xd8;" horiz-adv-x="833" 
d="M559 567q-62 45 -143 45q-55 0 -99.5 -19.5t-76.5 -54t-49.5 -80.5t-17.5 -99q0 -47 12 -88t34 -74zM264 148q31 -25 69 -38.5t83 -13.5q55 0 100 20t77 55t49.5 83t17.5 105q0 97 -54 162zM781 712l-86 -94q47 -49 72 -115.5t25 -147.5q0 -83 -28 -151t-78 -117
t-119 -76.5t-152 -28.5q-69 0 -129 19.5t-107 54.5l-85 -92l-50 43l87 94q-43 48 -66.5 111t-23.5 139q0 85 28 154.5t77.5 118.5t118 75.5t150.5 26.5q67 2 124.5 -15.5t105.5 -49.5l87 94z" />
    <glyph glyph-name="Ugrave" unicode="&#xd9;" horiz-adv-x="722" 
d="M682 260q-9 -64 -38 -115.5t-72.5 -87.5t-98 -55.5t-115.5 -19.5t-110.5 19.5t-82.5 55.5t-47.5 87.5t-5.5 115.5l63 448h126l-62 -444q-4 -26 0 -54.5t19 -52.5t43.5 -39.5t73.5 -15.5t78 15.5t54.5 39.5t33.5 52.5t16 54.5l62 444h126zM514 756h-94l-121 144h136z" />
    <glyph glyph-name="Uacute" unicode="&#xda;" horiz-adv-x="722" 
d="M682 260q-9 -64 -38 -115.5t-72.5 -87.5t-98 -55.5t-115.5 -19.5t-110.5 19.5t-82.5 55.5t-47.5 87.5t-5.5 115.5l63 448h126l-62 -444q-4 -26 0 -54.5t19 -52.5t43.5 -39.5t73.5 -15.5t78 15.5t54.5 39.5t33.5 52.5t16 54.5l62 444h126zM539 900h136l-161 -144h-94z" />
    <glyph glyph-name="Ucircumflex" unicode="&#xdb;" horiz-adv-x="722" 
d="M682 260q-9 -64 -38 -115.5t-72.5 -87.5t-98 -55.5t-115.5 -19.5t-110.5 19.5t-82.5 55.5t-47.5 87.5t-5.5 115.5l63 448h126l-62 -444q-4 -26 0 -54.5t19 -52.5t43.5 -39.5t73.5 -15.5t78 15.5t54.5 39.5t33.5 52.5t16 54.5l62 444h126zM535 756l-57 90l-81 -90h-112
l135 144h135l94 -144h-114z" />
    <glyph glyph-name="Udieresis" unicode="&#xdc;" horiz-adv-x="722" 
d="M682 260q-9 -64 -38 -115.5t-72.5 -87.5t-98 -55.5t-115.5 -19.5t-110.5 19.5t-82.5 55.5t-47.5 87.5t-5.5 115.5l63 448h126l-62 -444q-4 -26 0 -54.5t19 -52.5t43.5 -39.5t73.5 -15.5t78 15.5t54.5 39.5t33.5 52.5t16 54.5l62 444h126zM297 828q4 29 28.5 50.5
t57.5 21.5t53 -20.5t15 -51.5t-30 -51.5t-58 -20.5t-52 21.5t-14 50.5zM503 828q4 29 28.5 50.5t57.5 21.5t53 -20.5t15 -51.5t-30 -51.5t-58 -20.5t-52 21.5t-14 50.5z" />
    <glyph glyph-name="Yacute" unicode="&#xdd;" horiz-adv-x="630" 
d="M294 303l-209 405h158l134 -282l216 282h150l-323 -405l-42 -303h-126zM493 900h136l-161 -144h-94z" />
    <glyph glyph-name="Thorn" unicode="&#xde;" horiz-adv-x="611" 
d="M178 708h126l-19 -137h112q51 0 97 -10t78.5 -33.5t48.5 -63t8 -98.5q-9 -67 -38 -108t-71.5 -63.5t-95 -30.5t-108.5 -8h-90l-21 -156h-126zM318 264q27 0 56.5 2t55 12t44 30t23.5 56q4 33 -7 52.5t-31.5 30t-47 13.5t-51.5 3h-90l-28 -199h76z" />
    <glyph glyph-name="germandbls" unicode="&#xdf;" horiz-adv-x="611" 
d="M127 511q19 136 87 196.5t189 60.5q43 0 81 -11.5t64.5 -35t39.5 -58t6 -80.5q-8 -55 -41 -96t-87 -62v-2q39 -5 66.5 -23t44 -45.5t21.5 -62.5t-1 -74q-7 -51 -30.5 -93.5t-59 -73t-81 -47t-96.5 -16.5q-21 0 -42 2.5t-41 8.5l15 101q12 -6 25 -8t28 -2q31 0 59 9.5
t50 27.5t36 43.5t19 57.5q10 71 -27.5 107t-104.5 36h-14l14 102h8q45 0 78 24.5t39 69.5q6 42 -20 67.5t-68 25.5q-60 0 -92.5 -34.5t-40.5 -86.5l-75 -539h-120z" />
    <glyph glyph-name="agrave" unicode="&#xe0;" horiz-adv-x="537" 
d="M377 66h-3q-32 -41 -74.5 -59.5t-90.5 -18.5q-33 0 -63.5 9t-52.5 27t-33 45t-6 63q8 58 43 91.5t83 50.5t101.5 21t98.5 4h30l1 13q7 45 -21 67.5t-76 22.5q-38 0 -73 -13.5t-62 -36.5l-54 63q45 41 101.5 59t113.5 18q51 0 84.5 -11.5t54 -29.5t29.5 -41.5t11 -47.5
t-0.5 -46.5t-4.5 -39.5l-38 -276h-108zM391 215h-25q-25 0 -56.5 -2t-60 -9.5t-49.5 -22t-25 -40.5q-2 -17 4 -28.5t17 -19.5t25 -11.5t29 -3.5q62 0 96 29.5t41 80.5zM425 564h-94l-121 144h136z" />
    <glyph glyph-name="aacute" unicode="&#xe1;" horiz-adv-x="537" 
d="M377 66h-3q-32 -41 -74.5 -59.5t-90.5 -18.5q-33 0 -63.5 9t-52.5 27t-33 45t-6 63q8 58 43 91.5t83 50.5t101.5 21t98.5 4h30l1 13q7 45 -21 67.5t-76 22.5q-38 0 -73 -13.5t-62 -36.5l-54 63q45 41 101.5 59t113.5 18q51 0 84.5 -11.5t54 -29.5t29.5 -41.5t11 -47.5
t-0.5 -46.5t-4.5 -39.5l-38 -276h-108zM391 215h-25q-25 0 -56.5 -2t-60 -9.5t-49.5 -22t-25 -40.5q-2 -17 4 -28.5t17 -19.5t25 -11.5t29 -3.5q62 0 96 29.5t41 80.5zM420 708h136l-161 -144h-94z" />
    <glyph glyph-name="acircumflex" unicode="&#xe2;" horiz-adv-x="537" 
d="M377 66h-3q-32 -41 -74.5 -59.5t-90.5 -18.5q-33 0 -63.5 9t-52.5 27t-33 45t-6 63q8 58 43 91.5t83 50.5t101.5 21t98.5 4h30l1 13q7 45 -21 67.5t-76 22.5q-38 0 -73 -13.5t-62 -36.5l-54 63q45 41 101.5 59t113.5 18q51 0 84.5 -11.5t54 -29.5t29.5 -41.5t11 -47.5
t-0.5 -46.5t-4.5 -39.5l-38 -276h-108zM391 215h-25q-25 0 -56.5 -2t-60 -9.5t-49.5 -22t-25 -40.5q-2 -17 4 -28.5t17 -19.5t25 -11.5t29 -3.5q62 0 96 29.5t41 80.5zM416 564l-57 90l-81 -90h-112l135 144h135l94 -144h-114z" />
    <glyph glyph-name="atilde" unicode="&#xe3;" horiz-adv-x="537" 
d="M377 66h-3q-32 -41 -74.5 -59.5t-90.5 -18.5q-33 0 -63.5 9t-52.5 27t-33 45t-6 63q8 58 43 91.5t83 50.5t101.5 21t98.5 4h30l1 13q7 45 -21 67.5t-76 22.5q-38 0 -73 -13.5t-62 -36.5l-54 63q45 41 101.5 59t113.5 18q51 0 84.5 -11.5t54 -29.5t29.5 -41.5t11 -47.5
t-0.5 -46.5t-4.5 -39.5l-38 -276h-108zM391 215h-25q-25 0 -56.5 -2t-60 -9.5t-49.5 -22t-25 -40.5q-2 -17 4 -28.5t17 -19.5t25 -11.5t29 -3.5q62 0 96 29.5t41 80.5zM164 568q7 24 18 47t26.5 40.5t36.5 28.5t49 11q20 0 40 -6t38 -12.5t33.5 -12.5t27.5 -6q20 0 32 12.5
t20 29.5h66q-8 -24 -18.5 -47t-26 -40.5t-36.5 -28.5t-49 -11q-20 0 -40 6t-38 13t-33.5 13t-27.5 6q-20 0 -32 -13t-20 -30h-66z" />
    <glyph glyph-name="adieresis" unicode="&#xe4;" horiz-adv-x="537" 
d="M377 66h-3q-32 -41 -74.5 -59.5t-90.5 -18.5q-33 0 -63.5 9t-52.5 27t-33 45t-6 63q8 58 43 91.5t83 50.5t101.5 21t98.5 4h30l1 13q7 45 -21 67.5t-76 22.5q-38 0 -73 -13.5t-62 -36.5l-54 63q45 41 101.5 59t113.5 18q51 0 84.5 -11.5t54 -29.5t29.5 -41.5t11 -47.5
t-0.5 -46.5t-4.5 -39.5l-38 -276h-108zM391 215h-25q-25 0 -56.5 -2t-60 -9.5t-49.5 -22t-25 -40.5q-2 -17 4 -28.5t17 -19.5t25 -11.5t29 -3.5q62 0 96 29.5t41 80.5zM198 636q4 29 28.5 50.5t57.5 21.5t53 -20.5t15 -51.5t-30 -51.5t-58 -20.5t-51.5 21.5t-14.5 50.5z
M404 636q4 29 28.5 50.5t57.5 21.5t53 -20.5t15 -51.5t-30 -51.5t-58 -20.5t-51.5 21.5t-14.5 50.5z" />
    <glyph glyph-name="aring" unicode="&#xe5;" horiz-adv-x="537" 
d="M377 66h-3q-32 -41 -74.5 -59.5t-90.5 -18.5q-33 0 -63.5 9t-52.5 27t-33 45t-6 63q8 58 43 91.5t83 50.5t101.5 21t98.5 4h30l1 13q7 45 -21 67.5t-76 22.5q-38 0 -73 -13.5t-62 -36.5l-54 63q45 41 101.5 59t113.5 18q51 0 84.5 -11.5t54 -29.5t29.5 -41.5t11 -47.5
t-0.5 -46.5t-4.5 -39.5l-38 -276h-108zM391 215h-25q-25 0 -56.5 -2t-60 -9.5t-49.5 -22t-25 -40.5q-2 -17 4 -28.5t17 -19.5t25 -11.5t29 -3.5q62 0 96 29.5t41 80.5zM466 655q-7 -45 -41 -73.5t-79 -28.5t-71 28.5t-20 72.5q7 44 41 73.5t79 29.5t71 -28.5t20 -73.5z
M418 655q3 23 -12 38.5t-38 15.5t-42 -15.5t-22 -38.5q-4 -23 11 -38.5t38 -15.5t42 15t23 39z" />
    <glyph glyph-name="ae" unicode="&#xe6;" horiz-adv-x="852" 
d="M844 204h-350q-5 -29 2.5 -52.5t22.5 -40t35 -25t39 -8.5q45 0 78 18.5t60 46.5l74 -59q-47 -51 -102.5 -73.5t-121.5 -22.5q-61 0 -104 25t-63 61q-38 -49 -91.5 -67t-113.5 -18q-32 0 -62 8.5t-52.5 26t-34 44.5t-6.5 65q12 85 77.5 120t176.5 35h98q8 53 -15 84
t-77 31q-38 0 -73 -13.5t-62 -36.5l-54 63q46 41 102 59t113 18q42 2 83.5 -15.5t65.5 -55.5q33 32 73 51.5t92 18.5q58 0 99 -20t64.5 -54.5t31 -81t0.5 -99.5zM250 79q30 0 55 10t43.5 25.5t29.5 36t14 41.5l2 12h-60q-25 0 -51.5 -2.5t-49.5 -9t-39 -19t-19 -32.5
q-2 -17 5 -29t18.5 -19.5t25.5 -10.5t26 -3zM740 288q5 51 -21 82.5t-79 31.5q-50 0 -86 -32t-46 -82h232z" />
    <glyph glyph-name="ccedilla" unicode="&#xe7;" horiz-adv-x="482" 
d="M443 336q-18 22 -39.5 35t-45.5 13q-33 0 -60.5 -12t-48.5 -32t-34.5 -46t-17.5 -54t2 -54t21.5 -46t40 -32t57.5 -12q28 0 53.5 11.5t45.5 33.5l68 -86q-21 -18 -45.5 -30.5t-49.5 -21t-47 -12t-38 -3.5l-41 -48q22 0 43.5 -2t37.5 -10.5t24 -25t4 -45.5
q-4 -27 -19.5 -46t-37.5 -30t-47.5 -16t-47.5 -5q-57 0 -102 28l28 46q35 -20 79 -20q8 0 18.5 2t20 6.5t16 13t8.5 20.5q3 19 -13.5 27.5t-32.5 8.5q-10 0 -19 -2t-19 -5l-23 25l69 83q-44 8 -79 29t-58.5 53t-33.5 73.5t-3 91.5q8 57 35 103.5t67 79.5t90.5 51t104.5 18
q46 0 90 -17.5t73 -55.5z" />
    <glyph glyph-name="egrave" unicode="&#xe8;" horiz-adv-x="574" 
d="M191 198q-1 -27 7.5 -48t23.5 -35.5t36 -22.5t46 -8q45 0 78.5 18.5t59.5 46.5l77 -65q-49 -52 -104 -74t-112 -22q-54 0 -99.5 18t-76 51t-44.5 79.5t-6 103.5t35 103.5t67 79.5t90.5 51t104.5 18q101 0 153 -67.5t35 -193.5l-5 -33h-366zM450 288q7 53 -21 83.5
t-85 30.5q-54 0 -90 -31t-50 -83h246zM413 564h-94l-121 144h136z" />
    <glyph glyph-name="eacute" unicode="&#xe9;" horiz-adv-x="574" 
d="M191 198q-1 -27 7.5 -48t23.5 -35.5t36 -22.5t46 -8q45 0 78.5 18.5t59.5 46.5l77 -65q-49 -52 -104 -74t-112 -22q-54 0 -99.5 18t-76 51t-44.5 79.5t-6 103.5t35 103.5t67 79.5t90.5 51t104.5 18q101 0 153 -67.5t35 -193.5l-5 -33h-366zM450 288q7 53 -21 83.5
t-85 30.5q-54 0 -90 -31t-50 -83h246zM438 708h136l-161 -144h-94z" />
    <glyph glyph-name="ecircumflex" unicode="&#xea;" horiz-adv-x="574" 
d="M191 198q-1 -27 7.5 -48t23.5 -35.5t36 -22.5t46 -8q45 0 78.5 18.5t59.5 46.5l77 -65q-49 -52 -104 -74t-112 -22q-54 0 -99.5 18t-76 51t-44.5 79.5t-6 103.5t35 103.5t67 79.5t90.5 51t104.5 18q101 0 153 -67.5t35 -193.5l-5 -33h-366zM450 288q7 53 -21 83.5
t-85 30.5q-54 0 -90 -31t-50 -83h246zM434 564l-57 90l-81 -90h-112l135 144h135l94 -144h-114z" />
    <glyph glyph-name="edieresis" unicode="&#xeb;" horiz-adv-x="574" 
d="M191 198q-1 -27 7.5 -48t23.5 -35.5t36 -22.5t46 -8q45 0 78.5 18.5t59.5 46.5l77 -65q-49 -52 -104 -74t-112 -22q-54 0 -99.5 18t-76 51t-44.5 79.5t-6 103.5t35 103.5t67 79.5t90.5 51t104.5 18q101 0 153 -67.5t35 -193.5l-5 -33h-366zM450 288q7 53 -21 83.5
t-85 30.5q-54 0 -90 -31t-50 -83h246zM196 636q4 29 28.5 50.5t57.5 21.5t53 -20.5t15 -51.5t-30 -51.5t-58 -20.5t-51.5 21.5t-14.5 50.5zM402 636q4 29 28.5 50.5t57.5 21.5t53 -20.5t15 -51.5t-30 -51.5t-58 -20.5t-51.5 21.5t-14.5 50.5z" />
    <glyph glyph-name="igrave" unicode="&#xec;" 
d="M137 480h120l-67 -480h-120zM268 564h-94l-121 144h136z" />
    <glyph glyph-name="iacute" unicode="&#xed;" 
d="M137 480h120l-67 -480h-120zM271 708h136l-161 -144h-94z" />
    <glyph glyph-name="icircumflex" unicode="&#xee;" 
d="M137 480h120l-67 -480h-120zM277 564l-57 90l-81 -90h-112l135 144h135l94 -144h-114z" />
    <glyph glyph-name="idieresis" unicode="&#xef;" 
d="M137 480h120l-67 -480h-120zM39 636q4 29 28.5 50.5t57.5 21.5t53 -20.5t15 -51.5t-30 -51.5t-58 -20.5t-51.5 21.5t-14.5 50.5zM245 636q4 29 28.5 50.5t57.5 21.5t53 -20.5t15 -51.5t-30 -51.5t-58 -20.5t-51.5 21.5t-14.5 50.5z" />
    <glyph glyph-name="eth" unicode="&#xf0;" horiz-adv-x="610" 
d="M606 712l-125 -54q30 -39 56.5 -82.5t44 -91t24 -99.5t-1.5 -108q-9 -63 -32.5 -116t-62 -91.5t-90.5 -60t-116 -21.5q-54 0 -99.5 18t-76 51t-44.5 79.5t-6 103.5t35 103.5t66 79.5t87 51t99 18q33 0 61 -8.5t47 -29.5l3 2q-20 42 -47.5 79t-57.5 73l-3 3l-113 -49
l-52 57l115 50q-6 7 -15 15.5t-18.5 17.5t-19 17.5t-15.5 14.5l108 58q24 -21 44 -42.5t30 -32.5l118 51zM318 96q33 0 61 12t49 32t34 46t17 54t-2 54t-21.5 46t-40 32t-57.5 12t-60.5 -12t-48.5 -32t-34.5 -46t-17.5 -54t2 -54t21.5 -46t40 -32t57.5 -12z" />
    <glyph glyph-name="ntilde" unicode="&#xf1;" horiz-adv-x="574" 
d="M135 480h114l-11 -77h2q22 36 61 62.5t99 26.5q48 0 79.5 -16t48.5 -42t21 -60t-1 -71l-42 -303h-120l34 243q3 20 4 44.5t-4.5 46t-21.5 36t-47 14.5q-30 0 -52 -10t-37.5 -27t-25 -39t-12.5 -46l-36 -262h-120zM182 568q7 24 18 47t26.5 40.5t36.5 28.5t49 11
q20 0 40 -6t38 -12.5t33.5 -12.5t27.5 -6q20 0 32 12.5t20 29.5h66q-8 -24 -18.5 -47t-26 -40.5t-36.5 -28.5t-49 -11q-20 0 -40 6t-38 13t-33.5 13t-27.5 6q-20 0 -32 -13t-20 -30h-66z" />
    <glyph glyph-name="ograve" unicode="&#xf2;" horiz-adv-x="610" 
d="M77 240q8 57 35 103.5t67 79.5t90.5 51t104.5 18t99 -18t75.5 -51t44.5 -79.5t6 -103.5t-35 -103.5t-66.5 -79.5t-90 -51t-104.5 -18t-99.5 18t-76 51t-44.5 79.5t-6 103.5zM197 240q-4 -28 2 -54t21.5 -46t40 -32t57.5 -12t61 12t49 32t34 46t17 54t-2 54t-21.5 46
t-40 32t-57.5 12t-60.5 -12t-48.5 -32t-34.5 -46t-17.5 -54zM431 564h-94l-121 144h136z" />
    <glyph glyph-name="oacute" unicode="&#xf3;" horiz-adv-x="610" 
d="M77 240q8 57 35 103.5t67 79.5t90.5 51t104.5 18t99 -18t75.5 -51t44.5 -79.5t6 -103.5t-35 -103.5t-66.5 -79.5t-90 -51t-104.5 -18t-99.5 18t-76 51t-44.5 79.5t-6 103.5zM197 240q-4 -28 2 -54t21.5 -46t40 -32t57.5 -12t61 12t49 32t34 46t17 54t-2 54t-21.5 46
t-40 32t-57.5 12t-60.5 -12t-48.5 -32t-34.5 -46t-17.5 -54zM456 708h136l-161 -144h-94z" />
    <glyph glyph-name="ocircumflex" unicode="&#xf4;" horiz-adv-x="610" 
d="M77 240q8 57 35 103.5t67 79.5t90.5 51t104.5 18t99 -18t75.5 -51t44.5 -79.5t6 -103.5t-35 -103.5t-66.5 -79.5t-90 -51t-104.5 -18t-99.5 18t-76 51t-44.5 79.5t-6 103.5zM197 240q-4 -28 2 -54t21.5 -46t40 -32t57.5 -12t61 12t49 32t34 46t17 54t-2 54t-21.5 46
t-40 32t-57.5 12t-60.5 -12t-48.5 -32t-34.5 -46t-17.5 -54zM452 564l-57 90l-81 -90h-112l135 144h135l94 -144h-114z" />
    <glyph glyph-name="otilde" unicode="&#xf5;" horiz-adv-x="610" 
d="M77 240q8 57 35 103.5t67 79.5t90.5 51t104.5 18t99 -18t75.5 -51t44.5 -79.5t6 -103.5t-35 -103.5t-66.5 -79.5t-90 -51t-104.5 -18t-99.5 18t-76 51t-44.5 79.5t-6 103.5zM197 240q-4 -28 2 -54t21.5 -46t40 -32t57.5 -12t61 12t49 32t34 46t17 54t-2 54t-21.5 46
t-40 32t-57.5 12t-60.5 -12t-48.5 -32t-34.5 -46t-17.5 -54zM200 568q7 24 18 47t26.5 40.5t36.5 28.5t49 11q20 0 40 -6t38 -12.5t33.5 -12.5t27.5 -6q20 0 32 12.5t20 29.5h66q-8 -24 -18.5 -47t-26 -40.5t-36.5 -28.5t-49 -11q-20 0 -40 6t-38 13t-33.5 13t-27.5 6
q-20 0 -32 -13t-20 -30h-66z" />
    <glyph glyph-name="odieresis" unicode="&#xf6;" horiz-adv-x="610" 
d="M77 240q8 57 35 103.5t67 79.5t90.5 51t104.5 18t99 -18t75.5 -51t44.5 -79.5t6 -103.5t-35 -103.5t-66.5 -79.5t-90 -51t-104.5 -18t-99.5 18t-76 51t-44.5 79.5t-6 103.5zM197 240q-4 -28 2 -54t21.5 -46t40 -32t57.5 -12t61 12t49 32t34 46t17 54t-2 54t-21.5 46
t-40 32t-57.5 12t-60.5 -12t-48.5 -32t-34.5 -46t-17.5 -54zM214 636q4 29 28.5 50.5t57.5 21.5t53 -20.5t15 -51.5t-30 -51.5t-58 -20.5t-51.5 21.5t-14.5 50.5zM420 636q4 29 28.5 50.5t57.5 21.5t53 -20.5t15 -51.5t-30 -51.5t-58 -20.5t-51.5 21.5t-14.5 50.5z" />
    <glyph glyph-name="divide" unicode="&#xf7;" horiz-adv-x="666" 
d="M653 354l-14 -102h-542l14 102h542zM325 483q5 31 30 53t56 22t50 -22t14 -53q-4 -31 -29 -53t-56 -22t-50 22t-15 53zM275 123q5 31 29.5 53t55.5 22t50.5 -22t14.5 -53t-30 -53t-56 -22t-50 22t-14 53z" />
    <glyph glyph-name="oslash" unicode="&#xf8;" horiz-adv-x="610" 
d="M434 360q-30 24 -76 24q-33 0 -60.5 -12t-48.5 -32t-34.5 -46t-17.5 -54q-6 -45 12 -80zM243 119q29 -23 75 -23q33 0 61 12t49 32t34 46t17 54q6 44 -10 78zM645 474l-80 -71q22 -32 31.5 -73t2.5 -90q-8 -57 -35 -103.5t-66.5 -79.5t-90 -51t-104.5 -18q-46 0 -84.5 13
t-67.5 36l-80 -71l-35 41l77 68q-23 32 -33 73.5t-3 91.5q8 57 35 103.5t67 79.5t90.5 51t104.5 18q46 0 85 -13t69 -37l81 72z" />
    <glyph glyph-name="ugrave" unicode="&#xf9;" horiz-adv-x="574" 
d="M506 0h-114l10 77h-2q-21 -36 -60 -62.5t-99 -26.5q-48 0 -79.5 15.5t-48.5 42t-21.5 60.5t0.5 71l43 303h120l-34 -243q-3 -20 -4.5 -44.5t4 -46t21 -36t47.5 -14.5q30 0 52 10t37.5 27t25 39t12.5 46l37 262h120zM413 564h-94l-121 144h136z" />
    <glyph glyph-name="uacute" unicode="&#xfa;" horiz-adv-x="574" 
d="M506 0h-114l10 77h-2q-21 -36 -60 -62.5t-99 -26.5q-48 0 -79.5 15.5t-48.5 42t-21.5 60.5t0.5 71l43 303h120l-34 -243q-3 -20 -4.5 -44.5t4 -46t21 -36t47.5 -14.5q30 0 52 10t37.5 27t25 39t12.5 46l37 262h120zM438 708h136l-161 -144h-94z" />
    <glyph glyph-name="ucircumflex" unicode="&#xfb;" horiz-adv-x="574" 
d="M506 0h-114l10 77h-2q-21 -36 -60 -62.5t-99 -26.5q-48 0 -79.5 15.5t-48.5 42t-21.5 60.5t0.5 71l43 303h120l-34 -243q-3 -20 -4.5 -44.5t4 -46t21 -36t47.5 -14.5q30 0 52 10t37.5 27t25 39t12.5 46l37 262h120zM434 564l-57 90l-81 -90h-112l135 144h135l94 -144
h-114z" />
    <glyph glyph-name="udieresis" unicode="&#xfc;" horiz-adv-x="574" 
d="M506 0h-114l10 77h-2q-21 -36 -60 -62.5t-99 -26.5q-48 0 -79.5 15.5t-48.5 42t-21.5 60.5t0.5 71l43 303h120l-34 -243q-3 -20 -4.5 -44.5t4 -46t21 -36t47.5 -14.5q30 0 52 10t37.5 27t25 39t12.5 46l37 262h120zM196 636q4 29 28.5 50.5t57.5 21.5t53 -20.5t15 -51.5
t-30 -51.5t-58 -20.5t-51.5 21.5t-14.5 50.5zM402 636q4 29 28.5 50.5t57.5 21.5t53 -20.5t15 -51.5t-30 -51.5t-58 -20.5t-51.5 21.5t-14.5 50.5z" />
    <glyph glyph-name="yacute" unicode="&#xfd;" horiz-adv-x="519" 
d="M70 480h132l87 -333h2l167 333h125l-309 -583q-18 -34 -37 -59.5t-42.5 -43t-53 -26t-69.5 -8.5q-48 0 -90 12l30 108q14 -5 28.5 -8.5t30.5 -3.5q22 0 37.5 4t27 12.5t21 22t19.5 32.5l31 57zM411 708h136l-161 -144h-94z" />
    <glyph glyph-name="thorn" unicode="&#xfe;" horiz-adv-x="630" 
d="M174 756h120l-48 -338h2q27 36 73 55t97 19q55 0 96.5 -19.5t67 -53.5t35 -80t2.5 -99q-8 -53 -31 -99t-58.5 -80t-81 -53.5t-96.5 -19.5q-34 0 -59 7t-43.5 18t-30.5 23.5t-20 24.5h-3l-41 -289h-120zM499 240q4 28 -2 54t-21.5 46t-40 32t-57.5 12t-60.5 -12t-48.5 -32
t-34.5 -46t-17.5 -54t2 -54t21.5 -46t40 -32t57.5 -12t61 12t49 32t34 46t17 54z" />
    <glyph glyph-name="ydieresis" unicode="&#xff;" horiz-adv-x="519" 
d="M70 480h132l87 -333h2l167 333h125l-309 -583q-18 -34 -37 -59.5t-42.5 -43t-53 -26t-69.5 -8.5q-48 0 -90 12l30 108q14 -5 28.5 -8.5t30.5 -3.5q22 0 37.5 4t27 12.5t21 22t19.5 32.5l31 57zM169 636q4 29 28.5 50.5t57.5 21.5t53 -20.5t15 -51.5t-30 -51.5t-58 -20.5
t-51.5 21.5t-14.5 50.5zM375 636q4 29 28.5 50.5t57.5 21.5t53 -20.5t15 -51.5t-30 -51.5t-58 -20.5t-51.5 21.5t-14.5 50.5z" />
    <glyph glyph-name="Amacron" unicode="&#x100;" horiz-adv-x="722" 
d="M407 708h109l206 -708h-144l-44 162h-307l-86 -162h-141zM505 270l-68 288l-152 -288h220zM628 787h-320l11 78h320z" />
    <glyph glyph-name="amacron" unicode="&#x101;" horiz-adv-x="537" 
d="M377 66h-3q-32 -41 -74.5 -59.5t-90.5 -18.5q-33 0 -63.5 9t-52.5 27t-33 45t-6 63q8 58 43 91.5t83 50.5t101.5 21t98.5 4h30l1 13q7 45 -21 67.5t-76 22.5q-38 0 -73 -13.5t-62 -36.5l-54 63q45 41 101.5 59t113.5 18q51 0 84.5 -11.5t54 -29.5t29.5 -41.5t11 -47.5
t-0.5 -46.5t-4.5 -39.5l-38 -276h-108zM391 215h-25q-25 0 -56.5 -2t-60 -9.5t-49.5 -22t-25 -40.5q-2 -17 4 -28.5t17 -19.5t25 -11.5t29 -3.5q62 0 96 29.5t41 80.5zM527 595h-320l11 78h320z" />
    <glyph glyph-name="Abreve" unicode="&#x102;" horiz-adv-x="722" 
d="M407 708h109l206 -708h-144l-44 162h-307l-86 -162h-141zM505 270l-68 288l-152 -288h220zM381 900q1 -38 28.5 -52t65.5 -14q43 0 69.5 12t43.5 54h66q-19 -75 -69 -109.5t-122 -34.5t-113 34.5t-36 109.5h67z" />
    <glyph glyph-name="abreve" unicode="&#x103;" horiz-adv-x="537" 
d="M377 66h-3q-32 -41 -74.5 -59.5t-90.5 -18.5q-33 0 -63.5 9t-52.5 27t-33 45t-6 63q8 58 43 91.5t83 50.5t101.5 21t98.5 4h30l1 13q7 45 -21 67.5t-76 22.5q-38 0 -73 -13.5t-62 -36.5l-54 63q45 41 101.5 59t113.5 18q51 0 84.5 -11.5t54 -29.5t29.5 -41.5t11 -47.5
t-0.5 -46.5t-4.5 -39.5l-38 -276h-108zM391 215h-25q-25 0 -56.5 -2t-60 -9.5t-49.5 -22t-25 -40.5q-2 -17 4 -28.5t17 -19.5t25 -11.5t29 -3.5q62 0 96 29.5t41 80.5zM280 708q2 -38 29 -52t65 -14q43 0 69.5 12t43.5 54h66q-18 -74 -68.5 -109t-122.5 -35t-113.5 34.5
t-35.5 109.5h67z" />
    <glyph glyph-name="Aogonek" unicode="&#x104;" horiz-adv-x="722" 
d="M661 -196q-23 -17 -50 -27.5t-55 -10.5q-20 0 -38 5.5t-30.5 17t-19 28t-3.5 38.5q3 20 14.5 40.5t27.5 39.5t34.5 35.5t36.5 29.5l-44 162h-307l-86 -162h-141l407 708h109l206 -708h-82q-13 -11 -28.5 -25.5t-29.5 -31t-24 -33.5t-12 -32q-2 -19 9.5 -32.5t30.5 -13.5
q14 0 29 6t28 15zM505 270l-68 288l-152 -288h220z" />
    <glyph glyph-name="aogonek" unicode="&#x105;" horiz-adv-x="537" 
d="M377 66h-3q-32 -42 -74.5 -60t-90.5 -18q-33 0 -63 9t-52 27t-33.5 45t-6.5 63q8 58 43 91.5t83 50.5t101.5 21t98.5 4h30l1 13q7 45 -21 67.5t-76 22.5q-38 0 -73 -13.5t-62 -36.5l-54 63q46 42 102 59.5t113 17.5q51 0 84.5 -11.5t54 -29.5t29.5 -41.5t11 -47.5
t-0.5 -46.5t-4.5 -39.5l-38 -276h-46q-13 -11 -28.5 -25.5t-29.5 -31t-24 -33.5t-12 -32q-2 -19 9.5 -32.5t30.5 -13.5q14 0 29 6t28 15l18 -49q-23 -17 -50 -27.5t-55 -10.5q-20 0 -38 5.5t-30.5 17t-19 28t-3.5 38.5q3 20 14.5 40.5t27.5 39.5t34.5 35.5t36.5 29.5z
M391 215h-25q-25 0 -56.5 -2t-60 -9.5t-49.5 -22.5t-25 -40q-2 -17 3.5 -28.5t16.5 -19.5t25.5 -11.5t29.5 -3.5q63 0 96 29.5t41 80.5z" />
    <glyph glyph-name="Cacute" unicode="&#x106;" horiz-adv-x="685" 
d="M641 542q-34 42 -68 56t-71 14q-55 0 -102.5 -19.5t-84.5 -54t-61 -80.5t-31 -99q-8 -57 2.5 -105t37.5 -83t69 -55t97 -20q43 0 86 20.5t85 65.5l94 -74q-58 -66 -131 -96t-151 -30q-82 0 -147 26.5t-107.5 75t-61 116.5t-6.5 151q12 85 49.5 154.5t94 118.5t129 75.5
t154.5 26.5q72 0 129.5 -25.5t102.5 -86.5zM566 900h136l-161 -144h-94z" />
    <glyph glyph-name="cacute" unicode="&#x107;" horiz-adv-x="482" 
d="M443 336q-18 22 -39.5 35t-45.5 13q-33 0 -60.5 -12t-48.5 -32t-34.5 -46t-17.5 -54t2 -54t21.5 -46t40 -32t57.5 -12q28 0 53.5 11.5t45.5 33.5l68 -86q-21 -18 -46 -31t-50 -21t-47.5 -11.5t-38.5 -3.5q-54 0 -99.5 18t-76 51t-44.5 79.5t-6 103.5t35 103.5t67 79.5
t90.5 51t104.5 18q46 0 90 -17.5t73 -55.5zM440 708h136l-161 -144h-94z" />
    <glyph glyph-name="Ccircumflex" unicode="&#x108;" horiz-adv-x="685" 
d="M641 542q-34 42 -68 56t-71 14q-55 0 -102.5 -19.5t-84.5 -54t-61 -80.5t-31 -99q-8 -57 2.5 -105t37.5 -83t69 -55t97 -20q43 0 86 20.5t85 65.5l94 -74q-58 -66 -131 -96t-151 -30q-82 0 -147 26.5t-107.5 75t-61 116.5t-6.5 151q12 85 49.5 154.5t94 118.5t129 75.5
t154.5 26.5q72 0 129.5 -25.5t102.5 -86.5zM586 756l-57 90l-81 -90h-112l135 144h135l94 -144h-114z" />
    <glyph glyph-name="ccircumflex" unicode="&#x109;" horiz-adv-x="482" 
d="M443 336q-18 22 -39.5 35t-45.5 13q-33 0 -60.5 -12t-48.5 -32t-34.5 -46t-17.5 -54t2 -54t21.5 -46t40 -32t57.5 -12q28 0 53.5 11.5t45.5 33.5l68 -86q-21 -18 -46 -31t-50 -21t-47.5 -11.5t-38.5 -3.5q-54 0 -99.5 18t-76 51t-44.5 79.5t-6 103.5t35 103.5t67 79.5
t90.5 51t104.5 18q46 0 90 -17.5t73 -55.5zM441 564l-57 90l-81 -90h-112l135 144h135l94 -144h-114z" />
    <glyph glyph-name="Cdotaccent" unicode="&#x10a;" horiz-adv-x="685" 
d="M641 542q-34 42 -68 56t-71 14q-55 0 -102.5 -19.5t-84.5 -54t-61 -80.5t-31 -99q-8 -57 2.5 -105t37.5 -83t69 -55t97 -20q43 0 86 20.5t85 65.5l94 -74q-58 -66 -131 -96t-151 -30q-82 0 -147 26.5t-107.5 75t-61 116.5t-6.5 151q12 85 49.5 154.5t94 118.5t129 75.5
t154.5 26.5q72 0 129.5 -25.5t102.5 -86.5zM451 828q4 29 28.5 50.5t57.5 21.5t53 -20.5t15 -51.5t-30 -51.5t-58 -20.5t-52 21.5t-14 50.5z" />
    <glyph glyph-name="cdotaccent" unicode="&#x10b;" horiz-adv-x="482" 
d="M443 336q-18 22 -39.5 35t-45.5 13q-33 0 -60.5 -12t-48.5 -32t-34.5 -46t-17.5 -54t2 -54t21.5 -46t40 -32t57.5 -12q28 0 53.5 11.5t45.5 33.5l68 -86q-21 -18 -46 -31t-50 -21t-47.5 -11.5t-38.5 -3.5q-54 0 -99.5 18t-76 51t-44.5 79.5t-6 103.5t35 103.5t67 79.5
t90.5 51t104.5 18q46 0 90 -17.5t73 -55.5zM306 636q4 29 28.5 50.5t57.5 21.5t53 -20.5t15 -51.5t-30 -51.5t-58 -20.5t-51.5 21.5t-14.5 50.5z" />
    <glyph glyph-name="Ccaron" unicode="&#x10c;" horiz-adv-x="685" 
d="M641 542q-34 42 -68 56t-71 14q-55 0 -102.5 -19.5t-84.5 -54t-61 -80.5t-31 -99q-8 -57 2.5 -105t37.5 -83t69 -55t97 -20q43 0 86 20.5t85 65.5l94 -74q-58 -66 -131 -96t-151 -30q-82 0 -147 26.5t-107.5 75t-61 116.5t-6.5 151q12 85 49.5 154.5t94 118.5t129 75.5
t154.5 26.5q72 0 129.5 -25.5t102.5 -86.5zM471 900l56 -90l82 90h110l-135 -144h-133l-94 144h114z" />
    <glyph glyph-name="ccaron" unicode="&#x10d;" horiz-adv-x="482" 
d="M443 336q-18 22 -39.5 35t-45.5 13q-33 0 -60.5 -12t-48.5 -32t-34.5 -46t-17.5 -54t2 -54t21.5 -46t40 -32t57.5 -12q28 0 53.5 11.5t45.5 33.5l68 -86q-21 -18 -46 -31t-50 -21t-47.5 -11.5t-38.5 -3.5q-54 0 -99.5 18t-76 51t-44.5 79.5t-6 103.5t35 103.5t67 79.5
t90.5 51t104.5 18q46 0 90 -17.5t73 -55.5zM325 708l56 -90l82 90h110l-135 -144h-133l-94 144h114z" />
    <glyph glyph-name="Dcaron" unicode="&#x10e;" horiz-adv-x="759" 
d="M178 708h279q70 0 132 -21.5t105.5 -65.5t64.5 -110.5t8 -156.5q-13 -91 -57 -157.5t-104 -110t-129.5 -65t-133.5 -21.5h-264zM315 114q59 0 113 13.5t97 42t72 74t38 110.5q9 64 -4.5 110t-45 74.5t-78 42t-104.5 13.5h-115l-67 -480h94zM392 900l56 -90l82 90h110
l-135 -144h-133l-94 144h114z" />
    <glyph glyph-name="dcaron" unicode="&#x10f;" horiz-adv-x="630" 
d="M458 72h-2q-33 -44 -79.5 -64t-97.5 -20q-56 0 -97 19.5t-67 53.5t-36 80t-2 99q7 53 31 99t59.5 80t81 53.5t96.5 19.5q34 0 59 -7t43 -18t30 -23.5t20 -24.5h3l48 337h120l-106 -756h-114zM197 240q-4 -28 2 -54t21.5 -46t40 -32t57.5 -12t61 12t49 32t34 46t17 54
t-2 54t-21.5 46t-40 32t-57.5 12t-60.5 -12t-48.5 -32t-34.5 -46t-17.5 -54zM769 708h122l-113 -198h-97z" />
    <glyph glyph-name="Dcroat" unicode="&#x110;" horiz-adv-x="759" 
d="M124 324h-66l12 84h66l42 300h279q70 0 132 -21.5t105.5 -65.5t64.5 -110.5t8 -156.5q-13 -91 -57 -157.5t-104 -110t-129.5 -65t-133.5 -21.5h-264zM315 114q59 0 113 13.5t97 42t72 74t38 110.5q9 64 -4.5 110t-45 74.5t-78 42t-104.5 13.5h-115l-26 -186h216l-12 -84
h-216l-29 -210h94z" />
    <glyph glyph-name="dcroat" unicode="&#x111;" horiz-adv-x="630" 
d="M712 565h-71l-79 -565h-114l10 72h-2q-33 -45 -79.5 -64.5t-97.5 -19.5q-56 0 -97 19.5t-67 53.5t-36 80t-2 99q7 53 31 99t59.5 80t81 53.5t96.5 19.5q33 0 58.5 -7t44 -18t30.5 -23.5t19 -24.5h3l21 146h-129l11 78h129l16 113h120l-16 -113h71zM197 240q-4 -28 2 -54
t21.5 -46t40 -32t57.5 -12t61 12t49 32t34 46t17 54t-2 54t-21.5 46t-40 32t-57.5 12t-60.5 -12t-48.5 -32t-34.5 -46t-17.5 -54z" />
    <glyph glyph-name="Emacron" unicode="&#x112;" horiz-adv-x="611" 
d="M178 708h469l-16 -114h-343l-24 -174h325l-16 -114h-325l-27 -192h361l-16 -114h-487zM590 787h-320l11 78h320z" />
    <glyph glyph-name="emacron" unicode="&#x113;" horiz-adv-x="574" 
d="M191 198q-1 -27 7.5 -48t23.5 -35.5t36 -22.5t46 -8q45 0 78.5 18.5t59.5 46.5l77 -65q-49 -52 -104 -74t-112 -22q-54 0 -99.5 18t-76 51t-44.5 79.5t-6 103.5t35 103.5t67 79.5t90.5 51t104.5 18q101 0 153 -67.5t35 -193.5l-5 -33h-366zM450 288q7 53 -21 83.5
t-85 30.5q-54 0 -90 -31t-50 -83h246zM543 595h-320l11 78h320z" />
    <glyph glyph-name="Ebreve" unicode="&#x114;" horiz-adv-x="611" 
d="M178 708h469l-16 -114h-343l-24 -174h325l-16 -114h-325l-27 -192h361l-16 -114h-487zM346 900q1 -38 28.5 -52t65.5 -14q43 0 69.5 12t43.5 54h66q-19 -75 -69 -109.5t-122 -34.5t-113 34.5t-36 109.5h67z" />
    <glyph glyph-name="ebreve" unicode="&#x115;" horiz-adv-x="574" 
d="M191 198q-1 -27 7.5 -48t23.5 -35.5t36 -22.5t46 -8q45 0 78.5 18.5t59.5 46.5l77 -65q-49 -52 -104 -74t-112 -22q-54 0 -99.5 18t-76 51t-44.5 79.5t-6 103.5t35 103.5t67 79.5t90.5 51t104.5 18q101 0 153 -67.5t35 -193.5l-5 -33h-366zM450 288q7 53 -21 83.5
t-85 30.5q-54 0 -90 -31t-50 -83h246zM296 708q2 -38 29 -52t65 -14q43 0 69.5 12t43.5 54h66q-18 -74 -68.5 -109t-122.5 -35t-113.5 34.5t-35.5 109.5h67z" />
    <glyph glyph-name="Edotaccent" unicode="&#x116;" horiz-adv-x="611" 
d="M178 708h469l-16 -114h-343l-24 -174h325l-16 -114h-325l-27 -192h361l-16 -114h-487zM374 828q4 29 28.5 50.5t57.5 21.5t53 -20.5t15 -51.5t-30 -51.5t-58 -20.5t-52 21.5t-14 50.5z" />
    <glyph glyph-name="edotaccent" unicode="&#x117;" horiz-adv-x="574" 
d="M191 198q-1 -27 7.5 -48t23.5 -35.5t36 -22.5t46 -8q45 0 78.5 18.5t59.5 46.5l77 -65q-49 -52 -104 -74t-112 -22q-54 0 -99.5 18t-76 51t-44.5 79.5t-6 103.5t35 103.5t67 79.5t90.5 51t104.5 18q101 0 153 -67.5t35 -193.5l-5 -33h-366zM450 288q7 53 -21 83.5
t-85 30.5q-54 0 -90 -31t-50 -83h246zM312 636q4 29 28.5 50.5t57.5 21.5t53 -20.5t15 -51.5t-30 -51.5t-58 -20.5t-51.5 21.5t-14.5 50.5z" />
    <glyph glyph-name="Eogonek" unicode="&#x118;" horiz-adv-x="611" 
d="M178 708h469l-16 -114h-343l-24 -174h325l-16 -114h-325l-27 -192h361l-16 -114h-59q-13 -11 -28.5 -25.5t-29.5 -31t-24 -33.5t-12 -32q-2 -19 9.5 -32.5t30.5 -13.5q14 0 29 6t28 15l18 -49q-23 -17 -50 -27.5t-55 -10.5q-20 0 -38 5.5t-30.5 17t-19 28t-3.5 38.5
q3 20 14.5 40.5t27.5 39.5t34.5 35.5t36.5 29.5h-366z" />
    <glyph glyph-name="eogonek" unicode="&#x119;" horiz-adv-x="574" 
d="M386 -196q-23 -17 -50 -27.5t-55 -10.5q-20 0 -38 5.5t-30.5 17t-19 28t-3.5 38.5q3 18 12 36.5t22.5 35.5t30 33t32.5 29q-51 3 -93 22t-70.5 51.5t-41.5 77.5t-5 100q8 57 35 103.5t67 79.5t90.5 51t104.5 18q50 0 89 -17.5t63.5 -50.5t34.5 -81.5t1 -111.5l-5 -33
h-366q-2 -54 30 -84t83 -30q45 0 78 18.5t60 46.5l77 -65q-38 -40 -79 -61.5t-84 -29.5q-13 -11 -27 -25t-26 -29t-21 -31t-11 -30q-2 -19 9.5 -32.5t30.5 -13.5q14 0 29 6t28 15zM450 288q7 54 -21 84t-85 30q-54 0 -90 -31t-50 -83h246z" />
    <glyph glyph-name="Ecaron" unicode="&#x11a;" horiz-adv-x="611" 
d="M178 708h469l-16 -114h-343l-24 -174h325l-16 -114h-325l-27 -192h361l-16 -114h-487zM384 900l56 -90l82 90h110l-135 -144h-133l-94 144h114z" />
    <glyph glyph-name="ecaron" unicode="&#x11b;" horiz-adv-x="574" 
d="M191 198q-1 -27 7.5 -48t23.5 -35.5t36 -22.5t46 -8q45 0 78.5 18.5t59.5 46.5l77 -65q-49 -52 -104 -74t-112 -22q-54 0 -99.5 18t-76 51t-44.5 79.5t-6 103.5t35 103.5t67 79.5t90.5 51t104.5 18q101 0 153 -67.5t35 -193.5l-5 -33h-366zM450 288q7 53 -21 83.5
t-85 30.5q-54 0 -90 -31t-50 -83h246zM332 708l56 -90l82 90h110l-135 -144h-133l-94 144h114z" />
    <glyph glyph-name="Gcircumflex" unicode="&#x11c;" horiz-adv-x="778" 
d="M715 52q-142 -70 -303 -70q-82 0 -147 26.5t-107.5 75t-61 116.5t-6.5 151q12 85 49.5 154.5t94 118.5t129 75.5t154.5 26.5q81 0 149 -19.5t117 -69.5l-106 -94q-29 33 -75 51t-100 18q-55 0 -102.5 -19.5t-84.5 -54t-61 -80.5t-31 -99q-8 -57 2.5 -105t37.5 -83t69 -55
t97 -20q48 0 92 9t79 28l24 167h-145l16 114h271zM585 756l-57 90l-81 -90h-112l135 144h135l94 -144h-114z" />
    <glyph glyph-name="gcircumflex" unicode="&#x11d;" horiz-adv-x="630" 
d="M629 480l-61 -437q-9 -65 -32.5 -117.5t-62 -89t-92.5 -56.5t-124 -20q-67 0 -124.5 17t-102.5 62l86 98q31 -33 67.5 -51t87.5 -18q43 0 74 12t51.5 33t32.5 50.5t17 65.5l4 35h-2q-31 -35 -76 -52.5t-90 -17.5q-54 0 -95.5 19.5t-68 52.5t-37.5 78t-4 96q7 53 30 99
t58.5 80t82 53.5t102.5 19.5q51 0 92 -20t61 -64h2l10 72h114zM359 384q-32 0 -59.5 -10.5t-48.5 -29t-35.5 -45t-18.5 -58.5q-4 -29 3.5 -54t23.5 -44t40.5 -30t54.5 -11q33 0 61 11t49 29.5t34.5 44.5t18.5 56q8 63 -24.5 102t-98.5 39zM474 564l-57 90l-81 -90h-112
l135 144h135l94 -144h-114z" />
    <glyph glyph-name="Gbreve" unicode="&#x11e;" horiz-adv-x="778" 
d="M715 52q-142 -70 -303 -70q-82 0 -147 26.5t-107.5 75t-61 116.5t-6.5 151q12 85 49.5 154.5t94 118.5t129 75.5t154.5 26.5q81 0 149 -19.5t117 -69.5l-106 -94q-29 33 -75 51t-100 18q-55 0 -102.5 -19.5t-84.5 -54t-61 -80.5t-31 -99q-8 -57 2.5 -105t37.5 -83t69 -55
t97 -20q48 0 92 9t79 28l24 167h-145l16 114h271zM436 900q1 -38 28.5 -52t65.5 -14q43 0 69.5 12t43.5 54h66q-19 -75 -69 -109.5t-122 -34.5t-113 34.5t-36 109.5h67z" />
    <glyph glyph-name="gbreve" unicode="&#x11f;" horiz-adv-x="630" 
d="M629 480l-61 -437q-9 -65 -32.5 -117.5t-62 -89t-92.5 -56.5t-124 -20q-67 0 -124.5 17t-102.5 62l86 98q31 -33 67.5 -51t87.5 -18q43 0 74 12t51.5 33t32.5 50.5t17 65.5l4 35h-2q-31 -35 -76 -52.5t-90 -17.5q-54 0 -95.5 19.5t-68 52.5t-37.5 78t-4 96q7 53 30 99
t58.5 80t82 53.5t102.5 19.5q51 0 92 -20t61 -64h2l10 72h114zM359 384q-32 0 -59.5 -10.5t-48.5 -29t-35.5 -45t-18.5 -58.5q-4 -29 3.5 -54t23.5 -44t40.5 -30t54.5 -11q33 0 61 11t49 29.5t34.5 44.5t18.5 56q8 63 -24.5 102t-98.5 39zM323 708q2 -38 29 -52t65 -14
q43 0 69.5 12t43.5 54h66q-18 -74 -68.5 -109t-122.5 -35t-113.5 34.5t-35.5 109.5h67z" />
    <glyph glyph-name="Gdotaccent" unicode="&#x120;" horiz-adv-x="778" 
d="M715 52q-142 -70 -303 -70q-82 0 -147 26.5t-107.5 75t-61 116.5t-6.5 151q12 85 49.5 154.5t94 118.5t129 75.5t154.5 26.5q81 0 149 -19.5t117 -69.5l-106 -94q-29 33 -75 51t-100 18q-55 0 -102.5 -19.5t-84.5 -54t-61 -80.5t-31 -99q-8 -57 2.5 -105t37.5 -83t69 -55
t97 -20q48 0 92 9t79 28l24 167h-145l16 114h271zM453 828q4 29 28.5 50.5t57.5 21.5t53 -20.5t15 -51.5t-30 -51.5t-58 -20.5t-52 21.5t-14 50.5z" />
    <glyph glyph-name="gdotaccent" unicode="&#x121;" horiz-adv-x="630" 
d="M629 480l-61 -437q-9 -65 -32.5 -117.5t-62 -89t-92.5 -56.5t-124 -20q-67 0 -124.5 17t-102.5 62l86 98q31 -33 67.5 -51t87.5 -18q43 0 74 12t51.5 33t32.5 50.5t17 65.5l4 35h-2q-31 -35 -76 -52.5t-90 -17.5q-54 0 -95.5 19.5t-68 52.5t-37.5 78t-4 96q7 53 30 99
t58.5 80t82 53.5t102.5 19.5q51 0 92 -20t61 -64h2l10 72h114zM359 384q-32 0 -59.5 -10.5t-48.5 -29t-35.5 -45t-18.5 -58.5q-4 -29 3.5 -54t23.5 -44t40.5 -30t54.5 -11q33 0 61 11t49 29.5t34.5 44.5t18.5 56q8 63 -24.5 102t-98.5 39zM329 636q4 29 28.5 50.5t57.5 21.5
t53 -20.5t15 -51.5t-30 -51.5t-58 -20.5t-51.5 21.5t-14.5 50.5z" />
    <glyph glyph-name="Gcommaaccent" unicode="&#x122;" horiz-adv-x="778" 
d="M715 52q-142 -70 -303 -70q-82 0 -147 26.5t-107.5 75t-61 116.5t-6.5 151q12 85 49.5 154.5t94 118.5t129 75.5t154.5 26.5q81 0 149 -19.5t117 -69.5l-106 -94q-29 33 -75 51t-100 18q-55 0 -102.5 -19.5t-84.5 -54t-61 -80.5t-31 -99q-8 -57 2.5 -105t37.5 -83t69 -55
t97 -20q48 0 92 9t79 28l24 167h-145l16 114h271zM373 -60h122l-116 -198h-107z" />
    <glyph glyph-name="gcommaaccent" unicode="&#x123;" horiz-adv-x="630" 
d="M629 480l-61 -437q-9 -65 -32.5 -117.5t-62 -89t-92.5 -56.5t-124 -20q-67 0 -124.5 17t-102.5 62l86 98q31 -33 67.5 -51t87.5 -18q43 0 74 12t51.5 33t32.5 50.5t17 65.5l4 35h-2q-31 -35 -76 -52.5t-90 -17.5q-54 0 -95.5 19.5t-68 52.5t-37.5 78t-4 96q7 53 30 99
t58.5 80t82 53.5t102.5 19.5q51 0 92 -20t61 -64h2l10 72h114zM359 384q-32 0 -59.5 -10.5t-48.5 -29t-35.5 -45t-18.5 -58.5q-4 -29 3.5 -54t23.5 -44t40.5 -30t54.5 -11q33 0 61 11t49 29.5t34.5 44.5t18.5 56q8 63 -24.5 102t-98.5 39zM436 584h-122l115 198h107z" />
    <glyph glyph-name="Hcircumflex" unicode="&#x124;" horiz-adv-x="741" 
d="M178 708h126l-40 -282h331l40 282h126l-99 -708h-126l43 312h-331l-43 -312h-126zM544 756l-57 90l-81 -90h-112l135 144h135l94 -144h-114z" />
    <glyph glyph-name="hcircumflex" unicode="&#x125;" horiz-adv-x="574" 
d="M246 413h2q18 30 57 54.5t95 24.5q48 0 79.5 -16t48.5 -42t21 -60t-1 -71l-42 -303h-120l34 243q3 20 4 44.5t-4.5 46t-21.5 36t-47 14.5q-30 0 -52 -10t-37.5 -27t-25 -39t-12.5 -46l-36 -262h-120l106 756h120zM464 796l-57 90l-81 -90h-112l135 144h135l94 -144h-114z
" />
    <glyph glyph-name="Hbar" unicode="&#x126;" horiz-adv-x="741" 
d="M178 708h126l-13 -89h331l13 89h126l-99 -708h-126l43 312h-331l-43 -312h-126zM595 426l17 115h-331l-17 -115h331z" />
    <glyph glyph-name="hbar" unicode="&#x127;" horiz-adv-x="574" 
d="M396 565h-129l-21 -152h2q18 30 56.5 54.5t95.5 24.5q48 0 79.5 -16t48.5 -42t21 -60t-1 -71l-42 -303h-120l34 243q3 20 4 44.5t-4.5 46t-21.5 36t-47 14.5q-30 0 -52 -10t-37.5 -27t-25 -39t-12.5 -46l-36 -262h-120l79 565h-71l11 78h71l16 113h120l-16 -113h129z" />
    <glyph glyph-name="Itilde" unicode="&#x128;" horiz-adv-x="278" 
d="M175 708h126l-99 -708h-126zM62 760q7 24 18 47t26.5 40.5t36.5 28.5t49 11q20 0 39.5 -6t37.5 -12.5t34 -12.5t28 -6q20 0 32 12.5t20 29.5h66q-8 -24 -18.5 -47t-26 -40.5t-36.5 -28.5t-49 -11q-20 0 -39.5 6t-37.5 13t-34 13t-28 6q-20 0 -32 -13t-20 -30h-66z" />
    <glyph glyph-name="itilde" unicode="&#x129;" 
d="M137 480h120l-67 -480h-120zM27 568q7 24 18 47t26.5 40.5t36.5 28.5t49 11q20 0 40 -6t38 -12.5t33.5 -12.5t27.5 -6q20 0 32 12.5t20 29.5h66q-8 -24 -18.5 -47t-26 -40.5t-36.5 -28.5t-49 -11q-20 0 -40 6t-38 13t-33.5 13t-27.5 6q-20 0 -32 -13t-20 -30h-66z" />
    <glyph glyph-name="Imacron" unicode="&#x12a;" horiz-adv-x="278" 
d="M175 708h126l-99 -708h-126zM408 787h-320l11 78h320z" />
    <glyph glyph-name="imacron" unicode="&#x12b;" 
d="M137 480h120l-67 -480h-120zM375 595h-320l11 78h320z" />
    <glyph glyph-name="Iogonek" unicode="&#x12e;" horiz-adv-x="278" 
d="M175 708h126l-99 -708h-36q-14 -11 -29 -25.5t-29 -31t-24 -33.5t-12 -32q-2 -19 9.5 -32.5t30.5 -13.5q14 0 29.5 6t27.5 15l18 -49q-23 -17 -50 -27.5t-55 -10.5q-20 0 -38 5.5t-31 17t-18.5 28t-2.5 38.5q3 20 14 40.5t27 39.5t34.5 35.5t36.5 29.5h-28z" />
    <glyph glyph-name="iogonek" unicode="&#x12f;" 
d="M137 480h120l-67 -480h-58q-13 -11 -28.5 -25.5t-29.5 -31t-24 -33.5t-12 -32q-2 -19 9.5 -32.5t30.5 -13.5q14 0 29 6t28 15l18 -49q-23 -17 -50 -27.5t-55 -10.5q-20 0 -37.5 5.5t-30 17t-19 28t-3.5 38.5q3 20 14.5 40.5t27 39.5t34 35.5t36.5 29.5zM143 643
q4 29 28.5 50.5t57.5 21.5t53 -20.5t15 -51.5t-30 -51.5t-58 -20.5t-52 21.5t-14 50.5z" />
    <glyph glyph-name="Idotaccent" unicode="&#x130;" horiz-adv-x="278" 
d="M175 708h126l-99 -708h-126zM179 828q4 29 28.5 50.5t57.5 21.5t53 -20.5t15 -51.5t-30 -51.5t-58 -20.5t-52 21.5t-14 50.5z" />
    <glyph glyph-name="dotlessi" unicode="&#x131;" 
d="M137 480h120l-67 -480h-120z" />
    <glyph glyph-name="IJ" unicode="&#x132;" horiz-adv-x="767" 
d="M175 708h126l-99 -708h-126zM720 196q-6 -42 -25 -81t-49.5 -68.5t-73 -47t-95.5 -17.5q-84 0 -132 39t-53 124l122 28q1 -35 20.5 -56t52.5 -21q54 0 78.5 36.5t33.5 100.5l67 475h126z" />
    <glyph glyph-name="ij" unicode="&#x133;" horiz-adv-x="484" 
d="M137 480h120l-67 -480h-120zM143 643q4 29 28.5 50.5t57.5 21.5t53 -20.5t15 -51.5t-30 -51.5t-58 -20.5t-51.5 21.5t-14.5 50.5zM481 480l-72 -509q-6 -45 -17.5 -83.5t-32.5 -67t-55 -44.5t-85 -16q-17 0 -33 2t-31 7l24 104q20 -5 37 -5q22 0 35.5 9.5t21 24.5t11 33
t5.5 35l72 510h120zM367 643q4 29 28.5 50.5t57.5 21.5t53 -20.5t15 -51.5t-30 -51.5t-58 -20.5t-51.5 21.5t-14.5 50.5z" />
    <glyph glyph-name="Jcircumflex" unicode="&#x134;" horiz-adv-x="500" 
d="M453 196q-6 -42 -25 -81t-49.5 -68.5t-73 -47t-95.5 -17.5q-84 0 -132 39t-53 124l122 28q1 -35 20.5 -56t52.5 -21q54 0 78.5 36.5t33.5 100.5l67 475h126zM538 756l-57 90l-81 -90h-112l135 144h135l94 -144h-114z" />
    <glyph glyph-name="jcircumflex" unicode="&#x135;" 
d="M257 480l-72 -509q-6 -45 -17.5 -83.5t-32.5 -67t-55 -44.5t-85 -16q-17 0 -33 2t-31 7l24 104q20 -5 37 -5q22 0 35.5 9.5t21 24.5t11 33t5.5 35l72 510h120zM277 564l-57 90l-81 -90h-112l135 144h135l94 -144h-114z" />
    <glyph glyph-name="Kcommaaccent" unicode="&#x136;" horiz-adv-x="685" 
d="M178 708h126l-42 -300h6l335 300h170l-377 -327l300 -381h-177l-259 348h-7l-48 -348h-126zM276 -60h122l-116 -198h-107z" />
    <glyph glyph-name="kcommaaccent" unicode="&#x137;" horiz-adv-x="537" 
d="M174 756h120l-67 -475l213 199h154l-237 -218l183 -262h-159l-157 245h-2l-34 -245h-120zM206 -60h122l-116 -198h-107z" />
    <glyph glyph-name="Lacute" unicode="&#x139;" horiz-adv-x="519" 
d="M178 708h126l-83 -594h301l-16 -114h-427zM289 900h136l-161 -144h-94z" />
    <glyph glyph-name="lacute" unicode="&#x13a;" 
d="M176 756h120l-106 -756h-120zM288 940h136l-161 -144h-94z" />
    <glyph glyph-name="Lcommaaccent" unicode="&#x13b;" horiz-adv-x="519" 
d="M178 708h126l-83 -594h301l-16 -114h-427zM221 -60h122l-116 -198h-107z" />
    <glyph glyph-name="lcommaaccent" unicode="&#x13c;" 
d="M176 756h120l-106 -756h-120zM81 -60h122l-116 -198h-107z" />
    <glyph glyph-name="Lcaron" unicode="&#x13d;" horiz-adv-x="519" 
d="M178 708h126l-83 -594h301l-16 -114h-427zM417 708h122l-113 -198h-97z" />
    <glyph glyph-name="lcaron" unicode="&#x13e;" 
d="M176 756h120l-106 -756h-120zM406 708h122l-113 -198h-97z" />
    <glyph glyph-name="Ldot" unicode="&#x13f;" horiz-adv-x="519" 
d="M178 708h126l-83 -594h301l-16 -114h-427zM375 385q4 29 28.5 50.5t57.5 21.5t53 -20.5t15 -51.5t-30 -51.5t-58 -20.5t-51.5 21.5t-14.5 50.5z" />
    <glyph glyph-name="ldot" unicode="&#x140;" horiz-adv-x="384" 
d="M176 756h120l-106 -756h-120zM301 379q4 29 28.5 50.5t57.5 21.5t53 -20.5t15 -51.5t-30 -51.5t-58 -20.5t-51.5 21.5t-14.5 50.5z" />
    <glyph glyph-name="Lslash" unicode="&#x141;" horiz-adv-x="519" 
d="M105 187l-79 -62l16 110l78 62l58 411h126l-42 -300l231 181l-15 -109l-232 -182l-25 -184h301l-16 -114h-427z" />
    <glyph glyph-name="lslash" unicode="&#x142;" 
d="M108 273l-79 -69l15 109l79 69l53 374h120l-36 -255l79 69l-15 -107l-79 -68l-55 -395h-120z" />
    <glyph glyph-name="Nacute" unicode="&#x143;" horiz-adv-x="796" 
d="M178 708h167l269 -526h2l74 526h126l-99 -708h-160l-274 543h-2l-76 -543h-126zM569 900h136l-161 -144h-94z" />
    <glyph glyph-name="nacute" unicode="&#x144;" horiz-adv-x="574" 
d="M135 480h114l-11 -77h2q22 36 61 62.5t99 26.5q48 0 79.5 -16t48.5 -42t21 -60t-1 -71l-42 -303h-120l34 243q3 20 4 44.5t-4.5 46t-21.5 36t-47 14.5q-30 0 -52 -10t-37.5 -27t-25 -39t-12.5 -46l-36 -262h-120zM408 708h136l-161 -144h-94z" />
    <glyph glyph-name="Ncommaaccent" unicode="&#x145;" horiz-adv-x="796" 
d="M178 708h167l269 -526h2l74 526h126l-99 -708h-160l-274 543h-2l-76 -543h-126zM325 -60h122l-116 -198h-107z" />
    <glyph glyph-name="ncommaaccent" unicode="&#x146;" horiz-adv-x="574" 
d="M135 480h114l-11 -77h2q22 36 61 62.5t99 26.5q48 0 79.5 -16t48.5 -42t21 -60t-1 -71l-42 -303h-120l34 243q3 20 4 44.5t-4.5 46t-21.5 36t-47 14.5q-30 0 -52 -10t-37.5 -27t-25 -39t-12.5 -46l-36 -262h-120zM224 -60h122l-116 -198h-107z" />
    <glyph glyph-name="Ncaron" unicode="&#x147;" horiz-adv-x="796" 
d="M178 708h167l269 -526h2l74 526h126l-99 -708h-160l-274 543h-2l-76 -543h-126zM456 900l56 -90l82 90h110l-135 -144h-133l-94 144h114z" />
    <glyph glyph-name="ncaron" unicode="&#x148;" horiz-adv-x="574" 
d="M135 480h114l-11 -77h2q22 36 61 62.5t99 26.5q48 0 79.5 -16t48.5 -42t21 -60t-1 -71l-42 -303h-120l34 243q3 20 4 44.5t-4.5 46t-21.5 36t-47 14.5q-30 0 -52 -10t-37.5 -27t-25 -39t-12.5 -46l-36 -262h-120zM324 708l56 -90l82 90h110l-135 -144h-133l-94 144h114z
" />
    <glyph glyph-name="napostrophe" unicode="&#x149;" horiz-adv-x="574" 
d="M135 480h114l-11 -77h2q22 36 61 62.5t99 26.5q48 0 79.5 -16t48.5 -42t21 -60t-1 -71l-42 -303h-120l34 243q3 20 4 44.5t-4.5 46t-21.5 36t-47 14.5q-30 0 -52 -10t-37.5 -27t-25 -39t-12.5 -46l-36 -262h-120zM96 708h122l-113 -198h-97z" />
    <glyph glyph-name="Omacron" unicode="&#x14c;" horiz-adv-x="833" 
d="M90 351q12 85 49.5 154.5t94 118.5t129 75.5t154.5 26.5q83 1 148.5 -24.5t108.5 -74.5t61 -118t6 -154q-12 -83 -49 -151t-94 -117t-130 -76.5t-156 -28.5q-82 0 -147 26.5t-107.5 75t-61 116.5t-6.5 151zM223 359q-8 -57 2.5 -105t37.5 -83t69 -55t97 -20t103 20t85 55
t61 83t32 105q7 53 -3.5 99t-37.5 80.5t-69.5 54t-97.5 19.5t-102.5 -19.5t-84.5 -54t-61 -80.5t-31 -99zM685 787h-320l11 78h320z" />
    <glyph glyph-name="omacron" unicode="&#x14d;" horiz-adv-x="610" 
d="M77 240q8 57 35 103.5t67 79.5t90.5 51t104.5 18t99 -18t75.5 -51t44.5 -79.5t6 -103.5t-35 -103.5t-66.5 -79.5t-90 -51t-104.5 -18t-99.5 18t-76 51t-44.5 79.5t-6 103.5zM197 240q-4 -28 2 -54t21.5 -46t40 -32t57.5 -12t61 12t49 32t34 46t17 54t-2 54t-21.5 46
t-40 32t-57.5 12t-60.5 -12t-48.5 -32t-34.5 -46t-17.5 -54zM548 595h-320l11 78h320z" />
    <glyph glyph-name="Obreve" unicode="&#x14e;" horiz-adv-x="833" 
d="M90 351q12 85 49.5 154.5t94 118.5t129 75.5t154.5 26.5q83 1 148.5 -24.5t108.5 -74.5t61 -118t6 -154q-12 -83 -49 -151t-94 -117t-130 -76.5t-156 -28.5q-82 0 -147 26.5t-107.5 75t-61 116.5t-6.5 151zM223 359q-8 -57 2.5 -105t37.5 -83t69 -55t97 -20t103 20t85 55
t61 83t32 105q7 53 -3.5 99t-37.5 80.5t-69.5 54t-97.5 19.5t-102.5 -19.5t-84.5 -54t-61 -80.5t-31 -99zM438 900q1 -38 28.5 -52t65.5 -14q43 0 69.5 12t43.5 54h66q-19 -75 -69 -109.5t-122 -34.5t-113 34.5t-36 109.5h67z" />
    <glyph glyph-name="obreve" unicode="&#x14f;" horiz-adv-x="610" 
d="M77 240q8 57 35 103.5t67 79.5t90.5 51t104.5 18t99 -18t75.5 -51t44.5 -79.5t6 -103.5t-35 -103.5t-66.5 -79.5t-90 -51t-104.5 -18t-99.5 18t-76 51t-44.5 79.5t-6 103.5zM197 240q-4 -28 2 -54t21.5 -46t40 -32t57.5 -12t61 12t49 32t34 46t17 54t-2 54t-21.5 46
t-40 32t-57.5 12t-60.5 -12t-48.5 -32t-34.5 -46t-17.5 -54zM303 708q2 -38 29 -52t65 -14q43 0 69.5 12t43.5 54h66q-18 -74 -68.5 -109t-122.5 -35t-113.5 34.5t-35.5 109.5h67z" />
    <glyph glyph-name="Ohungarumlaut" unicode="&#x150;" horiz-adv-x="833" 
d="M90 351q12 85 49.5 154.5t94 118.5t129 75.5t154.5 26.5q83 1 148.5 -24.5t108.5 -74.5t61 -118t6 -154q-12 -83 -49 -151t-94 -117t-130 -76.5t-156 -28.5q-82 0 -147 26.5t-107.5 75t-61 116.5t-6.5 151zM223 359q-8 -57 2.5 -105t37.5 -83t69 -55t97 -20t103 20t85 55
t61 83t32 105q7 53 -3.5 99t-37.5 80.5t-69.5 54t-97.5 19.5t-102.5 -19.5t-84.5 -54t-61 -80.5t-31 -99zM489 900h136l-161 -144h-94zM694 900h136l-161 -144h-94z" />
    <glyph glyph-name="ohungarumlaut" unicode="&#x151;" horiz-adv-x="610" 
d="M77 240q8 57 35 103.5t67 79.5t90.5 51t104.5 18t99 -18t75.5 -51t44.5 -79.5t6 -103.5t-35 -103.5t-66.5 -79.5t-90 -51t-104.5 -18t-99.5 18t-76 51t-44.5 79.5t-6 103.5zM197 240q-4 -28 2 -54t21.5 -46t40 -32t57.5 -12t61 12t49 32t34 46t17 54t-2 54t-21.5 46
t-40 32t-57.5 12t-60.5 -12t-48.5 -32t-34.5 -46t-17.5 -54zM342 708h136l-161 -144h-94zM547 708h136l-161 -144h-94z" />
    <glyph glyph-name="OE" unicode="&#x152;" horiz-adv-x="1000" 
d="M704 420h270l-16 -114h-270l-27 -192h305l-16 -114h-497q-96 0 -167 27t-116 75t-63.5 112.5t-7.5 139.5q11 76 47 140.5t94.5 112t137 74.5t174.5 27h480l-16 -114h-288zM602 594h-63q-23 0 -52.5 -4.5t-60.5 -15t-62 -28t-57 -44t-44.5 -63.5t-25.5 -85
q-10 -73 12.5 -119.5t60.5 -73.5t82.5 -37t79.5 -10h63z" />
    <glyph glyph-name="oe" unicode="&#x153;" horiz-adv-x="926" 
d="M568 204q-5 -27 3 -49t23 -38t35 -24.5t39 -8.5q45 0 78 18.5t59 46.5l75 -59q-48 -56 -103.5 -79t-121.5 -23q-60 0 -102 20t-65 57q-42 -40 -91 -58.5t-102 -18.5q-54 0 -99.5 18t-76 51t-44.5 79.5t-6 103.5t35 103.5t67 79.5t90.5 51t104.5 18t98 -19t75 -59
q38 40 86.5 59t102.5 19q58 0 99 -20t64.5 -54.5t31 -81t0.5 -99.5l-5 -33h-350zM810 288q7 53 -20 83.5t-75 30.5q-21 0 -44 -7.5t-42.5 -21.5t-33.5 -35.5t-19 -49.5h234zM189 240q-4 -30 2 -57.5t21 -48t39.5 -32.5t57.5 -12q34 0 62 12t49.5 32.5t35 48t17.5 57.5
t-1.5 57.5t-21 48t-40.5 32.5t-59 12q-33 0 -61 -12t-49 -32.5t-34.5 -48t-17.5 -57.5z" />
    <glyph glyph-name="Racute" unicode="&#x154;" horiz-adv-x="630" 
d="M178 708h246q51 0 97.5 -9.5t80 -32.5t50 -62t7.5 -99q-5 -38 -20.5 -71t-40 -58t-57.5 -41t-73 -22l145 -313h-152l-122 300h-92l-42 -300h-126zM360 408q27 0 54.5 2.5t51 12t40.5 29t22 54.5q4 31 -6.5 50t-30 28.5t-44.5 12.5t-49 3h-109l-27 -192h98zM435 900h136
l-161 -144h-94z" />
    <glyph glyph-name="racute" unicode="&#x155;" horiz-adv-x="389" 
d="M135 480h120l-11 -76h2q26 42 66.5 65t88.5 23q11 0 21 -2t21 -5l-17 -116q-14 4 -28 6.5t-28 2.5q-42 0 -70 -15.5t-44.5 -35.5t-23.5 -40t-8 -30l-36 -257h-120zM331 708h136l-161 -144h-94z" />
    <glyph glyph-name="Rcommaaccent" unicode="&#x156;" horiz-adv-x="630" 
d="M178 708h246q51 0 97.5 -9.5t80 -32.5t50 -62t7.5 -99q-5 -38 -20.5 -71t-40 -58t-57.5 -41t-73 -22l145 -313h-152l-122 300h-92l-42 -300h-126zM360 408q27 0 54.5 2.5t51 12t40.5 29t22 54.5q4 31 -6.5 50t-30 28.5t-44.5 12.5t-49 3h-109l-27 -192h98zM235 -60h122
l-116 -198h-107z" />
    <glyph glyph-name="rcommaaccent" unicode="&#x157;" horiz-adv-x="389" 
d="M135 480h120l-11 -76h2q26 42 66.5 65t88.5 23q11 0 21 -2t21 -5l-17 -116q-14 4 -28 6.5t-28 2.5q-42 0 -70 -15.5t-44.5 -35.5t-23.5 -40t-8 -30l-36 -257h-120zM107 -60h122l-116 -198h-107z" />
    <glyph glyph-name="Rcaron" unicode="&#x158;" horiz-adv-x="630" 
d="M178 708h246q51 0 97.5 -9.5t80 -32.5t50 -62t7.5 -99q-5 -38 -20.5 -71t-40 -58t-57.5 -41t-73 -22l145 -313h-152l-122 300h-92l-42 -300h-126zM360 408q27 0 54.5 2.5t51 12t40.5 29t22 54.5q4 31 -6.5 50t-30 28.5t-44.5 12.5t-49 3h-109l-27 -192h98zM375 900
l56 -90l82 90h110l-135 -144h-133l-94 144h114z" />
    <glyph glyph-name="rcaron" unicode="&#x159;" horiz-adv-x="389" 
d="M135 480h120l-11 -76h2q26 42 66.5 65t88.5 23q11 0 21 -2t21 -5l-17 -116q-14 4 -28 6.5t-28 2.5q-42 0 -70 -15.5t-44.5 -35.5t-23.5 -40t-8 -30l-36 -257h-120zM240 708l56 -90l82 90h110l-135 -144h-133l-94 144h114z" />
    <glyph glyph-name="Sacute" unicode="&#x15a;" horiz-adv-x="574" 
d="M504 556q-17 29 -48 42.5t-68 13.5q-22 0 -43.5 -5t-39.5 -16t-30.5 -28.5t-15.5 -41.5q-5 -36 17 -55t57.5 -33t77 -27t76 -36t54 -61t10.5 -101q-8 -57 -35 -99.5t-66.5 -70.5t-88.5 -42t-101 -14q-66 0 -124 22t-95 74l108 92q19 -35 53.5 -54.5t76.5 -19.5
q22 0 44.5 6t42 18t33.5 30.5t18 42.5q5 39 -17 60t-57.5 35.5t-77 27.5t-75.5 35.5t-54 60t-11 100.5q8 55 36 95t68.5 66.5t89.5 39.5t98 13q56 0 106.5 -17t85.5 -56zM458 900h136l-161 -144h-94z" />
    <glyph glyph-name="sacute" unicode="&#x15b;" horiz-adv-x="444" 
d="M372 347q-28 49 -87 49q-12 0 -25 -3t-24 -9t-18.5 -16t-9.5 -23q-3 -22 14.5 -32t45.5 -17t60.5 -14.5t59 -23t42 -42.5t8.5 -74q-6 -43 -28.5 -72.5t-54.5 -47.5t-70 -26t-75 -8q-56 0 -101 16t-76 58l91 75q20 -26 43.5 -42.5t61.5 -16.5q13 0 27.5 3t27.5 10t22 17.5
t11 24.5q4 25 -13.5 37t-45.5 19.5t-60.5 14t-59.5 21t-42.5 40.5t-8.5 72q6 40 26.5 69.5t50.5 48.5t66 28t72 9q48 0 92.5 -16.5t67.5 -56.5zM355 708h136l-161 -144h-94z" />
    <glyph glyph-name="Scircumflex" unicode="&#x15c;" horiz-adv-x="574" 
d="M504 556q-17 29 -48 42.5t-68 13.5q-22 0 -43.5 -5t-39.5 -16t-30.5 -28.5t-15.5 -41.5q-5 -36 17 -55t57.5 -33t77 -27t76 -36t54 -61t10.5 -101q-8 -57 -35 -99.5t-66.5 -70.5t-88.5 -42t-101 -14q-66 0 -124 22t-95 74l108 92q19 -35 53.5 -54.5t76.5 -19.5
q22 0 44.5 6t42 18t33.5 30.5t18 42.5q5 39 -17 60t-57.5 35.5t-77 27.5t-75.5 35.5t-54 60t-11 100.5q8 55 36 95t68.5 66.5t89.5 39.5t98 13q56 0 106.5 -17t85.5 -56zM476 756l-57 90l-81 -90h-112l135 144h135l94 -144h-114z" />
    <glyph glyph-name="scircumflex" unicode="&#x15d;" horiz-adv-x="444" 
d="M372 347q-28 49 -87 49q-12 0 -25 -3t-24 -9t-18.5 -16t-9.5 -23q-3 -22 14.5 -32t45.5 -17t60.5 -14.5t59 -23t42 -42.5t8.5 -74q-6 -43 -28.5 -72.5t-54.5 -47.5t-70 -26t-75 -8q-56 0 -101 16t-76 58l91 75q20 -26 43.5 -42.5t61.5 -16.5q13 0 27.5 3t27.5 10t22 17.5
t11 24.5q4 25 -13.5 37t-45.5 19.5t-60.5 14t-59.5 21t-42.5 40.5t-8.5 72q6 40 26.5 69.5t50.5 48.5t66 28t72 9q48 0 92.5 -16.5t67.5 -56.5zM383 564l-57 90l-81 -90h-112l135 144h135l94 -144h-114z" />
    <glyph glyph-name="Scedilla" unicode="&#x15e;" horiz-adv-x="574" 
d="M504 556q-17 29 -48 42.5t-68 13.5q-22 0 -43.5 -5t-39.5 -16t-30.5 -28.5t-15.5 -41.5q-5 -36 17 -55t57.5 -33t77 -27t76 -36t54 -61t10.5 -101q-7 -51 -29.5 -90.5t-56 -67t-75 -44t-87.5 -21.5l-37 -45q22 0 43.5 -2t37.5 -10.5t24 -25t4 -45.5q-4 -27 -19.5 -46
t-37.5 -30t-47.5 -16t-47.5 -5q-58 0 -102 28l28 46q35 -20 79 -20q8 0 18 2t19.5 6.5t16.5 13t9 20.5q3 20 -13.5 28t-32.5 8q-10 0 -19 -2t-19 -5l-23 25l60 72q-63 2 -115.5 24.5t-87.5 71.5l108 92q19 -35 53.5 -54.5t76.5 -19.5q22 0 45 6t42.5 18t33 30.5t17.5 42.5
q5 39 -17 60t-57.5 35.5t-77 27.5t-75.5 35.5t-54 60t-11 100.5q8 55 36 95t68.5 66.5t89.5 39.5t98 13q57 0 106.5 -17t85.5 -56z" />
    <glyph glyph-name="scedilla" unicode="&#x15f;" horiz-adv-x="444" 
d="M372 347q-27 49 -87 49q-12 0 -25 -3t-24 -9t-18.5 -16t-9.5 -23q-3 -22 14.5 -32t45.5 -17t60.5 -14.5t59 -23t42 -42.5t8.5 -74q-5 -36 -21.5 -62t-41 -44.5t-54.5 -29t-62 -14.5l-43 -52q22 0 43.5 -2t37.5 -10.5t24 -25t4 -45.5q-4 -27 -19.5 -46t-37.5 -30
t-47.5 -16t-47.5 -5q-58 0 -102 28l28 46q35 -20 79 -20q8 0 18 2t19.5 6.5t16.5 13t9 20.5q3 20 -13.5 28t-32.5 8q-10 0 -19 -2t-19 -5l-23 25l64 78q-52 2 -93.5 18.5t-71.5 55.5l91 75q20 -26 43.5 -42.5t61.5 -16.5q13 0 27.5 3t27.5 10t22 17.5t11 24.5q4 25 -13.5 37
t-45.5 19.5t-60.5 14t-59.5 21t-42.5 40.5t-8.5 72q6 40 26.5 69.5t50.5 48.5t66 28t72 9q48 0 92.5 -16.5t67.5 -56.5z" />
    <glyph glyph-name="Scaron" unicode="&#x160;" horiz-adv-x="574" 
d="M504 556q-17 29 -48 42.5t-68 13.5q-22 0 -43.5 -5t-39.5 -16t-30.5 -28.5t-15.5 -41.5q-5 -36 17 -55t57.5 -33t77 -27t76 -36t54 -61t10.5 -101q-8 -57 -35 -99.5t-66.5 -70.5t-88.5 -42t-101 -14q-66 0 -124 22t-95 74l108 92q19 -35 53.5 -54.5t76.5 -19.5
q22 0 44.5 6t42 18t33.5 30.5t18 42.5q5 39 -17 60t-57.5 35.5t-77 27.5t-75.5 35.5t-54 60t-11 100.5q8 55 36 95t68.5 66.5t89.5 39.5t98 13q56 0 106.5 -17t85.5 -56zM346 900l56 -90l82 90h110l-135 -144h-133l-94 144h114z" />
    <glyph glyph-name="scaron" unicode="&#x161;" horiz-adv-x="444" 
d="M372 347q-28 49 -87 49q-12 0 -25 -3t-24 -9t-18.5 -16t-9.5 -23q-3 -22 14.5 -32t45.5 -17t60.5 -14.5t59 -23t42 -42.5t8.5 -74q-6 -43 -28.5 -72.5t-54.5 -47.5t-70 -26t-75 -8q-56 0 -101 16t-76 58l91 75q20 -26 43.5 -42.5t61.5 -16.5q13 0 27.5 3t27.5 10t22 17.5
t11 24.5q4 25 -13.5 37t-45.5 19.5t-60.5 14t-59.5 21t-42.5 40.5t-8.5 72q6 40 26.5 69.5t50.5 48.5t66 28t72 9q48 0 92.5 -16.5t67.5 -56.5zM254 708l56 -90l82 90h110l-135 -144h-133l-94 144h114z" />
    <glyph glyph-name="Tcommaaccent" unicode="&#x162;" horiz-adv-x="574" 
d="M307 594h-217l16 114h560l-16 -114h-217l-83 -594h-126zM243 -60h122l-116 -198h-107z" />
    <glyph glyph-name="tcommaaccent" unicode="&#x163;" horiz-adv-x="389" 
d="M65 378l14 102h99l19 139h120l-19 -139h132l-14 -102h-132l-30 -210q-5 -36 5.5 -57t50.5 -21q16 0 35.5 3.5t31.5 11.5l-14 -101q-20 -9 -48 -12.5t-49 -3.5q-48 0 -77 10.5t-43.5 32t-16.5 53.5t4 74l31 220h-99zM151 -60h122l-116 -198h-107z" />
    <glyph glyph-name="Tcaron" unicode="&#x164;" horiz-adv-x="574" 
d="M307 594h-217l16 114h560l-16 -114h-217l-83 -594h-126zM346 900l56 -90l82 90h110l-135 -144h-133l-94 144h114z" />
    <glyph glyph-name="tcaron" unicode="&#x165;" horiz-adv-x="389" 
d="M65 378l14 102h99l19 139h120l-19 -139h132l-14 -102h-132l-30 -210q-5 -36 5.5 -57t50.5 -21q16 0 35.5 3.5t31.5 11.5l-14 -101q-20 -9 -48 -12.5t-49 -3.5q-48 0 -77 10.5t-43.5 32t-16.5 53.5t4 74l31 220h-99zM443 748h122l-113 -198h-97z" />
    <glyph glyph-name="Tbar" unicode="&#x166;" horiz-adv-x="574" 
d="M556 404h-150l-56 -404h-126l56 404h-144l11 78h144l16 112h-217l16 114h560l-16 -114h-217l-16 -112h150z" />
    <glyph glyph-name="tbar" unicode="&#x167;" horiz-adv-x="389" 
d="M369 239h-105l-10 -71q-5 -36 5.5 -57t50.5 -21q16 0 35.5 3.5t31.5 11.5l-14 -101q-20 -9 -48 -12.5t-49 -3.5q-48 0 -77 10.5t-43.5 32t-16.5 53.5t4 74l11 81h-75l11 78h75l9 61h-99l14 102h99l19 139h120l-19 -139h132l-14 -102h-132l-9 -61h105z" />
    <glyph glyph-name="Utilde" unicode="&#x168;" horiz-adv-x="722" 
d="M682 260q-9 -64 -38 -115.5t-72.5 -87.5t-98 -55.5t-115.5 -19.5t-110.5 19.5t-82.5 55.5t-47.5 87.5t-5.5 115.5l63 448h126l-62 -444q-4 -26 0 -54.5t19 -52.5t43.5 -39.5t73.5 -15.5t78 15.5t54.5 39.5t33.5 52.5t16 54.5l62 444h126zM288 760q7 24 18 47t26.5 40.5
t36.5 28.5t49 11q20 0 39.5 -6t37.5 -12.5t34 -12.5t28 -6q20 0 32 12.5t20 29.5h66q-8 -24 -18.5 -47t-26 -40.5t-36.5 -28.5t-49 -11q-20 0 -39.5 6t-37.5 13t-34 13t-28 6q-20 0 -32 -13t-20 -30h-66z" />
    <glyph glyph-name="utilde" unicode="&#x169;" horiz-adv-x="574" 
d="M506 0h-114l10 77h-2q-21 -36 -60 -62.5t-99 -26.5q-48 0 -79.5 15.5t-48.5 42t-21.5 60.5t0.5 71l43 303h120l-34 -243q-3 -20 -4.5 -44.5t4 -46t21 -36t47.5 -14.5q30 0 52 10t37.5 27t25 39t12.5 46l37 262h120zM185 568q7 24 18 47t26.5 40.5t36.5 28.5t49 11
q20 0 40 -6t38 -12.5t33.5 -12.5t27.5 -6q20 0 32 12.5t20 29.5h66q-8 -24 -18.5 -47t-26 -40.5t-36.5 -28.5t-49 -11q-20 0 -40 6t-38 13t-33.5 13t-27.5 6q-20 0 -32 -13t-20 -30h-66z" />
    <glyph glyph-name="Umacron" unicode="&#x16a;" horiz-adv-x="722" 
d="M682 260q-9 -64 -38 -115.5t-72.5 -87.5t-98 -55.5t-115.5 -19.5t-110.5 19.5t-82.5 55.5t-47.5 87.5t-5.5 115.5l63 448h126l-62 -444q-4 -26 0 -54.5t19 -52.5t43.5 -39.5t73.5 -15.5t78 15.5t54.5 39.5t33.5 52.5t16 54.5l62 444h126zM627 787h-320l11 78h320z" />
    <glyph glyph-name="umacron" unicode="&#x16b;" horiz-adv-x="574" 
d="M506 0h-114l10 77h-2q-21 -36 -60 -62.5t-99 -26.5q-48 0 -79.5 15.5t-48.5 42t-21.5 60.5t0.5 71l43 303h120l-34 -243q-3 -20 -4.5 -44.5t4 -46t21 -36t47.5 -14.5q30 0 52 10t37.5 27t25 39t12.5 46l37 262h120zM529 595h-320l11 78h320z" />
    <glyph glyph-name="Ubreve" unicode="&#x16c;" horiz-adv-x="722" 
d="M682 260q-9 -64 -38 -115.5t-72.5 -87.5t-98 -55.5t-115.5 -19.5t-110.5 19.5t-82.5 55.5t-47.5 87.5t-5.5 115.5l63 448h126l-62 -444q-4 -26 0 -54.5t19 -52.5t43.5 -39.5t73.5 -15.5t78 15.5t54.5 39.5t33.5 52.5t16 54.5l62 444h126zM380 900q1 -38 28.5 -52
t65.5 -14q43 0 69.5 12t43.5 54h66q-19 -75 -69 -109.5t-122 -34.5t-113 34.5t-36 109.5h67z" />
    <glyph glyph-name="ubreve" unicode="&#x16d;" horiz-adv-x="574" 
d="M506 0h-114l10 77h-2q-21 -36 -60 -62.5t-99 -26.5q-48 0 -79.5 15.5t-48.5 42t-21.5 60.5t0.5 71l43 303h120l-34 -243q-3 -20 -4.5 -44.5t4 -46t21 -36t47.5 -14.5q30 0 52 10t37.5 27t25 39t12.5 46l37 262h120zM285 708q2 -38 29 -52t65 -14q43 0 69.5 12t43.5 54h66
q-18 -74 -68.5 -109t-122.5 -35t-113.5 34.5t-35.5 109.5h67z" />
    <glyph glyph-name="Uring" unicode="&#x16e;" horiz-adv-x="722" 
d="M682 260q-9 -64 -38 -115.5t-72.5 -87.5t-98 -55.5t-115.5 -19.5t-110.5 19.5t-82.5 55.5t-47.5 87.5t-5.5 115.5l63 448h126l-62 -444q-4 -26 0 -54.5t19 -52.5t43.5 -39.5t73.5 -15.5t78 15.5t54.5 39.5t33.5 52.5t16 54.5l62 444h126zM584 837q-6 -45 -40 -73.5
t-79 -28.5t-71 28t-20 73q3 22 13.5 41t26.5 32.5t36 21.5t43 8q45 0 71.5 -28.5t19.5 -73.5zM536 837q3 23 -11.5 38.5t-37.5 15.5t-42.5 -15.5t-22.5 -38.5t12 -38.5t38 -15.5t42 15t22 39z" />
    <glyph glyph-name="uring" unicode="&#x16f;" horiz-adv-x="574" 
d="M506 0h-114l10 77h-2q-21 -36 -60 -62.5t-99 -26.5q-48 0 -79.5 15.5t-48.5 42t-21.5 60.5t0.5 71l43 303h120l-34 -243q-3 -20 -4.5 -44.5t4 -46t21 -36t47.5 -14.5q30 0 52 10t37.5 27t25 39t12.5 46l37 262h120zM481 655q-7 -45 -41 -73.5t-79 -28.5t-71 28.5
t-20 72.5q7 44 41 73.5t79 29.5t71 -28.5t20 -73.5zM433 655q3 23 -12 38.5t-38 15.5t-42 -15.5t-22 -38.5q-4 -23 11 -38.5t38 -15.5t42 15t23 39z" />
    <glyph glyph-name="Uhungarumlaut" unicode="&#x170;" horiz-adv-x="722" 
d="M682 260q-9 -64 -38 -115.5t-72.5 -87.5t-98 -55.5t-115.5 -19.5t-110.5 19.5t-82.5 55.5t-47.5 87.5t-5.5 115.5l63 448h126l-62 -444q-4 -26 0 -54.5t19 -52.5t43.5 -39.5t73.5 -15.5t78 15.5t54.5 39.5t33.5 52.5t16 54.5l62 444h126zM430 900h136l-161 -144h-94z
M635 900h136l-161 -144h-94z" />
    <glyph glyph-name="uhungarumlaut" unicode="&#x171;" horiz-adv-x="574" 
d="M506 0h-114l10 77h-2q-21 -36 -60 -62.5t-99 -26.5q-48 0 -79.5 15.5t-48.5 42t-21.5 60.5t0.5 71l43 303h120l-34 -243q-3 -20 -4.5 -44.5t4 -46t21 -36t47.5 -14.5q30 0 52 10t37.5 27t25 39t12.5 46l37 262h120zM323 708h136l-161 -144h-94zM528 708h136l-161 -144
h-94z" />
    <glyph glyph-name="Uogonek" unicode="&#x172;" horiz-adv-x="722" 
d="M448 -196q-23 -17 -50 -27.5t-55 -10.5q-20 0 -38 5.5t-30.5 17t-19 28t-3.5 38.5q5 34 31.5 68t58.5 60q-57 3 -103.5 23.5t-77.5 56t-44.5 85.5t-4.5 112l63 448h126l-62 -444q-4 -26 0 -54.5t19 -52.5t43.5 -39.5t73.5 -15.5t77.5 15.5t54.5 39.5t34 52.5t16 54.5
l62 444h126l-63 -448q-8 -57 -32 -104.5t-60 -82.5t-82 -57.5t-98 -29.5q-26 -23 -49.5 -52.5t-27.5 -55.5q-2 -19 9.5 -32.5t30.5 -13.5q14 0 29 6t28 15z" />
    <glyph glyph-name="uogonek" unicode="&#x173;" horiz-adv-x="574" 
d="M475 -196q-23 -17 -50 -27.5t-55 -10.5q-20 0 -38 5.5t-30.5 17t-19 28t-3.5 38.5q3 20 14.5 40.5t27.5 39.5t34.5 35.5t36.5 29.5l10 77h-2q-22 -36 -60.5 -62.5t-98.5 -26.5q-48 0 -79.5 15.5t-48.5 42t-21.5 60.5t0.5 71l43 303h120l-34 -243q-3 -20 -4.5 -44.5t4 -46
t21 -36t47.5 -14.5q30 0 52 10t37.5 27t25 39t12.5 46l37 262h120l-67 -480h-52q-13 -11 -28.5 -25.5t-29.5 -31t-24 -33.5t-12 -32q-2 -19 9.5 -32.5t30.5 -13.5q14 0 29 6t28 15z" />
    <glyph glyph-name="Wcircumflex" unicode="&#x174;" horiz-adv-x="981" 
d="M99 708h138l61 -510h2l231 510h124l84 -510h2l211 510h128l-305 -708h-120l-89 539h-2l-239 -539h-116zM665 756l-57 90l-81 -90h-112l135 144h135l94 -144h-114z" />
    <glyph glyph-name="wcircumflex" unicode="&#x175;" horiz-adv-x="796" 
d="M70 480h130l57 -336h2l144 336h130l57 -336h2l147 336h121l-230 -480h-119l-68 328h-2l-147 -328h-124zM543 564l-57 90l-81 -90h-112l135 144h135l94 -144h-114z" />
    <glyph glyph-name="Ycircumflex" unicode="&#x176;" horiz-adv-x="630" 
d="M294 303l-209 405h158l134 -282l216 282h150l-323 -405l-42 -303h-126zM492 756l-57 90l-81 -90h-112l135 144h135l94 -144h-114z" />
    <glyph glyph-name="ycircumflex" unicode="&#x177;" horiz-adv-x="519" 
d="M70 480h132l87 -333h2l167 333h125l-309 -583q-18 -34 -37 -59.5t-42.5 -43t-53 -26t-69.5 -8.5q-48 0 -90 12l30 108q14 -5 28.5 -8.5t30.5 -3.5q22 0 37.5 4t27 12.5t21 22t19.5 32.5l31 57zM416 564l-57 90l-81 -90h-112l135 144h135l94 -144h-114z" />
    <glyph glyph-name="Ydieresis" unicode="&#x178;" horiz-adv-x="630" 
d="M294 303l-209 405h158l134 -282l216 282h150l-323 -405l-42 -303h-126zM251 828q4 29 28.5 50.5t57.5 21.5t53 -20.5t15 -51.5t-30 -51.5t-58 -20.5t-52 21.5t-14 50.5zM457 828q4 29 28.5 50.5t57.5 21.5t53 -20.5t15 -51.5t-30 -51.5t-58 -20.5t-52 21.5t-14 50.5z" />
    <glyph glyph-name="Zacute" unicode="&#x179;" horiz-adv-x="611" 
d="M51 114l445 480h-372l16 114h529l-16 -114l-448 -480h387l-16 -114h-541zM466 900h136l-161 -144h-94z" />
    <glyph glyph-name="zacute" unicode="&#x17a;" horiz-adv-x="482" 
d="M49 111l295 271v2h-245l14 96h390l-15 -109l-299 -275h272l-13 -96h-414zM373 708h136l-161 -144h-94z" />
    <glyph glyph-name="Zdotaccent" unicode="&#x17b;" horiz-adv-x="611" 
d="M51 114l445 480h-372l16 114h529l-16 -114l-448 -480h387l-16 -114h-541zM368 828q4 29 28.5 50.5t57.5 21.5t53 -20.5t15 -51.5t-30 -51.5t-58 -20.5t-52 21.5t-14 50.5z" />
    <glyph glyph-name="zdotaccent" unicode="&#x17c;" horiz-adv-x="482" 
d="M49 111l295 271v2h-245l14 96h390l-15 -109l-299 -275h272l-13 -96h-414zM274 636q4 29 28.5 50.5t57.5 21.5t53 -20.5t15 -51.5t-30 -51.5t-58 -20.5t-51.5 21.5t-14.5 50.5z" />
    <glyph glyph-name="Zcaron" unicode="&#x17d;" horiz-adv-x="611" 
d="M51 114l445 480h-372l16 114h529l-16 -114l-448 -480h387l-16 -114h-541zM365 900l56 -90l82 90h110l-135 -144h-133l-94 144h114z" />
    <glyph glyph-name="zcaron" unicode="&#x17e;" horiz-adv-x="482" 
d="M49 111l295 271v2h-245l14 96h390l-15 -109l-299 -275h272l-13 -96h-414zM273 708l56 -90l82 90h110l-135 -144h-133l-94 144h114z" />
    <glyph glyph-name="florin" unicode="&#x192;" horiz-adv-x="592" 
d="M527 336h-138l-98 -288q-32 -96 -83.5 -141.5t-129.5 -45.5q-26 0 -51.5 6t-46.5 18l57 92q19 -14 45 -14q39 0 59 29.5t36 74.5l91 269h-113l12 90h131l38 111q13 37 30 70.5t41.5 58.5t57.5 39.5t77 14.5q32 0 59 -8t53 -23l-59 -93q-24 16 -52 16q-22 0 -37.5 -9.5
t-26.5 -24t-18.5 -32.5t-13.5 -36l-30 -84h122z" />
    <glyph glyph-name="Scommaaccent" unicode="&#x218;" horiz-adv-x="574" 
d="M504 556q-17 29 -48 42.5t-68 13.5q-22 0 -43.5 -5t-39.5 -16t-30.5 -28.5t-15.5 -41.5q-5 -36 17 -55t57.5 -33t77 -27t76 -36t54 -61t10.5 -101q-8 -57 -35 -99.5t-66.5 -70.5t-88.5 -42t-101 -14q-66 0 -124 22t-95 74l108 92q19 -35 53.5 -54.5t76.5 -19.5
q22 0 44.5 6t42 18t33.5 30.5t18 42.5q5 39 -17 60t-57.5 35.5t-77 27.5t-75.5 35.5t-54 60t-11 100.5q8 55 36 95t68.5 66.5t89.5 39.5t98 13q56 0 106.5 -17t85.5 -56zM214 -60h122l-116 -198h-107z" />
    <glyph glyph-name="scommaaccent" unicode="&#x219;" horiz-adv-x="444" 
d="M372 347q-28 49 -87 49q-12 0 -25 -3t-24 -9t-18.5 -16t-9.5 -23q-3 -22 14.5 -32t45.5 -17t60.5 -14.5t59 -23t42 -42.5t8.5 -74q-6 -43 -28.5 -72.5t-54.5 -47.5t-70 -26t-75 -8q-56 0 -101 16t-76 58l91 75q20 -26 43.5 -42.5t61.5 -16.5q13 0 27.5 3t27.5 10t22 17.5
t11 24.5q4 25 -13.5 37t-45.5 19.5t-60.5 14t-59.5 21t-42.5 40.5t-8.5 72q6 40 26.5 69.5t50.5 48.5t66 28t72 9q48 0 92.5 -16.5t67.5 -56.5zM157 -60h122l-116 -198h-107z" />
    <glyph glyph-name="uni021A" unicode="&#x21a;" horiz-adv-x="574" 
d="M307 594h-217l16 114h560l-16 -114h-217l-83 -594h-126zM243 -60h122l-116 -198h-107z" />
    <glyph glyph-name="uni021B" unicode="&#x21b;" horiz-adv-x="389" 
d="M65 378l14 102h99l19 139h120l-19 -139h132l-14 -102h-132l-30 -210q-5 -36 5.5 -57t50.5 -21q16 0 35.5 3.5t31.5 11.5l-14 -101q-20 -9 -48 -12.5t-49 -3.5q-48 0 -77 10.5t-43.5 32t-16.5 53.5t4 74l31 220h-99zM151 -60h122l-116 -198h-107z" />
    <glyph glyph-name="dotlessj" unicode="&#x237;" 
d="M257 480l-72 -509q-6 -45 -17.5 -83.5t-32.5 -67t-55 -44.5t-85 -16q-17 0 -33 2t-31 7l24 104q20 -5 37 -5q22 0 35.5 9.5t21 24.5t11 33t5.5 35l72 510h120z" />
    <glyph glyph-name="circumflex" unicode="&#x2c6;" 
d="M277 564l-57 90l-81 -90h-112l135 144h135l94 -144h-114z" />
    <glyph glyph-name="caron" unicode="&#x2c7;" 
d="M162 708l56 -90l82 90h110l-135 -144h-133l-94 144h114z" />
    <glyph glyph-name="uni02C9" unicode="&#x2c9;" 
d="M373 595h-320l11 78h320z" />
    <glyph glyph-name="breve" unicode="&#x2d8;" 
d="M126 708q2 -38 29 -52t65 -14q43 0 69.5 12t43.5 54h66q-18 -74 -68.5 -109t-122.5 -35t-113.5 34.5t-35.5 109.5h67z" />
    <glyph glyph-name="dotaccent" unicode="&#x2d9;" 
d="M142 636q4 29 28.5 50.5t57.5 21.5t53 -20.5t15 -51.5t-30 -51.5t-58 -20.5t-51.5 21.5t-14.5 50.5z" />
    <glyph glyph-name="ring" unicode="&#x2da;" 
d="M327 655q-7 -45 -41 -73.5t-79 -28.5t-71 28.5t-20 72.5q7 44 41 73.5t79 29.5t71 -28.5t20 -73.5zM279 655q3 23 -12 38.5t-38 15.5t-42 -15.5t-22 -38.5q-4 -23 11 -38.5t38 -15.5t42 15t23 39z" />
    <glyph glyph-name="ogonek" unicode="&#x2db;" 
d="M174 -196q-23 -17 -50 -27.5t-55 -10.5q-20 0 -37.5 5.5t-30.5 17t-19 28t-3 38.5q3 21 15.5 43t30 41.5t37 37t37.5 29.5h61q-13 -10 -29.5 -25t-31.5 -32.5t-26 -36t-14 -34.5q-2 -19 9.5 -32.5t30.5 -13.5q14 0 29.5 6t27.5 15z" />
    <glyph glyph-name="tilde" unicode="&#x2dc;" 
d="M25 568q7 24 18 47t26.5 40.5t36.5 28.5t49 11q20 0 40 -6t38 -12.5t33.5 -12.5t27.5 -6q20 0 32 12.5t20 29.5h66q-8 -24 -18.5 -47t-26 -40.5t-36.5 -28.5t-49 -11q-20 0 -40 6t-38 13t-33.5 13t-27.5 6q-20 0 -32 -13t-20 -30h-66z" />
    <glyph glyph-name="hungarumlaut" unicode="&#x2dd;" 
d="M178 708h136l-161 -144h-94zM383 708h136l-161 -144h-94z" />
    <glyph glyph-name="uni0394" unicode="&#x394;" horiz-adv-x="685" 
d="M8 0l370 712h115l184 -712h-669zM415 581l-240 -477h358z" />
    <glyph glyph-name="uni03A9" unicode="&#x3a9;" horiz-adv-x="759" 
d="M425 0l26 189q39 7 71 26.5t56 47.5t39 62.5t20 71.5q6 45 -3 84.5t-32.5 69.5t-59 47.5t-81.5 17.5q-47 0 -88 -17.5t-72.5 -47.5t-52.5 -70t-27 -85q-11 -78 19.5 -132.5t105.5 -74.5l-26 -189h-274l14 106h172l5 32q-43 14 -72 40t-45 61t-20 77t2 88q10 69 44 127.5
t84 100.5t113 65.5t131 23.5t124.5 -23t95.5 -64t56.5 -99t7.5 -128q-7 -47 -22.5 -89.5t-41.5 -77.5t-62.5 -61.5t-84.5 -40.5l-5 -32h173l-14 -106h-276z" />
    <glyph glyph-name="uni03BC" unicode="&#x3bc;" horiz-adv-x="574" 
d="M255 480l-34 -243q-3 -20 -4.5 -44.5t4 -46t21 -36t47.5 -14.5q30 0 52 10t37.5 27t25 39t12.5 46l37 262h120l-67 -480h-114l10 77h-2q-21 -36 -60 -62.5t-99 -26.5q-33 0 -54 7l-32 -223h-120l100 708h120z" />
    <glyph glyph-name="pi" unicode="&#x3c0;" horiz-adv-x="593" 
d="M581 13q-22 -10 -48 -15t-49 -5q-33 0 -52.5 10t-28 27.5t-9 41.5t3.5 52l36 254h-183l-53 -378h-117l53 378h-70l14 102h566l-14 -102h-79l-34 -237q-2 -11 -2.5 -21t2 -18.5t9.5 -13.5t21 -5q23 0 46 10z" />
    <glyph glyph-name="endash" unicode="&#x2013;" horiz-adv-x="500" 
d="M527 198h-500l14 96h500z" />
    <glyph glyph-name="emdash" unicode="&#x2014;" horiz-adv-x="1000" 
d="M1027 198h-1000l14 96h1000z" />
    <glyph glyph-name="quoteleft" unicode="&#x2018;" horiz-adv-x="296" 
d="M236 444h-122l122 264h107z" />
    <glyph glyph-name="quoteright" unicode="&#x2019;" horiz-adv-x="296" 
d="M221 708h122l-122 -264h-107z" />
    <glyph glyph-name="quotesinglbase" unicode="&#x201a;" horiz-adv-x="296" 
d="M141 138h122l-122 -264h-107z" />
    <glyph glyph-name="quotedblleft" unicode="&#x201c;" horiz-adv-x="519" 
d="M242 444h-122l122 264h107zM453 444h-122l122 264h107z" />
    <glyph glyph-name="quotedblright" unicode="&#x201d;" horiz-adv-x="519" 
d="M438 708h122l-122 -264h-107zM227 708h122l-122 -264h-107z" />
    <glyph glyph-name="quotedblbase" unicode="&#x201e;" horiz-adv-x="519" 
d="M357 138h122l-122 -264h-107zM148 138h122l-122 -264h-107z" />
    <glyph glyph-name="dagger" unicode="&#x2020;" horiz-adv-x="593" 
d="M423 505h199l-13 -96h-199l-75 -535h-114l75 535h-198l13 96h198l29 203h114z" />
    <glyph glyph-name="daggerdbl" unicode="&#x2021;" horiz-adv-x="593" 
d="M426 523h193l-13 -96h-193l-39 -271h193l-13 -96h-193l-26 -186h-114l26 186h-192l13 96h192l39 271h-192l13 96h192l26 185h114z" />
    <glyph glyph-name="bullet" unicode="&#x2022;" horiz-adv-x="500" 
d="M122 354q5 37 23.5 69t46 56t61.5 38t71 14t67 -14t51 -38t30 -56t4 -69t-23.5 -69t-46 -56t-61.5 -38t-71 -14t-67 14t-51 38t-30 56t-4 69z" />
    <glyph glyph-name="ellipsis" unicode="&#x2026;" horiz-adv-x="1000" 
d="M96 70q5 32 31.5 55t59.5 23q32 0 53 -22t17 -54q-5 -32 -31.5 -55t-59.5 -23q-16 0 -29.5 6t-23.5 16t-14.5 24t-2.5 30zM429 70q5 32 31.5 55t59.5 23q32 0 53 -22t17 -54q-5 -32 -31.5 -55t-59.5 -23q-16 0 -29.5 6t-23.5 16t-14.5 24t-2.5 30zM762 70q5 32 31.5 55
t59.5 23q32 0 53 -22t17 -54q-5 -32 -31.5 -55t-59.5 -23q-16 0 -29.5 6t-23.5 16t-14.5 24t-2.5 30z" />
    <glyph glyph-name="perthousand" unicode="&#x2030;" horiz-adv-x="1167" 
d="M434 165q5 36 23 68t45.5 56t61.5 38t70 14t66.5 -14t51.5 -38t30.5 -56t4.5 -68t-23.5 -68.5t-46 -56.5t-62 -38t-70.5 -14t-66.5 14t-51 38t-29.5 56.5t-4 68.5zM830 165q5 36 23 68t45.5 56t61.5 38t70 14t66.5 -14t51.5 -38t30.5 -56t4.5 -68t-23.5 -68.5t-46 -56.5
t-62 -38t-70.5 -14t-66.5 14t-51 38t-29.5 56.5t-4 68.5zM83 544q5 36 23.5 68t46 56t61.5 38t70 14t66.5 -14t51 -38t30 -56t4.5 -68t-23.5 -68.5t-46 -56.5t-62 -38t-70.5 -14t-66.5 14t-51 38t-29.5 56.5t-4 68.5zM173 544q-5 -38 15.5 -62.5t58.5 -24.5t66 24.5t33 62.5
t-16 62t-59 24t-65.5 -24t-32.5 -62zM524 165q-5 -38 15 -62.5t58 -24.5t66.5 24.5t33.5 62.5t-16 62t-59 24t-65.5 -24t-32.5 -62zM920 165q-5 -38 15 -62.5t58 -24.5t66.5 24.5t33.5 62.5t-16 62t-59 24t-65.5 -24t-32.5 -62zM654 740l77 -38l-519 -734l-78 38z" />
    <glyph glyph-name="guilsinglleft" unicode="&#x2039;" horiz-adv-x="296" 
d="M176 248l92 -175l-83 -51l-121 226l184 224l68 -51z" />
    <glyph glyph-name="guilsinglright" unicode="&#x203a;" horiz-adv-x="296" 
d="M188 246l-91 175l83 51l120 -226l-183 -224l-68 51z" />
    <glyph glyph-name="fraction" unicode="&#x2044;" horiz-adv-x="167" 
d="M354 740l77 -38l-518 -734l-78 38z" />
    <glyph glyph-name="Euro" unicode="&#x20ac;" horiz-adv-x="610" 
d="M587 25q-32 -19 -80 -31t-102 -12q-68 0 -118 19t-83 52t-51 76.5t-23 92.5h-84l40 86h45q0 5 0.5 11t1.5 11l3 22q2 12 4 24.5t6 23.5h-72l42 86h55q22 55 57.5 99t80.5 75.5t99 48.5t114 17q48 0 89 -9.5t66 -23.5l-52 -100q-21 14 -54 21t-70 7q-30 0 -61.5 -9
t-59.5 -26t-51 -42t-37 -58h288l-40 -86h-279q-3 -11 -5.5 -23t-4.5 -26l-3 -21q-1 -6 -1 -11.5v-10.5h256l-39 -86h-214q3 -28 16.5 -52.5t36 -42.5t53 -28.5t68.5 -10.5q74 0 136 33z" />
    <glyph glyph-name="afii61289" unicode="&#x2113;" horiz-adv-x="500" 
d="M449 49q-81 -63 -166 -63q-72 0 -107.5 38.5t-26.5 102.5l9 64l-63 -52h-2l-33 63l111 85l34 244q6 42 23.5 76.5t43 60t57.5 39.5t68 14q63 0 94.5 -38.5t22.5 -104.5q-11 -76 -67 -151t-162 -159l-17 -122q-3 -21 1 -35.5t12 -23t19 -12t23 -3.5q40 0 93 38h2zM418 570
q4 31 -5 52t-28 21t-36.5 -23.5t-23.5 -66.5l-26 -185q54 51 83 102.5t36 99.5z" />
    <glyph glyph-name="trademark" unicode="&#x2122;" horiz-adv-x="1000" 
d="M248 618h-122l13 90h346l-13 -90h-122l-45 -322h-102zM579 708h142l60 -268l136 268h142l-58 -412h-102l38 268h-2l-139 -268h-70l-63 268h-2l-38 -268h-102z" />
    <glyph glyph-name="Omega" unicode="&#x2126;" horiz-adv-x="759" 
d="M425 0l26 189q39 7 71 26.5t56 47.5t39 62.5t20 71.5q6 45 -3 84.5t-32.5 69.5t-59 47.5t-81.5 17.5q-47 0 -88 -17.5t-72.5 -47.5t-52.5 -70t-27 -85q-11 -78 19.5 -132.5t105.5 -74.5l-26 -189h-274l14 106h172l5 32q-43 14 -72 40t-45 61t-20 77t2 88q10 69 44 127.5
t84 100.5t113 65.5t131 23.5t124.5 -23t95.5 -64t56.5 -99t7.5 -128q-7 -47 -22.5 -89.5t-41.5 -77.5t-62.5 -61.5t-84.5 -40.5l-5 -32h173l-14 -106h-276z" />
    <glyph glyph-name="estimated" unicode="&#x212e;" horiz-adv-x="500" 
d="M157 259v-181q59 -59 145 -59q63 0 109 28.5t84 91.5l35 -21q-23 -36 -46.5 -61.5t-51 -42t-59.5 -24t-71 -7.5q-59 0 -106.5 21.5t-81.5 59t-52 87.5t-18 108t18 108.5t52 87.5t81.5 58.5t106.5 21.5q58 0 105.5 -20.5t81.5 -57t53 -87t19 -111.5h-404zM448 295v145
q-63 60 -147 60t-144 -60v-145h291z" />
    <glyph glyph-name="partialdiff" unicode="&#x2202;" horiz-adv-x="556" 
d="M564 358q-9 -64 -28.5 -130t-55 -119.5t-90 -87.5t-133.5 -34q-50 0 -88 17.5t-62.5 48t-34 72t-2.5 90.5q7 48 28 88.5t53.5 70t75 46t90.5 16.5q42 0 74 -14.5t61 -40.5l4 28q6 36 4.5 75.5t-14 72.5t-39 55t-70.5 22q-35 0 -67 -13.5t-62 -35.5l-49 70q46 32 88 49
t96 17q78 0 125.5 -32t71.5 -84t28.5 -116.5t-4.5 -130.5zM437 289q-22 29 -48.5 46.5t-68.5 17.5q-31 0 -55.5 -12t-42.5 -31.5t-29 -46t-15 -54.5q-4 -27 -1 -52t14 -44t31 -30.5t50 -11.5q35 0 63.5 19t49.5 47.5t34 62.5t16 64z" />
    <glyph glyph-name="Delta" unicode="&#x2206;" horiz-adv-x="685" 
d="M8 0l370 712h115l184 -712h-669zM415 581l-240 -477h358z" />
    <glyph glyph-name="product" unicode="&#x220f;" horiz-adv-x="741" 
d="M565 -214v897h-389v-897h-114v1000h617v-1000h-114z" />
    <glyph glyph-name="summation" unicode="&#x2211;" horiz-adv-x="648" 
d="M25 -214v89l303 417l-290 405v89h573v-103h-422l275 -390l-293 -404h453v-103h-599z" />
    <glyph glyph-name="minus" unicode="&#x2212;" horiz-adv-x="666" 
d="M653 354l-14 -102h-542l14 102h542z" />
    <glyph glyph-name="uni2215" unicode="&#x2215;" horiz-adv-x="167" 
d="M354 740l77 -38l-518 -734l-78 38z" />
    <glyph glyph-name="uni2219" unicode="&#x2219;" horiz-adv-x="296" 
d="M108 291q5 32 31.5 55t59.5 23q32 0 53 -22t17 -54q-5 -32 -31.5 -55t-59.5 -23q-16 0 -29.5 6t-23.5 16t-14.5 24t-2.5 30z" />
    <glyph glyph-name="radical" unicode="&#x221a;" horiz-adv-x="537" 
d="M338 -214h-106l-152 317l-51 -25l-41 90l148 68l129 -273l168 823h116z" />
    <glyph glyph-name="infinity" unicode="&#x221e;" horiz-adv-x="815" 
d="M770 263q0 -38 -11.5 -71t-33.5 -58t-53 -39t-71 -14q-31 0 -58 9.5t-50.5 25t-44.5 35.5t-40 42q-21 -22 -41.5 -42t-43 -35.5t-49 -24.5t-58.5 -9q-39 0 -71 14t-54 38t-34 57t-12 71q0 37 11.5 70t33 57t52.5 38t70 14q33 0 60.5 -10t51 -26.5t44 -38t40.5 -44.5
q19 23 39.5 44.5t44 38.5t51 27t59.5 10q39 0 70 -14t53 -38t33.5 -57t11.5 -70zM680 260q0 36 -21 61t-59 25q-20 0 -38.5 -8.5t-36 -21.5t-33 -28.5t-27.5 -28.5q13 -15 28 -29.5t32.5 -26t37 -19t40.5 -7.5q37 0 57 24t20 59zM350 259q-12 13 -28 28t-34 28t-37.5 21.5
t-38.5 8.5q-35 0 -56 -25.5t-21 -59.5q0 -37 21.5 -59.5t58.5 -22.5q19 0 38 7.5t36.5 19t33 26t27.5 28.5z" />
    <glyph glyph-name="integral" unicode="&#x222b;" horiz-adv-x="611" 
d="M486 709q0 -23 -14.5 -37.5t-37.5 -14.5q-24 0 -34.5 11.5t-16 25t-10 25t-15.5 11.5t-13.5 -9t-2.5 -17q0 -31 2 -61t2 -61v-589q0 -38 -5 -75t-20 -66.5t-43.5 -48t-75.5 -18.5q-18 0 -37.5 4t-36 13t-27 23.5t-10.5 35.5q0 23 15 38t38 15q24 0 34.5 -11.5t16 -25
t9.5 -25t14 -11.5q8 0 11.5 5.5t5 13t1 15t-0.5 12.5q0 26 -2 51t-2 51v506q0 28 -0.5 60.5t1.5 65t9.5 62.5t23.5 53t43 36.5t68 13.5q17 0 36.5 -4.5t36 -13.5t27 -23.5t10.5 -35.5z" />
    <glyph glyph-name="approxequal" unicode="&#x2248;" horiz-adv-x="666" 
d="M665 451q-8 -33 -21.5 -64t-35 -55t-50.5 -38.5t-66 -14.5q-30 0 -64 11t-67.5 23.5t-63 23.5t-49.5 11q-28 0 -46.5 -22.5t-26.5 -46.5h-71q7 31 21 62t35 55.5t49.5 40t64.5 15.5q31 0 62.5 -10.5t63 -22.5t62.5 -22.5t61 -10.5q28 0 45 20t26 45h71zM634 243
q-8 -33 -22 -64t-35 -55t-50 -38.5t-66 -14.5q-30 0 -64 11t-67 23.5t-62.5 23.5t-50.5 11q-28 0 -46.5 -22t-26.5 -46h-71q7 31 21 62t35 55.5t49.5 39.5t64.5 15q31 0 62.5 -10.5t63 -22.5t62.5 -22.5t61 -10.5q28 0 45 20t26 45h71z" />
    <glyph glyph-name="notequal" unicode="&#x2260;" horiz-adv-x="666" 
d="M344 162l-94 -144l-82 45l64 99h-130l15 102h181l49 78h-219l14 102h270l92 143l84 -44l-65 -99h125l-14 -102h-176l-49 -78h214l-15 -102h-264z" />
    <glyph glyph-name="lessequal" unicode="&#x2264;" horiz-adv-x="666" 
d="M123 314l15 108l531 177l-16 -113l-376 -118l343 -112l-15 -112zM79 4l15 107h506l-15 -107h-506z" />
    <glyph glyph-name="greaterequal" unicode="&#x2265;" horiz-adv-x="666" 
d="M114 256l375 112l-342 118l16 113l481 -177l-15 -108l-530 -170zM94 111h506l-15 -107h-506z" />
    <glyph glyph-name="lozenge" unicode="&#x25ca;" horiz-adv-x="593" 
d="M346 -35h-100l-177 391l177 391h100l178 -391zM296 641l-118 -285l118 -286l119 286z" />
    <glyph glyph-name="grave.cap" unicode="&#xe300;" 
d="M283 756h-94l-121 144h136z" />
    <glyph glyph-name="acute.cap" unicode="&#xe301;" 
d="M308 900h136l-161 -144h-94z" />
    <glyph glyph-name="circumflex.cap" unicode="&#xe302;" 
d="M304 756l-57 90l-81 -90h-112l135 144h135l94 -144h-114z" />
    <glyph glyph-name="caron.cap" unicode="&#xe303;" 
d="M189 900l56 -90l82 90h110l-135 -144h-133l-94 144h114z" />
    <glyph glyph-name="tilde.cap" unicode="&#xe304;" 
d="M52 760q7 24 18 47t26.5 40.5t36.5 28.5t49 11q20 0 39.5 -6t37.5 -12.5t34 -12.5t28 -6q20 0 32 12.5t20 29.5h66q-8 -24 -18.5 -47t-26 -40.5t-36.5 -28.5t-49 -11q-20 0 -39.5 6t-37.5 13t-34 13t-28 6q-20 0 -32 -13t-20 -30h-66z" />
    <glyph glyph-name="dieresis.cap" unicode="&#xe305;" 
d="M66 828q4 29 28.5 50.5t57.5 21.5t53 -20.5t15 -51.5t-30 -51.5t-58 -20.5t-52 21.5t-14 50.5zM272 828q4 29 28.5 50.5t57.5 21.5t53 -20.5t15 -51.5t-30 -51.5t-58 -20.5t-52 21.5t-14 50.5z" />
    <glyph glyph-name="macron.cap" unicode="&#xe306;" 
d="M400 787h-320l11 78h320z" />
    <glyph glyph-name="breve.cap" unicode="&#xe307;" 
d="M153 900q1 -38 28.5 -52t65.5 -14q43 0 69.5 12t43.5 54h66q-19 -75 -69 -109.5t-122 -34.5t-113 34.5t-36 109.5h67z" />
    <glyph glyph-name="ring.cap" unicode="&#xe308;" 
d="M352 837q-6 -45 -40 -73.5t-79 -28.5t-71 28t-20 73q3 22 13.5 41t26.5 32.5t36 21.5t43 8q45 0 71.5 -28.5t19.5 -73.5zM304 837q3 23 -11.5 38.5t-37.5 15.5t-42.5 -15.5t-22.5 -38.5t12 -38.5t38 -15.5t42 15t22 39z" />
    <glyph glyph-name="hungarumlaut.cap" unicode="&#xe309;" 
d="M205 900h136l-161 -144h-94zM410 900h136l-161 -144h-94z" />
    <glyph glyph-name="dotaccent.cap" unicode="&#xe30a;" 
d="M169 828q4 29 28.5 50.5t57.5 21.5t53 -20.5t15 -51.5t-30 -51.5t-58 -20.5t-52 21.5t-14 50.5z" />
    <glyph glyph-name="commaaccent" unicode="&#xe30c;" 
d="M92 -60h122l-116 -198h-107z" />
    <glyph glyph-name="commaaccent.alt" unicode="&#xe30d;" 
d="M239 584h-122l115 198h107z" />
    <glyph glyph-name="uniF8FF" unicode="&#xf8ff;" horiz-adv-x="512" 
d="M222 117v67h56v-67h-56zM225 234l-2 17q0 56 13 81q7 13 18 27.5t28 31.5q32 30 41 47.5t9 35.5q0 36 -22.5 60.5t-53.5 24.5t-53.5 -22t-28.5 -73l-50 8q7 72 44 104.5t91 32.5t89 -35.5t35 -95.5q0 -32 -12.5 -58.5t-50.5 -61.5q-37 -33 -43 -52q-6 -20 -6 -72h-46z
M462 50v617h-412v-617h412zM512 718v-718h-512v718h512z" />
    <glyph glyph-name="fi" unicode="&#xfb01;" horiz-adv-x="593" 
d="M164 378h-99l14 102h99l10 68q7 50 19.5 90.5t36 69.5t60.5 44.5t93 15.5q41 0 75 -7l-22 -102q-12 3 -24 5t-25 2q-25 0 -41.5 -8t-26.5 -21.5t-15 -31.5t-8 -38l-12 -87h111l-14 -102h-111l-53 -378h-120zM487 480h120l-67 -480h-120zM494 643q4 29 28.5 50.5
t57.5 21.5t53 -20.5t15 -51.5t-30 -51.5t-58 -20.5t-51.5 21.5t-14.5 50.5z" />
    <glyph glyph-name="fl" unicode="&#xfb02;" horiz-adv-x="593" 
d="M164 378h-99l14 102h99l10 68q7 50 19.5 90.5t36 69.5t60.5 44.5t93 15.5q41 0 75 -7l-22 -102q-12 3 -24 5t-25 2q-25 0 -41.5 -8t-26.5 -21.5t-15 -31.5t-8 -38l-12 -87h111l-14 -102h-111l-53 -378h-120zM526 756h120l-106 -756h-120z" />
    <glyph glyph-name="caron.alt" 
d="M207 708h122l-113 -198h-97z" />
    </font>
</defs>
</svg>
