<?xml version="1.0" standalone="no"?>
<!DOCTYPE svg PUBLIC "-//W3C//DTD SVG 1.1//EN" "http://www.w3.org/Graphics/SVG/1.1/DTD/svg11.dtd" >
<svg xmlns="http://www.w3.org/2000/svg" xmlns:xlink="http://www.w3.org/1999/xlink" version="1.1">
<metadata>
Created by FontForge 20161003 at Thu Aug 23 13:49:14 2018
 By www-data
Copyright(c) 2007 Linotype GmbH, www.linotype.com. All rights reserved.
</metadata>
<defs>
<font id="AvenirLightOblique" horiz-adv-x="240" >
  <font-face 
    font-family="AvenirLightOblique"
    font-weight="300"
    font-style="oblique"
    font-stretch="normal"
    units-per-em="1000"
    panose-1="2 11 4 2 2 2 3 9 2 4"
    ascent="800"
    descent="-200"
    x-height="462"
    cap-height="708"
    bbox="-167 -250 1038 936"
    underline-thickness="50"
    underline-position="-150"
    slope="-8"
    unicode-range="U+000D-FB02"
  />
<missing-glyph horiz-adv-x="512" 
d="M222 117v67h56v-67h-56zM225 234l-2 17q0 56 13 81q7 13 18 27.5t28 31.5q32 30 41 47.5t9 35.5q0 36 -22.5 60.5t-53.5 24.5t-53.5 -22t-28.5 -73l-50 8q7 72 44 104.5t91 32.5t89 -35.5t35 -95.5q0 -32 -12.5 -58.5t-50.5 -61.5q-37 -33 -43 -52q-6 -20 -6 -72h-46z
M462 50v617h-412v-617h412zM512 718v-718h-512v718h512z" />
    <glyph glyph-name=".notdef" horiz-adv-x="512" 
d="M222 117v67h56v-67h-56zM225 234l-2 17q0 56 13 81q7 13 18 27.5t28 31.5q32 30 41 47.5t9 35.5q0 36 -22.5 60.5t-53.5 24.5t-53.5 -22t-28.5 -73l-50 8q7 72 44 104.5t91 32.5t89 -35.5t35 -95.5q0 -32 -12.5 -58.5t-50.5 -61.5q-37 -33 -43 -52q-6 -20 -6 -72h-46z
M462 50v617h-412v-617h412zM512 718v-718h-512v718h512z" />
    <glyph glyph-name=".null" horiz-adv-x="0" 
 />
    <glyph glyph-name="nonmarkingreturn" unicode="&#xd;" horiz-adv-x="0" 
 />
    <glyph glyph-name="space" unicode=" " horiz-adv-x="260" 
 />
    <glyph glyph-name="exclam" unicode="!" horiz-adv-x="370" 
d="M241 186h-60l73 522h60zM142 42q3 20 19 34t36 14t32 -14t9 -34q-2 -20 -18 -34t-36 -14t-32 14t-10 34z" />
    <glyph glyph-name="quotedbl" unicode="&#x22;" horiz-adv-x="520" 
d="M260 708h60l-32 -228h-60zM398 708h60l-32 -228h-60z" />
    <glyph glyph-name="numbersign" unicode="#" horiz-adv-x="520" 
d="M153 229h-108l6 48h115l44 156h-108l7 48h115l62 227h52l-63 -227h139l63 227h52l-63 -227h108l-7 -48h-115l-43 -156h108l-6 -48h-115l-62 -229h-52l62 229h-139l-62 -229h-52zM400 433h-138l-43 -156h138z" />
    <glyph glyph-name="dollar" unicode="$" horiz-adv-x="520" 
d="M286 42q28 1 54 12.5t46.5 30.5t34 44.5t18.5 55.5q2 15 0.5 31t-9.5 31t-23.5 28t-41.5 23l-40 16zM326 666q-24 -4 -47 -15t-42 -28.5t-32.5 -41t-17.5 -51.5q-4 -26 1 -45.5t16.5 -34.5t29 -25.5t39.5 -18.5l16 -6zM231 -12q-27 0 -54 6.5t-51.5 20t-45 33t-34.5 45.5
l62 39q18 -41 53 -64.5t77 -25.5l41 290l-67 26q-35 13 -55 35t-29 46t-9.5 47t1.5 40q6 42 27.5 76.5t51.5 59.5t65.5 40t69.5 18l9 67h48l-9 -67q25 0 49 -3.5t46 -13.5t41.5 -27.5t35.5 -44.5l-60 -40q-19 36 -51.5 55.5t-68.5 19.5l-40 -282l67 -24q21 -8 42 -22
t36.5 -35.5t23 -51.5t1.5 -70q-6 -43 -27.5 -77.5t-52.5 -59.5t-68.5 -39.5t-76.5 -16.5l-10 -67h-48z" />
    <glyph glyph-name="percent" unicode="%" horiz-adv-x="815" 
d="M718 742l42 -28l-562 -748l-41 28zM115 548q5 36 23 67t44.5 54.5t59.5 37t69 13.5t65 -13.5t49.5 -37t29.5 -54.5t4 -67t-23 -67t-45 -54.5t-60 -37t-69 -13.5t-65 13.5t-49 37t-29 54.5t-4 67zM169 548q-4 -25 2.5 -46.5t20 -37.5t34 -25t44.5 -9t47 9t41 25t30.5 37.5
t16.5 46.5q3 25 -3 46.5t-20 37.5t-34.5 25t-44.5 9t-47 -9t-41 -25t-30.5 -37.5t-15.5 -46.5zM455 160q5 36 23 67t44.5 54.5t59.5 37t69 13.5t65 -13.5t49.5 -37t29.5 -54.5t4 -67t-23 -67t-44.5 -54.5t-59.5 -37t-69 -13.5t-65 13.5t-49.5 37t-29.5 54.5t-4 67zM509 160
q-3 -25 3 -46.5t19.5 -37.5t34 -25t44.5 -9t47 9t41.5 25t31 37.5t15.5 46.5t-3 46.5t-19.5 37.5t-34 25t-44.5 9t-47 -9t-41.5 -25t-31 -37.5t-15.5 -46.5z" />
    <glyph glyph-name="ampersand" unicode="&#x26;" horiz-adv-x="704" 
d="M515 206l128 184h68l-159 -226l137 -169h-89l-90 114q-51 -58 -107.5 -92.5t-130.5 -34.5q-45 0 -82.5 14.5t-63 41.5t-37 65t-4.5 85q6 41 24 72t44 55t58 43.5t65 38.5q-12 18 -24.5 37.5t-22 40.5t-14 43.5t-1.5 46.5q5 38 24 68t46.5 50.5t61.5 31.5t69 11
q31 0 58.5 -11t47 -30.5t28.5 -47t4 -61.5q-5 -38 -22.5 -66t-43 -50t-56 -39t-62.5 -33zM401 666q-22 0 -42.5 -7.5t-37 -20.5t-27.5 -31.5t-14 -40.5q-3 -18 2 -37t14 -37t20.5 -34t20.5 -29q22 11 47 24t46.5 30t37 38.5t19.5 49.5q6 42 -18.5 68.5t-67.5 26.5zM308 355
q-26 -14 -52 -30t-47.5 -35.5t-37.5 -44t-20 -55.5q-5 -34 4 -61t27.5 -46.5t46.5 -30t61 -10.5q28 0 54 9t49.5 24t44 34.5t38.5 41.5z" />
    <glyph glyph-name="quotesingle" unicode="'" horiz-adv-x="260" 
d="M199 708h60l-32 -228h-60z" />
    <glyph glyph-name="parenleft" unicode="(" horiz-adv-x="260" 
d="M346 700q-39 -41 -70.5 -91.5t-55 -104.5t-39.5 -109t-23 -107q-8 -59 -7 -112.5t10.5 -104.5t27 -99.5t41.5 -97.5l-51 -30q-28 48 -47 102.5t-29.5 111.5t-11.5 115t7 115q17 119 69.5 235t131.5 209z" />
    <glyph glyph-name="parenright" unicode=")" horiz-adv-x="260" 
d="M-5 -124q38 41 69.5 91t55 104t39.5 109.5t23 107.5q8 58 7 112t-10.5 105t-27 99.5t-41.5 97.5l51 30q28 -48 47 -102.5t29.5 -111.5t11.5 -115t-7 -115q-17 -119 -69.5 -235t-131.5 -209z" />
    <glyph glyph-name="asterisk" unicode="*" horiz-adv-x="444" 
d="M325 556l150 48l9 -48l-151 -47l74 -122l-41 -29l-77 125l-106 -125l-36 29l108 122l-139 50l20 45l141 -48l21 152h48z" />
    <glyph glyph-name="plus" unicode="+" horiz-adv-x="666" 
d="M123 327h231l33 231h48l-33 -231h231l-6 -48h-231l-33 -231h-48l33 231h-231z" />
    <glyph glyph-name="comma" unicode="," horiz-adv-x="260" 
d="M128 90h70l-109 -228h-59z" />
    <glyph glyph-name="hyphen" unicode="-" horiz-adv-x="333" 
d="M80 264h247l-8 -54h-247z" />
    <glyph glyph-name="period" unicode="." horiz-adv-x="260" 
d="M87 42q3 20 19 34t36 14t32 -14t9 -34q-2 -20 -18 -34t-36 -14t-32 14t-10 34z" />
    <glyph glyph-name="slash" unicode="/" horiz-adv-x="370" 
d="M417 744l50 -18l-411 -762l-50 18z" />
    <glyph glyph-name="zero" unicode="0" horiz-adv-x="520" 
d="M75 354q6 38 15.5 80.5t24.5 83t36.5 77t51.5 64.5t69 44.5t89 16.5t84 -16.5t56.5 -44.5t33.5 -64.5t14.5 -77t1 -83t-7.5 -80.5q-5 -39 -14.5 -81t-24.5 -82.5t-36.5 -77t-51.5 -64.5t-69 -44.5t-89 -16.5t-84 16.5t-56.5 44.5t-33.5 64.5t-15 77t-1.5 82.5t7.5 81z
M141 354q-4 -28 -6.5 -61.5t-1.5 -68t8 -67.5t22 -58.5t39.5 -41t62.5 -15.5q37 0 66.5 15.5t52 41t38.5 58.5t27 67.5t17.5 68t10.5 61.5q4 27 7 61t1.5 68.5t-8.5 67.5t-22 58.5t-40 41t-62 15.5t-66.5 -15.5t-51.5 -41t-38 -58.5t-27 -67.5t-18 -68.5t-11 -61z" />
    <glyph glyph-name="one" unicode="1" horiz-adv-x="520" 
d="M348 624h-1l-143 -105l-30 46l195 143h51l-99 -708h-60z" />
    <glyph glyph-name="two" unicode="2" horiz-adv-x="520" 
d="M50 70l306 281q20 18 41 38.5t38.5 43t30.5 47.5t17 54q8 62 -27 97t-96 35q-55 0 -97.5 -32t-60.5 -84l-69 7q29 82 92.5 122.5t145.5 40.5q41 0 76 -12.5t60 -35.5t36.5 -56.5t5.5 -76.5q-6 -41 -23.5 -76t-42 -66.5t-55 -59.5t-61.5 -56l-253 -227h372l-7 -54h-438z
" />
    <glyph glyph-name="three" unicode="3" horiz-adv-x="520" 
d="M126 148q13 -51 43.5 -78.5t90.5 -27.5q39 0 70.5 12t54.5 33t36.5 49t18.5 60q6 39 -7 67t-37 45.5t-56 25.5t-66 8h-26l8 60h30q28 0 57.5 7.5t54 23.5t42.5 41.5t23 61.5q8 57 -22.5 93.5t-90.5 36.5q-44 0 -82 -22.5t-64 -60.5l-52 32q37 55 91 80t115 25
q40 0 74.5 -11.5t58 -34t34 -56.5t4.5 -80q-8 -58 -46.5 -102.5t-102.5 -61.5v-2q33 -6 58.5 -22.5t42 -40.5t23 -54t1.5 -64q-6 -42 -24.5 -79t-50 -64.5t-74.5 -43.5t-98 -16q-80 0 -131 33.5t-69 105.5z" />
    <glyph glyph-name="four" unicode="4" horiz-adv-x="520" 
d="M353 174h-306l10 71l348 463h83l-67 -480h108l-8 -54h-108l-24 -174h-60zM419 642h-2l-308 -414h252z" />
    <glyph glyph-name="five" unicode="5" horiz-adv-x="520" 
d="M542 654h-292l-34 -225q25 12 52.5 16t53.5 4q51 0 89 -18.5t62 -50.5t33.5 -74.5t2.5 -90.5q-8 -57 -35 -100t-63.5 -71t-78.5 -42t-81 -14q-78 0 -126 32t-69 88l66 31q6 -20 19 -37.5t31 -31t40 -21t46 -7.5t53.5 10.5t56.5 31.5t47.5 53t26.5 74q5 38 -4 71.5
t-29 58.5t-50.5 39.5t-68.5 14.5t-76 -13.5t-71 -34.5l57 361h350z" />
    <glyph glyph-name="six" unicode="6" horiz-adv-x="520" 
d="M223 396h2q20 15 51.5 22.5t57.5 7.5q47 0 84.5 -17t62.5 -46.5t35.5 -69t4.5 -85.5q-7 -48 -30 -88.5t-58 -69.5t-80 -45.5t-95 -16.5t-90.5 16.5t-67 45.5t-38.5 69.5t-5 88.5q8 56 36 101t54 80l237 319h76zM312 374q-35 0 -67 -13t-57.5 -35.5t-42.5 -53t-22 -64.5
q-5 -37 2.5 -67.5t26.5 -52.5t47.5 -34t65.5 -12t69 12t57.5 34t42 52.5t21.5 67.5q5 34 -4 64.5t-28.5 53t-48 35.5t-62.5 13z" />
    <glyph glyph-name="seven" unicode="7" horiz-adv-x="520" 
d="M534 654l-373 -654h-67l378 654h-340l8 54h402z" />
    <glyph glyph-name="eight" unicode="8" horiz-adv-x="520" 
d="M141 536q6 41 25.5 75t49 58t67 37.5t78.5 13.5t74.5 -13.5t56 -37.5t33 -58t4.5 -75q-3 -25 -14.5 -49.5t-29.5 -46t-41 -37.5t-50 -23v-1q33 -7 56 -24.5t37 -42t18.5 -54t0.5 -61.5q-7 -48 -29 -86.5t-55 -65.5t-75 -42t-89 -15t-85 15t-63.5 42t-37 65.5t-4.5 86.5
q4 32 17.5 61.5t34.5 54t49 42t63 24.5v1q-25 7 -43.5 23t-30 37.5t-16 46t-1.5 49.5zM207 536q-4 -27 2 -50.5t20.5 -41t36.5 -28t51 -10.5q28 0 53 10.5t44.5 28t32 41t16.5 50.5q8 59 -23.5 94.5t-86.5 35.5q-27 0 -52 -9.5t-44.5 -26.5t-32.5 -41t-17 -53zM134 197
q-5 -32 2 -60t24 -49t43.5 -33.5t61.5 -12.5t65 12.5t53 33.5t37.5 49t19.5 60q5 35 -3 63.5t-26 49t-44 31.5t-58 11t-61.5 -11t-53 -31.5t-39.5 -49t-21 -63.5z" />
    <glyph glyph-name="nine" unicode="9" horiz-adv-x="520" 
d="M395 312h-2q-20 -15 -51.5 -22.5t-57.5 -7.5q-47 0 -84.5 17t-62 46.5t-35 69t-4.5 85.5q7 48 30 88.5t58 69.5t80 45.5t95 16.5t90.5 -16.5t67 -45.5t38.5 -69.5t5 -88.5q-4 -28 -14 -53t-22.5 -47.5t-27 -42.5t-27.5 -38l-236 -319h-76zM306 334q34 0 66.5 13t58 35.5
t43 52.5t22.5 65q5 37 -3 67.5t-26.5 52.5t-47.5 34t-66 12t-69 -12t-57 -34t-41.5 -52.5t-21.5 -67.5q-5 -35 3.5 -65t28 -52.5t47.5 -35.5t63 -13z" />
    <glyph glyph-name="colon" unicode=":" horiz-adv-x="260" 
d="M141 420q2 20 18 34t36 14t32 -14t10 -34q-3 -20 -19 -34t-36 -14t-32 14t-9 34zM87 42q3 20 19 34t36 14t32 -14t9 -34q-2 -20 -18 -34t-36 -14t-32 14t-10 34z" />
    <glyph glyph-name="semicolon" unicode=";" horiz-adv-x="260" 
d="M128 90h70l-109 -228h-59zM141 420q2 20 18 34t36 14t32 -14t10 -34q-3 -20 -19 -34t-36 -14t-32 14t-9 34z" />
    <glyph glyph-name="less" unicode="&#x3c;" horiz-adv-x="666" 
d="M655 511l-477 -208l419 -208l-7 -50l-469 234l6 48l535 234z" />
    <glyph glyph-name="equal" unicode="=" horiz-adv-x="666" 
d="M134 399h510l-7 -48h-510zM113 255h510l-6 -48h-510z" />
    <glyph glyph-name="greater" unicode="&#x3e;" horiz-adv-x="666" 
d="M95 95l477 208l-419 208l7 50l469 -234l-6 -48l-535 -234z" />
    <glyph glyph-name="question" unicode="?" horiz-adv-x="463" 
d="M241 270q5 33 20 58t35.5 45t43 38t43 38.5t35 44.5t19.5 57q8 54 -18.5 87.5t-81.5 33.5q-53 0 -91.5 -32t-55.5 -84l-64 8q12 38 33.5 68t50 51t63 32t71.5 11q39 0 71 -11.5t53.5 -33.5t31 -54t3.5 -73q-6 -42 -22 -71t-37 -51t-44.5 -40.5t-44.5 -38t-36 -44
t-20 -59.5l-9 -64h-60zM192 42q3 20 19 34t36 14t32 -14t9 -34q-2 -20 -18 -34t-36 -14t-32 14t-10 34z" />
    <glyph glyph-name="at" unicode="@" horiz-adv-x="800" 
d="M293 280q-6 -42 13 -68.5t58 -26.5q35 0 69 23t61.5 57.5t46 74t23.5 72.5q7 48 -8.5 75t-57.5 27q-38 0 -73 -23t-62.5 -58t-46 -76t-23.5 -77zM561 259q-16 -34 -18 -48q-1 -8 2.5 -17t20.5 -9q26 0 57.5 22t60 56.5t50 77.5t27.5 85q8 56 -9 102.5t-52 79.5t-84 51.5
t-105 18.5q-68 0 -130 -26.5t-111 -71t-81.5 -103t-41.5 -122.5q-9 -67 7.5 -126t54 -103.5t92.5 -70t121 -25.5q37 0 75.5 10t74 27.5t67 41.5t55.5 53h58q-29 -42 -67.5 -75t-82.5 -56.5t-92 -36t-95 -12.5q-81 0 -146 29t-107.5 79.5t-61 118.5t-7.5 146t49.5 145.5
t96 118t129 79t148.5 28.5q73 0 132.5 -23t99.5 -63t58 -95t9 -119q-9 -62 -37 -116t-67 -94t-84 -62.5t-87 -22.5q-26 0 -42 16.5t-11 50.5h-2q-23 -25 -61 -46t-77 -21q-34 0 -57.5 11.5t-37.5 32t-19 47t0 56.5q7 52 30.5 104t60 93t83.5 67t102 26q33 0 60 -18.5
t35 -64.5h2l33 64h60z" />
    <glyph glyph-name="A" unicode="A" horiz-adv-x="685" 
d="M413 708h68l199 -708h-74l-51 188h-375l-106 -188h-69zM434 636l-220 -388h325z" />
    <glyph glyph-name="B" unicode="B" horiz-adv-x="630" 
d="M196 708h204q40 0 80 -6.5t70 -27t45 -57t7 -96.5q-8 -54 -45.5 -94t-102.5 -53v-2q34 -3 61.5 -16.5t45 -36t24.5 -53.5t2 -68q-9 -61 -37.5 -99.5t-67 -60.5t-81 -30t-78.5 -8h-226zM219 402h137q51 0 85 12.5t54 30.5t29.5 38.5t11.5 37.5q5 37 -3.5 61.5t-27.5 39
t-46.5 20.5t-58.5 6h-146zM171 60h151q58 0 95.5 14t59.5 35t31.5 44.5t12.5 42.5q6 39 -5 67t-32.5 45.5t-51 25.5t-60.5 8h-161z" />
    <glyph glyph-name="C" unicode="C" horiz-adv-x="704" 
d="M695 111q-60 -69 -131.5 -99t-149.5 -30q-81 0 -144.5 27.5t-105 77t-58.5 118t-6 149.5q12 81 48.5 149t92 117.5t126.5 77.5t152 28q72 0 131 -25.5t97 -85.5l-60 -45q-26 49 -75 72.5t-102 23.5q-69 0 -128 -24t-104 -66t-74 -99t-38 -123t4 -123t46 -99t85 -66
t121 -24q27 0 56.5 6.5t59.5 20t58 34t51 49.5z" />
    <glyph glyph-name="D" unicode="D" horiz-adv-x="741" 
d="M187 708h219q92 0 153 -22.5t98.5 -57.5t56 -77.5t24.5 -81.5t4.5 -70.5t-3.5 -44.5t-9 -44.5t-24.5 -70.5t-47.5 -81.5t-77 -77.5t-114.5 -57.5t-159.5 -22.5h-219zM162 60h136q70 0 133.5 17.5t114 53.5t83.5 91.5t44 131.5t-7 131.5t-57.5 91.5t-98.5 53.5t-129 17.5
h-136z" />
    <glyph glyph-name="E" unicode="E" horiz-adv-x="593" 
d="M196 708h433l-8 -60h-367l-36 -252h344l-8 -60h-344l-39 -276h383l-8 -60h-449z" />
    <glyph glyph-name="F" unicode="F" horiz-adv-x="556" 
d="M196 708h424l-8 -60h-358l-36 -252h333l-8 -60h-333l-47 -336h-66z" />
    <glyph glyph-name="G" unicode="G" horiz-adv-x="778" 
d="M687 46q-67 -35 -135.5 -49.5t-137.5 -14.5q-81 0 -144.5 27.5t-105 77t-58.5 118t-6 149.5q12 81 48.5 149t92 117.5t126.5 77.5t152 28q158 0 241 -98l-55 -50q-14 19 -35 35.5t-47 28t-55 18t-58 6.5q-69 0 -128 -24t-104 -66t-74 -99t-38 -123t4 -123t46 -99t85 -66
t121 -24q57 0 108.5 9t95.5 33l34 238h-170l8 60h236z" />
    <glyph glyph-name="H" unicode="H" horiz-adv-x="722" 
d="M196 708h66l-44 -312h396l44 312h66l-99 -708h-66l47 336h-396l-47 -336h-66z" />
    <glyph glyph-name="I" unicode="I" horiz-adv-x="260" 
d="M196 708h66l-99 -708h-66z" />
    <glyph glyph-name="J" unicode="J" horiz-adv-x="482" 
d="M414 208q-5 -32 -15 -71t-34 -73.5t-66 -58t-111 -23.5q-78 0 -118 39.5t-46 105.5l68 12q10 -97 104 -97q35 0 61 11.5t44 31.5t28.5 47.5t15.5 59.5l73 516h66z" />
    <glyph glyph-name="K" unicode="K" horiz-adv-x="611" 
d="M196 708h66l-44 -312h6l387 312h91l-404 -324l325 -384h-95l-308 366h-6l-51 -366h-66z" />
    <glyph glyph-name="L" unicode="L" horiz-adv-x="500" 
d="M196 708h66l-91 -648h330l-8 -60h-396z" />
    <glyph glyph-name="M" unicode="M" horiz-adv-x="889" 
d="M189 708h99l175 -594l341 594h94l-99 -708h-66l87 624h-2l-357 -624h-29l-187 624h-2l-87 -624h-66z" />
    <glyph glyph-name="N" unicode="N" horiz-adv-x="778" 
d="M196 708h85l344 -620h2l87 620h66l-99 -708h-85l-344 620h-2l-87 -620h-66z" />
    <glyph glyph-name="O" unicode="O" horiz-adv-x="834" 
d="M100 354q12 81 48.5 149t92 117.5t126.5 77.5t152 28t144.5 -28t104.5 -77.5t58.5 -117.5t5.5 -149q-11 -81 -47.5 -149.5t-92 -118t-126.5 -77t-152 -27.5t-144.5 27.5t-105 77t-58.5 118t-6 149.5zM166 354q-9 -66 4 -123t46 -99t85 -66t121 -24t128 24t104 66t74 99
t38 123t-3.5 123t-45.5 99t-85.5 66t-121.5 24t-128 -24t-104 -66t-74 -99t-38 -123z" />
    <glyph glyph-name="P" unicode="P" horiz-adv-x="574" 
d="M196 708h204q37 0 76.5 -8.5t70 -29.5t47 -57.5t8.5 -91.5q-7 -48 -29.5 -83t-55 -57.5t-72.5 -33.5t-82 -11h-153l-47 -336h-66zM218 396h150q28 0 56 6.5t51 21t39.5 38.5t21.5 59q5 34 -5 58t-29.5 39.5t-46.5 22.5t-55 7h-146z" />
    <glyph glyph-name="Q" unicode="Q" horiz-adv-x="834" 
d="M813 0h-390q-74 0 -137.5 26t-108.5 73.5t-66 114.5t-9 149q10 77 45 143.5t88.5 115t124 76.5t152.5 28t144.5 -28t102 -76.5t55.5 -115t6 -143.5q-7 -47 -26 -93.5t-47.5 -87.5t-66 -72.5t-80.5 -47.5v-2h221zM168 363q-9 -62 5.5 -117.5t49 -96.5t87 -65t119.5 -24
q68 0 124 25.5t98 67.5t68 96.5t35 113.5q9 64 -3 119.5t-44.5 96.5t-83.5 64t-120 23t-126.5 -23t-101 -64t-71 -96.5t-36.5 -119.5z" />
    <glyph glyph-name="R" unicode="R" horiz-adv-x="593" 
d="M218 396h140q52 0 86.5 13t55 32t30 41t12.5 40t-0.5 40t-19 41t-46 32t-82.5 13h-140zM196 708h186q14 0 38 -1t51.5 -6t54.5 -16t47.5 -32t30.5 -53t4 -78q-7 -51 -29 -84t-51.5 -53.5t-63 -30.5t-63.5 -14l159 -340h-75l-152 336h-123l-47 -336h-66z" />
    <glyph glyph-name="S" unicode="S" horiz-adv-x="556" 
d="M134 131q20 -45 58 -67t91 -22q33 0 63.5 10t54.5 28t40 43.5t21 57.5q5 37 -7 61t-35.5 39.5t-55 26.5t-64 22t-63.5 25t-53.5 36.5t-33.5 56.5t-4 84q7 47 31 83.5t59 61t77.5 37t87.5 12.5q58 0 104.5 -20.5t75.5 -68.5l-63 -41q-20 35 -51 52.5t-77 17.5
q-32 0 -62 -8.5t-54 -25t-40.5 -41.5t-21.5 -59q-6 -40 6.5 -65.5t35.5 -42t54.5 -27t64 -21t63.5 -23.5t54 -34.5t34 -54.5t4 -83q-7 -48 -30.5 -85t-57.5 -62.5t-75.5 -38.5t-84.5 -13q-70 0 -126 24.5t-89 82.5z" />
    <glyph glyph-name="T" unicode="T" horiz-adv-x="574" 
d="M345 648h-242l8 60h550l-8 -60h-242l-91 -648h-66z" />
    <glyph glyph-name="U" unicode="U" horiz-adv-x="684" 
d="M638 271q-8 -57 -28.5 -109t-56.5 -92t-89 -64t-125 -24t-118 24t-71 64t-30.5 92t2.5 109l61 437h66l-59 -420q-5 -38 -4.5 -81t16 -80t49.5 -61t96 -24t103 24t67 61t39 80t18 81l59 420h66z" />
    <glyph glyph-name="V" unicode="V" horiz-adv-x="593" 
d="M96 708h71l141 -621l317 621h70l-368 -708h-66z" />
    <glyph glyph-name="W" unicode="W" horiz-adv-x="944" 
d="M104 708h68l88 -627h2l267 627h84l91 -627h2l264 627h68l-305 -708h-81l-91 630h-2l-267 -630h-81z" />
    <glyph glyph-name="X" unicode="X" horiz-adv-x="611" 
d="M319 372l-195 336h78l164 -288l241 288h79l-287 -336l211 -372h-82l-180 320l-268 -320h-79z" />
    <glyph glyph-name="Y" unicode="Y" horiz-adv-x="574" 
d="M296 305l-203 403h79l167 -336l266 336h74l-317 -403l-42 -305h-66z" />
    <glyph glyph-name="Z" unicode="Z" horiz-adv-x="556" 
d="M30 52l498 596h-408l8 60h493l-8 -54l-500 -594h428l-8 -60h-510z" />
    <glyph glyph-name="bracketleft" unicode="[" horiz-adv-x="260" 
d="M320 684h-90l-112 -792h90l-6 -48h-150l124 888h150z" />
    <glyph glyph-name="backslash" unicode="\" horiz-adv-x="370" 
d="M358 -18l-56 -18l-195 762l54 18z" />
    <glyph glyph-name="bracketright" unicode="]" horiz-adv-x="260" 
d="M20 -108h90l112 792h-90l6 48h150l-124 -888h-150z" />
    <glyph glyph-name="asciicircum" unicode="^" horiz-adv-x="666" 
d="M409 708h46l164 -452h-56l-139 398l-250 -398h-57z" />
    <glyph glyph-name="underscore" unicode="_" horiz-adv-x="500" 
d="M-10 -75h499l-7 -50h-499z" />
    <glyph glyph-name="grave" unicode="`" 
d="M257 564h-50l-114 144h80z" />
    <glyph glyph-name="a" unicode="a" horiz-adv-x="519" 
d="M466 194q-5 -34 -8.5 -61t-5.5 -50t-3 -43t-1 -40h-56q-1 17 0 36t4 39h-2q-32 -45 -73.5 -66t-100.5 -21q-30 0 -58 7.5t-49 24t-31.5 42.5t-5.5 63q7 53 39 84t73.5 46.5t86.5 20t79 4.5h70l4 28q8 60 -25 86t-89 26q-81 0 -149 -52l-29 41q38 32 89 48.5t96 16.5
q84 0 128.5 -39.5t32.5 -127.5zM351 232q-38 0 -74.5 -5t-66 -17t-50 -32t-24.5 -50q-3 -21 4 -37.5t20.5 -27t31.5 -16t37 -5.5q48 0 81 14t54.5 36.5t33 51t15.5 57.5l4 31h-66z" />
    <glyph glyph-name="b" unicode="b" horiz-adv-x="611" 
d="M173 756h60l-53 -375h2q17 24 40.5 41.5t50 29t54 17t53.5 5.5q53 0 95 -18t70 -50.5t39.5 -77t4.5 -97.5q-8 -53 -32 -97.5t-61 -77t-84 -50.5t-100 -18q-26 0 -52 5.5t-49.5 17t-42 29t-28.5 41.5h-2l-11 -81h-60zM153 231q-6 -39 4 -73.5t32.5 -60t55.5 -40.5t74 -15
q42 0 78 15t63.5 40.5t45 60t23.5 73.5t-2 73.5t-28 60t-52 40.5t-74 15q-41 0 -78.5 -15t-67 -40.5t-49 -60t-25.5 -73.5z" />
    <glyph glyph-name="c" unicode="c" horiz-adv-x="481" 
d="M476 68q-40 -41 -85.5 -60.5t-95.5 -19.5q-53 0 -95.5 18t-70 50.5t-39.5 77t-4 97.5q7 53 31.5 97.5t61 77t84 50.5t100.5 18q51 0 91.5 -21t69.5 -59l-53 -36q-23 29 -51 45.5t-64 16.5q-42 0 -78 -15t-63.5 -40.5t-45 -60t-23.5 -73.5t2 -73.5t28 -60t52 -40.5t74 -15
q38 0 72 17.5t61 46.5z" />
    <glyph glyph-name="d" unicode="d" horiz-adv-x="611" 
d="M495 81h-2q-17 -24 -40.5 -41.5t-50 -29t-54 -17t-53.5 -5.5q-53 0 -95.5 18t-70 50.5t-39.5 77t-4 97.5q7 53 31.5 97.5t61 77t84 50.5t100.5 18q26 0 52 -5.5t49.5 -17t41.5 -29t29 -41.5h2l53 375h60l-106 -756h-60zM522 231q6 39 -4 73.5t-32.5 60t-55.5 40.5t-74 15
q-42 0 -78 -15t-63.5 -40.5t-45 -60t-23.5 -73.5t2 -73.5t28 -60t52 -40.5t74 -15q41 0 78.5 15t67 40.5t49 60t25.5 73.5z" />
    <glyph glyph-name="e" unicode="e" horiz-adv-x="556" 
d="M500 87q-43 -53 -97.5 -76t-116.5 -23q-53 0 -93.5 18t-67 50.5t-37 77t-2.5 98.5q7 52 30.5 96t59 76.5t80 51t95.5 18.5q53 0 91 -18.5t61.5 -49t32 -69.5t2.5 -79l-6 -42h-388q-3 -19 0.5 -48.5t19.5 -57.5t46.5 -48t83.5 -20q46 0 92.5 22t74.5 60zM479 270
q4 31 -4 58t-27 47.5t-46.5 32.5t-60.5 12q-49 0 -84.5 -20t-58.5 -46t-34.5 -50.5t-12.5 -33.5h328z" />
    <glyph glyph-name="f" unicode="f" horiz-adv-x="296" 
d="M171 408h-96l7 54h96l22 151q6 45 23.5 74.5t40 47.5t48 25.5t47.5 7.5q42 0 68 -12l-20 -52q-19 10 -52 10q-82 0 -98 -123l-19 -129h108l-7 -54h-108l-57 -408h-60z" />
    <glyph glyph-name="g" unicode="g" horiz-adv-x="611" 
d="M548 30q-12 -86 -45 -139t-74 -82t-85.5 -39t-79.5 -10q-70 0 -128.5 25.5t-87.5 71.5l54 44q25 -45 70 -66t99 -21q46 0 79 12t56.5 31.5t38.5 43t23.5 47t12.5 44.5t6 34l9 64h-2q-32 -42 -79.5 -66t-107.5 -24q-51 0 -93.5 18.5t-71.5 51t-42.5 75.5t-6.5 92t32.5 92
t63.5 75t85.5 51t98.5 19q60 0 101 -24t61 -66h2l11 78h60zM519 237q5 38 -4.5 71.5t-31 58t-52.5 39t-69 14.5t-73.5 -14.5t-64 -39t-47.5 -58t-24 -71.5t4.5 -71.5t31 -58t52.5 -39t69 -14.5t73.5 14.5t64 39t47.5 58t24 71.5z" />
    <glyph glyph-name="h" unicode="h" horiz-adv-x="556" 
d="M186 756h60l-53 -375h2q12 19 29.5 36t39.5 29.5t48 20t54 7.5q54 0 86 -17t47.5 -44.5t17.5 -63.5t-3 -74l-38 -275h-60l38 272q4 28 3 54.5t-11 47.5t-30.5 33.5t-56.5 12.5q-33 0 -64 -11.5t-56 -35t-42.5 -59t-24.5 -83.5l-32 -231h-60z" />
    <glyph glyph-name="i" unicode="i" 
d="M154 462h60l-64 -462h-60zM165 645q3 19 17.5 32t33.5 13t30.5 -13t8.5 -32q-2 -19 -17 -32t-34 -13t-30 13t-9 32z" />
    <glyph glyph-name="j" unicode="j" 
d="M138 -81q-5 -36 -14.5 -65t-27.5 -50t-45 -32.5t-66 -11.5q-25 0 -47 9l16 53q10 -4 18.5 -6t18.5 -2q24 0 39.5 8.5t25 22t14 31.5t7.5 38l77 548h60zM165 645q3 19 17.5 32t33.5 13t30.5 -13t8.5 -32q-2 -19 -17 -32t-34 -13t-30 13t-9 32z" />
    <glyph glyph-name="k" unicode="k" horiz-adv-x="481" 
d="M186 756h60l-71 -504l257 209h88l-267 -211l231 -250h-91l-219 244l-34 -244h-60z" />
    <glyph glyph-name="l" unicode="l" 
d="M196 756h60l-106 -756h-60z" />
    <glyph glyph-name="m" unicode="m" horiz-adv-x="852" 
d="M126 332q2 13 4 31.5t3.5 37.5t3 35.5t2.5 25.5h60q-2 -26 -5 -50t-2 -31h3q12 19 29.5 36t39.5 29.5t48 20t54 7.5q46 0 81 -23.5t44 -76.5q29 52 76 76t95 24q54 0 86 -17t47.5 -44.5t17.5 -63.5t-3 -74l-38 -275h-60l38 272q4 28 3 54.5t-11 47.5t-30.5 33.5
t-56.5 12.5q-42 0 -71 -15.5t-48.5 -39.5t-30 -52t-13.5 -53l-36 -260h-60l39 278q9 64 -9 103t-67 39q-33 0 -64 -11.5t-56 -35t-42.5 -59t-24.5 -83.5l-32 -231h-60z" />
    <glyph glyph-name="n" unicode="n" horiz-adv-x="556" 
d="M126 332q2 13 4 31.5t3.5 37.5t3 35.5t2.5 25.5h60q-2 -26 -5 -50t-2 -31h3q12 19 29.5 36t39.5 29.5t48 20t54 7.5q54 0 86 -17t47.5 -44.5t17.5 -63.5t-3 -74l-38 -275h-60l38 272q4 28 3 54.5t-11 47.5t-30.5 33.5t-56.5 12.5q-33 0 -64 -11.5t-56 -35t-42.5 -59
t-24.5 -83.5l-32 -231h-60z" />
    <glyph glyph-name="o" unicode="o" horiz-adv-x="594" 
d="M86 231q7 53 31.5 97.5t61 77t84 50.5t100.5 18t95 -18t70 -50.5t39.5 -77t4.5 -97.5q-8 -53 -32 -97.5t-61 -77t-84 -50.5t-100 -18t-95.5 18t-70 50.5t-39.5 77t-4 97.5zM146 231q-6 -39 2 -73.5t28 -60t52 -40.5t74 -15t78 15t63.5 40.5t45 60t23.5 73.5t-2 73.5
t-28 60t-52 40.5t-74 15t-78 -15t-63.5 -40.5t-45 -60t-23.5 -73.5z" />
    <glyph glyph-name="p" unicode="p" horiz-adv-x="611" 
d="M131 462h60l-11 -81h2q17 24 40.5 41.5t50 29t54 17t53.5 5.5q53 0 95 -18t70 -50.5t39.5 -77t4.5 -97.5q-8 -53 -32 -97.5t-61 -77t-84 -50.5t-100 -18q-26 0 -52 5.5t-49.5 17t-42 29t-28.5 41.5h-2l-44 -309h-60zM153 231q-6 -39 4 -73.5t32.5 -60t55.5 -40.5t74 -15
q42 0 78 15t63.5 40.5t45 60t23.5 73.5t-2 73.5t-28 60t-52 40.5t-74 15q-41 0 -78.5 -15t-67 -40.5t-49 -60t-25.5 -73.5z" />
    <glyph glyph-name="q" unicode="q" horiz-adv-x="611" 
d="M495 81h-2q-17 -24 -40.5 -41.5t-50 -29t-54 -17t-53.5 -5.5q-53 0 -95.5 18t-70 50.5t-39.5 77t-4 97.5q7 53 31.5 97.5t61 77t84 50.5t100.5 18q26 0 52 -5.5t49.5 -17t41.5 -29t29 -41.5h2l11 81h60l-97 -690h-60zM522 231q6 39 -4 73.5t-32.5 60t-55.5 40.5t-74 15
q-42 0 -78 -15t-63.5 -40.5t-45 -60t-23.5 -73.5t2 -73.5t28 -60t52 -40.5t74 -15q41 0 78.5 15t67 40.5t49 60t25.5 73.5z" />
    <glyph glyph-name="r" unicode="r" horiz-adv-x="333" 
d="M126 332q2 13 4 31.5t3.5 37.5t3 35.5t2.5 25.5h60q-2 -26 -5 -50t-2 -31q29 41 68.5 67t91.5 26q16 0 34 -5l-15 -59q-11 4 -22 4q-39 0 -69 -12.5t-52 -34.5t-35 -51.5t-18 -63.5l-35 -252h-60z" />
    <glyph glyph-name="s" unicode="s" horiz-adv-x="426" 
d="M97 118q14 -37 48 -56.5t75 -19.5q19 0 39 6t36.5 17t28 26.5t14.5 35.5q3 24 -6.5 38.5t-27.5 23.5t-41.5 15t-48.5 11.5t-48.5 13.5t-41 22t-26.5 35.5t-4 54.5q5 34 22.5 59t42.5 41.5t54 24.5t58 8q57 0 95.5 -21t55.5 -66l-59 -32q-13 32 -35.5 48.5t-63.5 16.5
q-16 0 -34 -5t-34 -14t-27 -23t-14 -32q-4 -31 14 -46t47.5 -23.5t64 -14.5t63 -19.5t45 -39t10.5 -72.5q-5 -36 -22.5 -62.5t-43 -44.5t-57 -27t-64.5 -9q-60 0 -106.5 23t-66.5 71z" />
    <glyph glyph-name="t" unicode="t" horiz-adv-x="333" 
d="M363 408h-132l-42 -301q-5 -31 9.5 -48t44.5 -17q17 0 35.5 4.5t35.5 11.5l-3 -54q-17 -6 -40 -11t-40 -5q-32 0 -53.5 9.5t-33.5 25.5t-15.5 37.5t0.5 46.5l42 301h-100l7 54h100l19 133h60l-19 -133h132z" />
    <glyph glyph-name="u" unicode="u" horiz-adv-x="556" 
d="M489 130q-2 -13 -4 -31.5t-3.5 -37.5t-3 -35.5t-2.5 -25.5h-60q2 26 5 50t2 31h-3q-12 -19 -29.5 -36t-39.5 -29.5t-48 -20t-54 -7.5q-54 0 -86 17t-47.5 44.5t-17.5 63.5t3 74l38 275h60l-38 -272q-4 -28 -3 -54.5t11 -47.5t30.5 -33.5t56.5 -12.5q33 0 64 11.5t56 35
t42.5 59t24.5 83.5l32 231h60z" />
    <glyph glyph-name="v" unicode="v" horiz-adv-x="463" 
d="M79 462h68l99 -397l205 397h61l-246 -462h-62z" />
    <glyph glyph-name="w" unicode="w" horiz-adv-x="704" 
d="M79 462h66l58 -387h2l183 387h57l83 -387h2l163 387h60l-200 -462h-62l-85 378h-2l-182 -378h-62z" />
    <glyph glyph-name="x" unicode="x" horiz-adv-x="481" 
d="M233 250l-136 212h77l104 -175l151 175h75l-192 -212l163 -250h-78l-132 209l-187 -209h-72z" />
    <glyph glyph-name="y" unicode="y" horiz-adv-x="463" 
d="M189 -143q-23 -45 -56.5 -71t-83.5 -26q-15 0 -29.5 2.5t-27.5 6.5l13 56q12 -4 25 -7.5t27 -3.5q16 0 29.5 7t24 18t19 24.5t15.5 27.5l57 107l-123 464h67l99 -389l203 389h64z" />
    <glyph glyph-name="z" unicode="z" horiz-adv-x="426" 
d="M32 36l329 372h-263l7 54h346l-5 -36l-328 -372h288l-7 -54h-372z" />
    <glyph glyph-name="braceleft" unicode="{" horiz-adv-x="333" 
d="M370 684h-23q-15 0 -27 -8.5t-20.5 -22t-13.5 -31t-8 -36.5l-20 -141q-5 -39 -18 -67.5t-28 -47.5t-28 -29t-18 -12v-2q4 -3 14.5 -13t20 -28.5t14.5 -47t-1 -67.5l-20 -142q-3 -18 -2.5 -35.5t5 -31t14 -22t24.5 -8.5h23l-6 -48h-50q-42 0 -60.5 32.5t-10.5 88.5l20 146
q4 29 5 56.5t-4 49t-16.5 34.5t-32.5 13l6 48q21 0 36.5 13t26.5 34.5t18 49.5t11 57l20 145q8 57 35.5 89t69.5 32h50z" />
    <glyph glyph-name="bar" unicode="|" horiz-adv-x="222" 
d="M240 750l-141 -1000h-48l141 1000h48z" />
    <glyph glyph-name="braceright" unicode="}" horiz-adv-x="333" 
d="M43 -108h23q15 0 27 8.5t20.5 22t13.5 31t8 36.5l20 141q5 39 18 67.5t28 47.5t28 29t18 12v2q-5 3 -15 13t-19.5 28.5t-14.5 47t1 67.5l20 142q3 18 2.5 35.5t-5 31t-14 22t-24.5 8.5h-23l6 48h50q42 0 60.5 -32.5t10.5 -88.5l-20 -146q-4 -29 -5 -56.5t4 -49
t16.5 -34.5t32.5 -13l-6 -48q-21 0 -36.5 -13t-26.5 -34.5t-18 -49.5t-11 -57l-20 -145q-8 -57 -35.5 -89t-69.5 -32h-50z" />
    <glyph glyph-name="asciitilde" unicode="~" horiz-adv-x="666" 
d="M609 332q-11 -17 -24 -33.5t-30 -29t-37.5 -20t-45.5 -7.5q-28 0 -56 12t-54 24q-27 13 -51 22.5t-43 9.5q-30 0 -53.5 -21t-43.5 -47l-30 32q10 16 23.5 32t30.5 29t38 21t46 8q28 0 56 -12t54 -24q26 -13 50 -22.5t43 -9.5q30 0 53.5 21t44.5 47z" />
    <glyph glyph-name="uni00A0" unicode="&#xa0;" horiz-adv-x="260" 
 />
    <glyph glyph-name="exclamdown" unicode="&#xa1;" horiz-adv-x="370" 
d="M197 300h60l-74 -522h-60zM295 444q-3 -20 -19 -34t-36 -14t-32 14t-9 34t19 34t36 14t32 -14t9 -34z" />
    <glyph glyph-name="cent" unicode="&#xa2;" horiz-adv-x="520" 
d="M314 417q-35 -5 -64.5 -22t-51 -42t-35.5 -56t-19 -64t1 -63.5t21.5 -55.5t39.5 -42.5t56 -24.5zM309 42q36 2 67.5 19.5t57.5 44.5l41 -38q-74 -77 -173 -80l-10 -69h-48l10 72q-45 6 -79.5 27t-56.5 53.5t-31 73.5t-3 88q7 47 27.5 87.5t52 72t72 52t86.5 26.5l10 72
h48l-10 -71q49 -1 87.5 -21.5t65.5 -56.5l-53 -36q-20 26 -45.5 41.5t-62.5 18.5z" />
    <glyph glyph-name="sterling" unicode="&#xa3;" horiz-adv-x="520" 
d="M65 54h105l41 288h-95l7 54h95l17 117q4 34 20.5 70.5t45.5 67t72 50t101 19.5q79 0 135 -56l-47 -48q-18 21 -42.5 35.5t-56.5 14.5q-38 0 -66.5 -14.5t-48.5 -36t-31.5 -47.5t-14.5 -48l-18 -124h165l-7 -54h-165l-41 -288h245l-7 -54h-416z" />
    <glyph glyph-name="currency" unicode="&#xa4;" horiz-adv-x="520" 
d="M98 197q-50 64 -38 157q14 93 82 157l-49 55l39 37l49 -56q37 26 79 39.5t84 13.5t80 -13.5t67 -39.5l65 56l29 -37l-65 -55q25 -32 35 -71.5t3 -85.5q-6 -46 -27 -85.5t-55 -71.5l49 -55l-39 -37l-49 56q-37 -26 -78.5 -39.5t-83.5 -13.5t-80.5 13.5t-67.5 39.5l-65 -56
l-29 37zM120 354q-6 -40 4.5 -75t32.5 -61t54 -41t71 -15t75.5 15t65.5 41t49 61t26 75t-4.5 75t-32.5 61t-54 41t-71 15t-75.5 -15t-65.5 -41t-49 -61t-26 -75z" />
    <glyph glyph-name="yen" unicode="&#xa5;" horiz-adv-x="520" 
d="M252 180h-170l7 48h170l10 77l-6 16h-161l6 48h134l-143 339h68l144 -344l243 344h65l-239 -339h134l-6 -48h-161l-12 -16l-10 -77h170l-7 -48h-170l-25 -180h-66z" />
    <glyph glyph-name="brokenbar" unicode="&#xa6;" horiz-adv-x="222" 
d="M229 675l-49 -350h-48l49 350h48zM159 175l-49 -350h-48l49 350h48z" />
    <glyph glyph-name="section" unicode="&#xa7;" horiz-adv-x="520" 
d="M338 175q14 7 29 17t27.5 22t22 26.5t11.5 30.5q2 18 -3 33t-14 27.5t-21 22t-23 15.5l-69 41q-17 -5 -35.5 -13t-34 -19.5t-26.5 -27t-14 -35.5q-5 -38 12 -56t43 -32zM125 6q11 -45 41 -67.5t77 -22.5q22 0 44.5 6t41.5 18.5t32 30.5t16 42q5 34 -14 56.5t-49.5 40
t-67 34t-66.5 39t-48 53t-11 77.5q4 25 15.5 45t28.5 36t37.5 27.5t43.5 20.5q-33 22 -52 52t-13 75q6 39 26 68t49.5 49t64 30t69.5 10q25 0 49 -5.5t43.5 -16.5t33.5 -29t20 -43l-62 -34q-10 34 -35 51t-61 17q-23 0 -44.5 -6t-39.5 -18t-30.5 -30.5t-16.5 -42.5
q-5 -32 13.5 -53.5t48 -39t65 -34t64.5 -38.5t46 -52t11 -74q-7 -46 -36.5 -78.5t-71.5 -53.5q30 -20 46.5 -51.5t11.5 -71.5q-6 -40 -26 -71t-49 -52.5t-64 -32.5t-71 -11q-31 0 -59.5 7t-51.5 22t-40 37.5t-24 53.5z" />
    <glyph glyph-name="dieresis" unicode="&#xa8;" 
d="M68 652q3 20 19 34t36 14t32 -14t9 -34t-19 -34t-36 -14t-32 14t-9 34zM258 652q3 20 19 34t36 14t32 -14t9 -34t-19 -34t-36 -14t-32 14t-9 34z" />
    <glyph glyph-name="copyright" unicode="&#xa9;" horiz-adv-x="800" 
d="M600 431q-3 41 -31.5 72t-83.5 32q-38 0 -70 -14.5t-56.5 -39.5t-40 -57.5t-20.5 -69.5t1 -70t23.5 -57.5t45.5 -39t66 -14.5q27 0 50.5 8.5t42.5 23t32 33t19 39.5h54q-10 -37 -30 -65t-47.5 -47.5t-60.5 -29.5t-68 -10q-51 0 -88.5 17t-60.5 48t-31.5 72.5t-1.5 91.5
q7 49 27.5 91t52 73t73.5 48t93 17q35 0 65.5 -10t52.5 -29.5t34 -47.5t12 -65h-54zM77 354q11 77 50 144.5t96.5 118t129.5 80t149 29.5t140.5 -29.5t107 -80t63 -118t8.5 -144.5t-49.5 -144.5t-96.5 -118t-129.5 -80t-148.5 -29.5t-140.5 29.5t-107 80t-63.5 118t-9 144.5
zM131 354q-9 -66 8 -124t54 -101t91.5 -68t120.5 -25t127.5 25t110.5 68t82 101t42 124t-7.5 124t-53.5 101t-91.5 68t-120.5 25t-127.5 -25t-110.5 -68t-82.5 -101t-42.5 -124z" />
    <glyph glyph-name="ordfeminine" unicode="&#xaa;" horiz-adv-x="337" 
d="M334 602l1 9q3 32 -11 49.5t-62 17.5q-30 0 -53 -9t-46 -26l-21 38q54 39 137 39q60 0 86.5 -24t17.5 -85l-11 -80q-4 -26 -7 -51.5t-2 -49.5h-49q-2 11 -0.5 22t2.5 24h-2q-21 -28 -48.5 -40t-62.5 -12q-21 0 -40.5 4.5t-33.5 14t-21 25t-4 37.5q4 29 20.5 48t39.5 30
t51 15t55 4h64zM290 560q-21 0 -44.5 -2t-43 -8t-33.5 -16.5t-16 -26.5q-3 -18 18 -29.5t48 -11.5q26 0 45.5 8.5t33 21.5t20.5 28.5t9 28.5l1 7h-38z" />
    <glyph glyph-name="guillemotleft" unicode="&#xab;" horiz-adv-x="481" 
d="M96 237l165 203l38 -29l-140 -174l93 -176l-48 -27zM262 237l165 203l38 -29l-140 -174l93 -176l-48 -27z" />
    <glyph glyph-name="logicalnot" unicode="&#xac;" horiz-adv-x="666" 
d="M589 351h-462l7 48h510l-38 -265h-48z" />
    <glyph glyph-name="uni00AD" unicode="&#xad;" horiz-adv-x="333" 
d="M43 264h247v-54h-247v54z" />
    <glyph glyph-name="registered" unicode="&#xae;" horiz-adv-x="800" 
d="M338 141h-54l61 429h165q73 0 99.5 -30.5t18.5 -88.5q-4 -30 -16 -51t-28.5 -35.5t-37.5 -23t-43 -12.5l101 -188h-61l-101 188h-77zM371 377h69q22 0 44.5 1.5t41 9t31.5 22t17 41.5q3 21 -3.5 34.5t-19 21.5t-29.5 11.5t-34 3.5h-96zM77 354q11 77 50 144.5t96.5 118
t129.5 80t149 29.5t140.5 -29.5t107 -80t63 -118t8.5 -144.5t-49.5 -144.5t-96.5 -118t-129.5 -80t-148.5 -29.5t-140.5 29.5t-107 80t-63.5 118t-9 144.5zM131 354q-9 -66 8 -124t54 -101t91.5 -68t120.5 -25t127.5 25t110.5 68t82 101t42 124t-7.5 124t-53.5 101t-91.5 68
t-120.5 25t-127.5 -25t-110.5 -68t-82.5 -101t-42.5 -124z" />
    <glyph glyph-name="macron" unicode="&#xaf;" 
d="M337 606h-264l6 48h264z" />
    <glyph glyph-name="degree" unicode="&#xb0;" horiz-adv-x="400" 
d="M260 432q-30 0 -54.5 11.5t-41.5 31t-24.5 46t-2.5 56.5q4 30 19 56t37 45.5t50 30.5t58 11t54.5 -11t41.5 -30.5t24.5 -45.5t3.5 -56q-5 -30 -20 -56.5t-37 -46t-50 -31t-58 -11.5zM267 480q20 0 38.5 7.5t33.5 20.5t24.5 30.5t12.5 37.5q6 40 -18 68t-64 28
q-20 0 -38.5 -7.5t-33.5 -20.5t-25 -30.5t-13 -37.5q-5 -40 19 -68t64 -28z" />
    <glyph glyph-name="plusminus" unicode="&#xb1;" horiz-adv-x="666" 
d="M130 375h228l26 183h48l-26 -183h234l-7 -48h-234l-25 -183h-48l25 183h-228zM95 96h502l-7 -48h-502z" />
    <glyph glyph-name="twosuperior" unicode="&#xb2;" horiz-adv-x="338" 
d="M69 332l196 168q31 26 53 50t27 59q4 28 -15.5 45.5t-59.5 17.5q-38 0 -60.5 -18t-33.5 -41l-51 4q11 29 29 48.5t39.5 31.5t44 17.5t41.5 5.5q58 0 92.5 -28.5t27.5 -80.5q-3 -24 -14 -45t-26 -39t-34 -35t-39 -34l-144 -121h220l-7 -48h-292z" />
    <glyph glyph-name="threesuperior" unicode="&#xb3;" horiz-adv-x="338" 
d="M202 536h23q15 0 32.5 4t32.5 12.5t26 23t14 35.5q4 26 -14.5 43.5t-53.5 17.5q-29 0 -53.5 -13.5t-41.5 -36.5l-36 25q25 32 60 52.5t78 20.5q27 0 50 -7.5t38.5 -21.5t23 -34t4.5 -45q-5 -35 -32.5 -61.5t-63.5 -37.5l-1 -2q43 -6 64 -36t15 -71q-4 -28 -18 -50.5
t-36 -38t-49.5 -24t-58.5 -8.5q-49 0 -82 20.5t-44 68.5l49 18q7 -27 26 -43t58 -16q17 0 34 6t31.5 16.5t24.5 24.5t12 29q3 24 -4 39.5t-21.5 24.5t-34.5 13t-42 4h-17z" />
    <glyph glyph-name="acute" unicode="&#xb4;" 
d="M265 708h80l-154 -144h-50z" />
    <glyph glyph-name="mu" unicode="&#xb5;" horiz-adv-x="556" 
d="M489 130q-2 -13 -4 -31.5t-3.5 -37.5t-3 -35.5t-2.5 -25.5h-60q2 26 5 50t2 31h-3q-12 -19 -29.5 -36t-39.5 -29.5t-48 -20t-54 -7.5q-41 0 -67.5 10t-44.5 28l-36 -254h-59l97 690h60l-38 -272q-4 -28 -3 -54.5t11 -47.5t30.5 -33.5t56.5 -12.5q33 0 64 11.5t56 35
t42.5 59t24.5 83.5l32 231h60z" />
    <glyph glyph-name="paragraph" unicode="&#xb6;" horiz-adv-x="600" 
d="M312 323q-44 0 -79.5 15t-60 41t-35.5 60t-6 73q14 95 79.5 145.5t171.5 50.5h227l-117 -834h-60l110 786h-123l-110 -786h-60z" />
    <glyph glyph-name="periodcentered" unicode="&#xb7;" horiz-adv-x="260" 
d="M126 318q3 20 19 34t36 14t32 -14t9 -34t-19 -34t-36 -14t-32 14t-9 34z" />
    <glyph glyph-name="cedilla" unicode="&#xb8;" 
d="M115 -64l1 -2q14 7 32 7q16 0 30.5 -4.5t25 -13.5t15.5 -22.5t2 -31.5q-3 -23 -15.5 -39t-30 -26t-38.5 -15t-40 -5q-50 0 -92 21l19 32q30 -17 73 -17q10 0 21.5 2.5t21.5 7.5t17 13t9 20q3 23 -13.5 32.5t-36.5 9.5q-23 0 -45 -8l-14 15l76 88h38z" />
    <glyph glyph-name="onesuperior" unicode="&#xb9;" horiz-adv-x="338" 
d="M269 660l-94 -66l-20 34l122 86h54l-60 -425h-54z" />
    <glyph glyph-name="ordmasculine" unicode="&#xba;" horiz-adv-x="386" 
d="M114 572q4 33 19.5 60t38.5 46.5t54 30.5t67 11q34 0 62 -10.5t47 -30t27 -46.5t3 -61q-5 -33 -20.5 -60t-40 -46.5t-55.5 -30.5t-65 -11q-36 0 -63.5 11t-45.5 30.5t-25.5 46.5t-2.5 60zM162 572q-3 -21 2.5 -40t18 -34t31.5 -23.5t43 -8.5t45.5 8.5t39 23t28.5 33.5
t14 41q6 45 -20 75.5t-77 30.5q-24 0 -45.5 -8.5t-38 -23.5t-27.5 -34t-14 -40z" />
    <glyph glyph-name="guillemotright" unicode="&#xbb;" horiz-adv-x="481" 
d="M285 237l-166 -203l-38 29l141 174l-93 176l47 27zM451 237l-166 -203l-38 29l141 174l-93 176l47 27z" />
    <glyph glyph-name="onequarter" unicode="&#xbc;" horiz-adv-x="778" 
d="M238 660l-94 -66l-20 34l122 86h54l-60 -425h-54zM675 742l42 -28l-562 -748l-41 28zM638 102h-190l6 45l224 277h59l-38 -274h64l-7 -48h-64l-14 -102h-54zM673 352h-2l-162 -202h136z" />
    <glyph glyph-name="onehalf" unicode="&#xbd;" horiz-adv-x="778" 
d="M230 660l-94 -66l-20 34l122 86h54l-60 -425h-54zM666 742l42 -28l-562 -748l-41 28zM464 43l195 168q31 26 53 50t27 59q5 28 -15 45.5t-60 17.5q-38 0 -60.5 -18t-33.5 -41l-50 4q10 29 28.5 48.5t39.5 31.5t43.5 17.5t41.5 5.5q29 0 52.5 -7.5t40 -21.5t24 -34
t4.5 -46q-3 -24 -14 -45t-26.5 -39t-34.5 -35t-39 -34l-144 -121h220l-6 -48h-292z" />
    <glyph glyph-name="threequarters" unicode="&#xbe;" horiz-adv-x="778" 
d="M196 536h23q15 1 32.5 5t32.5 12.5t26 22.5t14 35q4 26 -14.5 43.5t-53.5 17.5q-29 0 -53.5 -13.5t-41.5 -36.5l-36 25q25 32 60 52.5t78 20.5q27 0 50 -7.5t38.5 -21.5t23 -34t4.5 -45q-5 -35 -32.5 -61.5t-63.5 -37.5l-1 -2q43 -6 64 -36t15 -71q-4 -28 -18 -50.5
t-36 -38t-49.5 -24t-58.5 -8.5q-49 0 -82 20.5t-45 68.5l50 18q7 -27 26 -43t58 -16q17 0 34 6t31.5 16.5t24.5 24.5t12 29q3 24 -4 39.5t-21.5 24.5t-34.5 13t-42 4h-17zM726 742l42 -28l-562 -748l-41 28zM654 102h-190l6 45l224 277h59l-38 -274h64l-7 -48h-64l-14 -102
h-54zM687 352h-2l-162 -202h136z" />
    <glyph glyph-name="questiondown" unicode="&#xbf;" horiz-adv-x="463" 
d="M289 216q-5 -33 -20 -58t-35 -45t-43 -38t-43 -38.5t-35 -44.5t-20 -57q-8 -54 18.5 -87.5t81.5 -33.5q53 0 91.5 32t56.5 84l64 -8q-25 -77 -84 -119.5t-134 -42.5q-39 0 -71.5 11.5t-54 33.5t-31 54t-3.5 73q6 42 22 71t37 51t45 40.5t44.5 38t36 44t20.5 59.5l9 64h60
zM338 444q-3 -20 -19 -34t-36 -14t-32 14t-9 34t19 34t36 14t32 -14t9 -34z" />
    <glyph glyph-name="Agrave" unicode="&#xc0;" horiz-adv-x="685" 
d="M413 708h68l199 -708h-74l-51 188h-375l-106 -188h-69zM434 636l-220 -388h325zM506 752h-50l-114 144h80z" />
    <glyph glyph-name="Aacute" unicode="&#xc1;" horiz-adv-x="685" 
d="M413 708h68l199 -708h-74l-51 188h-375l-106 -188h-69zM434 636l-220 -388h325zM514 896h80l-154 -144h-50z" />
    <glyph glyph-name="Acircumflex" unicode="&#xc2;" horiz-adv-x="685" 
d="M413 708h68l199 -708h-74l-51 188h-375l-106 -188h-69zM434 636l-220 -388h325zM433 896h70l88 -144h-65l-66 108l-96 -108h-59z" />
    <glyph glyph-name="Atilde" unicode="&#xc3;" horiz-adv-x="685" 
d="M413 708h68l199 -708h-74l-51 188h-375l-106 -188h-69zM434 636l-220 -388h325zM295 769q5 17 13.5 35.5t22.5 32.5q14 15 31 24.5t37 9.5t37.5 -8t33.5 -17q17 -8 31.5 -15.5t28.5 -7.5q22 0 35.5 15t19.5 33h36q-5 -18 -13.5 -36.5t-20.5 -33t-28.5 -23.5t-35.5 -9
q-20 0 -37.5 8t-34.5 16t-32.5 16t-30.5 8q-23 0 -36 -15t-21 -33h-36z" />
    <glyph glyph-name="Adieresis" unicode="&#xc4;" horiz-adv-x="685" 
d="M413 708h68l199 -708h-74l-51 188h-375l-106 -188h-69zM434 636l-220 -388h325zM318 840q2 20 18 34t36 14t32 -14t10 -34q-3 -20 -19 -34t-36 -14t-32 14t-9 34zM508 840q2 20 18 34t36 14t32 -14t10 -34q-3 -20 -19 -34t-36 -14t-32 14t-9 34z" />
    <glyph glyph-name="Aring" unicode="&#xc5;" horiz-adv-x="685" 
d="M413 708h68l199 -708h-74l-51 188h-375l-106 -188h-69zM434 636l-220 -388h325zM367 837q3 19 12.5 36.5t24 30.5t32.5 20.5t38 7.5q19 0 35 -8t26.5 -21.5t15.5 -30.5t2 -36q-3 -18 -12 -35t-23.5 -30t-32.5 -21t-37 -8q-39 0 -62.5 28t-18.5 67zM517 837q4 25 -10 42
t-39 17t-43 -17.5t-22 -42.5t10.5 -41.5t38.5 -16.5q25 0 43 17t22 42z" />
    <glyph glyph-name="AE" unicode="&#xc6;" horiz-adv-x="926" 
d="M555 708h403l-8 -60h-293l-36 -252h276l-8 -60h-276l-39 -276h301l-8 -60h-367l26 188h-312l-149 -188h-70zM591 648h-12l-318 -400h273z" />
    <glyph glyph-name="Ccedilla" unicode="&#xc7;" horiz-adv-x="704" 
d="M695 111q-60 -69 -131.5 -99t-149.5 -30h-13.5t-13.5 1l-40 -47l1 -2q14 7 32 7q16 0 30.5 -4.5t25 -13.5t15.5 -22.5t2 -31.5q-3 -23 -15.5 -39t-30 -26t-38.5 -15t-40 -5q-50 0 -92 21l19 32q30 -17 73 -17q10 0 21.5 2.5t21.5 7.5t17 13t9 20q3 23 -13.5 32.5
t-36.5 9.5q-23 0 -45 -8l-14 15l65 75q-67 9 -119 40.5t-85.5 79.5t-46.5 111t-3 136q12 81 48.5 149t92 117.5t126.5 77.5t152 28q72 0 131 -25.5t97 -85.5l-60 -45q-26 49 -75 72.5t-102 23.5q-69 0 -128 -24t-104 -66t-74 -99t-38 -123t4 -123t46 -99t85 -66t121 -24
q27 0 56.5 6.5t59.5 20t58 34t51 49.5z" />
    <glyph glyph-name="Egrave" unicode="&#xc8;" horiz-adv-x="593" 
d="M196 708h433l-8 -60h-367l-36 -252h344l-8 -60h-344l-39 -276h383l-8 -60h-449zM460 752h-50l-114 144h80z" />
    <glyph glyph-name="Eacute" unicode="&#xc9;" horiz-adv-x="593" 
d="M196 708h433l-8 -60h-367l-36 -252h344l-8 -60h-344l-39 -276h383l-8 -60h-449zM468 896h80l-154 -144h-50z" />
    <glyph glyph-name="Ecircumflex" unicode="&#xca;" horiz-adv-x="593" 
d="M196 708h433l-8 -60h-367l-36 -252h344l-8 -60h-344l-39 -276h383l-8 -60h-449zM387 896h70l88 -144h-65l-66 108l-96 -108h-59z" />
    <glyph glyph-name="Edieresis" unicode="&#xcb;" horiz-adv-x="593" 
d="M196 708h433l-8 -60h-367l-36 -252h344l-8 -60h-344l-39 -276h383l-8 -60h-449zM272 840q2 20 18 34t36 14t32 -14t10 -34q-3 -20 -19 -34t-36 -14t-32 14t-9 34zM462 840q2 20 18 34t36 14t32 -14t10 -34q-3 -20 -19 -34t-36 -14t-32 14t-9 34z" />
    <glyph glyph-name="Igrave" unicode="&#xcc;" horiz-adv-x="260" 
d="M196 708h66l-99 -708h-66zM293 752h-50l-114 144h80z" />
    <glyph glyph-name="Iacute" unicode="&#xcd;" horiz-adv-x="260" 
d="M196 708h66l-99 -708h-66zM301 896h80l-154 -144h-50z" />
    <glyph glyph-name="Icircumflex" unicode="&#xce;" horiz-adv-x="260" 
d="M196 708h66l-99 -708h-66zM220 896h70l88 -144h-65l-66 108l-96 -108h-59z" />
    <glyph glyph-name="Idieresis" unicode="&#xcf;" horiz-adv-x="260" 
d="M196 708h66l-99 -708h-66zM105 840q2 20 18 34t36 14t32 -14t10 -34q-3 -20 -19 -34t-36 -14t-32 14t-9 34zM295 840q2 20 18 34t36 14t32 -14t10 -34q-3 -20 -19 -34t-36 -14t-32 14t-9 34z" />
    <glyph glyph-name="Eth" unicode="&#xd0;" horiz-adv-x="741" 
d="M209 396h258l-7 -54h-258l-40 -282h136q70 0 133.5 17.5t114 53.5t83.5 91.5t44 131.5t-7 131.5t-57.5 91.5t-98.5 53.5t-129 17.5h-136zM136 342h-78l7 54h78l44 312h219q92 0 153 -22.5t98.5 -57.5t56 -77.5t24.5 -81.5t4.5 -70.5t-3.5 -44.5t-9 -44.5t-24.5 -70.5
t-47.5 -81.5t-77 -77.5t-114.5 -57.5t-159.5 -22.5h-219z" />
    <glyph glyph-name="Ntilde" unicode="&#xd1;" horiz-adv-x="778" 
d="M196 708h85l344 -620h2l87 620h66l-99 -708h-85l-344 620h-2l-87 -620h-66zM341 769q5 17 13.5 35.5t22.5 32.5q14 15 31 24.5t37 9.5t37.5 -8t33.5 -17q17 -8 31.5 -15.5t28.5 -7.5q22 0 35.5 15t19.5 33h36q-5 -18 -13.5 -36.5t-20.5 -33t-28.5 -23.5t-35.5 -9
q-20 0 -37.5 8t-34.5 16t-32.5 16t-30.5 8q-23 0 -36 -15t-21 -33h-36z" />
    <glyph glyph-name="Ograve" unicode="&#xd2;" horiz-adv-x="834" 
d="M100 354q12 81 48.5 149t92 117.5t126.5 77.5t152 28t144.5 -28t104.5 -77.5t58.5 -117.5t5.5 -149q-11 -81 -47.5 -149.5t-92 -118t-126.5 -77t-152 -27.5t-144.5 27.5t-105 77t-58.5 118t-6 149.5zM166 354q-9 -66 4 -123t46 -99t85 -66t121 -24t128 24t104 66t74 99
t38 123t-3.5 123t-45.5 99t-85.5 66t-121.5 24t-128 -24t-104 -66t-74 -99t-38 -123zM580 752h-50l-114 144h80z" />
    <glyph glyph-name="Oacute" unicode="&#xd3;" horiz-adv-x="834" 
d="M100 354q12 81 48.5 149t92 117.5t126.5 77.5t152 28t144.5 -28t104.5 -77.5t58.5 -117.5t5.5 -149q-11 -81 -47.5 -149.5t-92 -118t-126.5 -77t-152 -27.5t-144.5 27.5t-105 77t-58.5 118t-6 149.5zM166 354q-9 -66 4 -123t46 -99t85 -66t121 -24t128 24t104 66t74 99
t38 123t-3.5 123t-45.5 99t-85.5 66t-121.5 24t-128 -24t-104 -66t-74 -99t-38 -123zM588 896h80l-154 -144h-50z" />
    <glyph glyph-name="Ocircumflex" unicode="&#xd4;" horiz-adv-x="834" 
d="M100 354q12 81 48.5 149t92 117.5t126.5 77.5t152 28t144.5 -28t104.5 -77.5t58.5 -117.5t5.5 -149q-11 -81 -47.5 -149.5t-92 -118t-126.5 -77t-152 -27.5t-144.5 27.5t-105 77t-58.5 118t-6 149.5zM166 354q-9 -66 4 -123t46 -99t85 -66t121 -24t128 24t104 66t74 99
t38 123t-3.5 123t-45.5 99t-85.5 66t-121.5 24t-128 -24t-104 -66t-74 -99t-38 -123zM507 896h70l88 -144h-65l-66 108l-96 -108h-59z" />
    <glyph glyph-name="Otilde" unicode="&#xd5;" horiz-adv-x="834" 
d="M100 354q12 81 48.5 149t92 117.5t126.5 77.5t152 28t144.5 -28t104.5 -77.5t58.5 -117.5t5.5 -149q-11 -81 -47.5 -149.5t-92 -118t-126.5 -77t-152 -27.5t-144.5 27.5t-105 77t-58.5 118t-6 149.5zM166 354q-9 -66 4 -123t46 -99t85 -66t121 -24t128 24t104 66t74 99
t38 123t-3.5 123t-45.5 99t-85.5 66t-121.5 24t-128 -24t-104 -66t-74 -99t-38 -123zM369 769q5 17 13.5 35.5t22.5 32.5q14 15 31 24.5t37 9.5t37.5 -8t33.5 -17q17 -8 31.5 -15.5t28.5 -7.5q22 0 35.5 15t19.5 33h36q-5 -18 -13.5 -36.5t-20.5 -33t-28.5 -23.5t-35.5 -9
q-20 0 -37.5 8t-34.5 16t-32.5 16t-30.5 8q-23 0 -36 -15t-21 -33h-36z" />
    <glyph glyph-name="Odieresis" unicode="&#xd6;" horiz-adv-x="834" 
d="M100 354q12 81 48.5 149t92 117.5t126.5 77.5t152 28t144.5 -28t104.5 -77.5t58.5 -117.5t5.5 -149q-11 -81 -47.5 -149.5t-92 -118t-126.5 -77t-152 -27.5t-144.5 27.5t-105 77t-58.5 118t-6 149.5zM166 354q-9 -66 4 -123t46 -99t85 -66t121 -24t128 24t104 66t74 99
t38 123t-3.5 123t-45.5 99t-85.5 66t-121.5 24t-128 -24t-104 -66t-74 -99t-38 -123zM392 840q2 20 18 34t36 14t32 -14t10 -34q-3 -20 -19 -34t-36 -14t-32 14t-9 34zM582 840q2 20 18 34t36 14t32 -14t10 -34q-3 -20 -19 -34t-36 -14t-32 14t-9 34z" />
    <glyph glyph-name="multiply" unicode="&#xd7;" horiz-adv-x="666" 
d="M381 337l227 198l28 -34l-227 -198l170 -198l-39 -34l-169 199l-227 -199l-30 34l228 198l-170 198l39 34z" />
    <glyph glyph-name="Oslash" unicode="&#xd8;" horiz-adv-x="834" 
d="M157 97q-38 49 -53 114t-4 143q12 81 48.5 149t92 117.5t126.5 77.5t152 28q70 0 125.5 -20.5t97.5 -58.5l86 81l29 -31l-86 -81q40 -49 56 -115.5t5 -146.5q-11 -81 -47.5 -149.5t-92 -118t-126.5 -77t-152 -27.5q-72 0 -129 21.5t-98 61.5l-87 -81l-30 31zM693 601
q-33 31 -79 48t-104 17q-69 0 -128 -24t-104 -66t-74 -99t-38 -123q-8 -63 2.5 -116t39.5 -94zM235 111q33 -33 80 -51t107 -18q69 0 128 24t104 66t74 99t38 123q9 64 -2.5 119t-42.5 96z" />
    <glyph glyph-name="Ugrave" unicode="&#xd9;" horiz-adv-x="684" 
d="M638 271q-8 -57 -28.5 -109t-56.5 -92t-89 -64t-125 -24t-118 24t-71 64t-30.5 92t2.5 109l61 437h66l-59 -420q-5 -38 -4.5 -81t16 -80t49.5 -61t96 -24t103 24t67 61t39 80t18 81l59 420h66zM505 752h-50l-114 144h80z" />
    <glyph glyph-name="Uacute" unicode="&#xda;" horiz-adv-x="684" 
d="M638 271q-8 -57 -28.5 -109t-56.5 -92t-89 -64t-125 -24t-118 24t-71 64t-30.5 92t2.5 109l61 437h66l-59 -420q-5 -38 -4.5 -81t16 -80t49.5 -61t96 -24t103 24t67 61t39 80t18 81l59 420h66zM513 896h80l-154 -144h-50z" />
    <glyph glyph-name="Ucircumflex" unicode="&#xdb;" horiz-adv-x="684" 
d="M638 271q-8 -57 -28.5 -109t-56.5 -92t-89 -64t-125 -24t-118 24t-71 64t-30.5 92t2.5 109l61 437h66l-59 -420q-5 -38 -4.5 -81t16 -80t49.5 -61t96 -24t103 24t67 61t39 80t18 81l59 420h66zM432 896h70l88 -144h-65l-66 108l-96 -108h-59z" />
    <glyph glyph-name="Udieresis" unicode="&#xdc;" horiz-adv-x="684" 
d="M638 271q-8 -57 -28.5 -109t-56.5 -92t-89 -64t-125 -24t-118 24t-71 64t-30.5 92t2.5 109l61 437h66l-59 -420q-5 -38 -4.5 -81t16 -80t49.5 -61t96 -24t103 24t67 61t39 80t18 81l59 420h66zM317 840q2 20 18 34t36 14t32 -14t10 -34q-3 -20 -19 -34t-36 -14t-32 14
t-9 34zM507 840q2 20 18 34t36 14t32 -14t10 -34q-3 -20 -19 -34t-36 -14t-32 14t-9 34z" />
    <glyph glyph-name="Yacute" unicode="&#xdd;" horiz-adv-x="574" 
d="M296 305l-203 403h79l167 -336l266 336h74l-317 -403l-42 -305h-66zM458 896h80l-154 -144h-50z" />
    <glyph glyph-name="Thorn" unicode="&#xde;" horiz-adv-x="574" 
d="M196 708h65l-22 -156h139q37 0 76.5 -8.5t70 -29.5t47 -57.5t8.5 -91.5q-7 -48 -29.5 -83t-55 -57.5t-72.5 -33.5t-82 -11h-153l-25 -180h-66zM196 240h150q28 0 56 6.5t51 21t39.5 38.5t21.5 59q5 34 -5 58t-29.5 39.5t-46.5 22.5t-55 7h-146z" />
    <glyph glyph-name="germandbls" unicode="&#xdf;" horiz-adv-x="593" 
d="M330 458h15q60 0 102.5 34.5t50.5 94.5q9 63 -23 95t-89 32q-41 0 -71 -15t-51 -41t-33 -60.5t-18 -72.5l-73 -525h-60l75 534q7 51 26.5 94t50.5 74t73 48.5t93 17.5q39 0 71 -12t54 -34.5t31.5 -56t3.5 -76.5q-8 -59 -40.5 -99.5t-79.5 -54.5l-1 -2q27 -5 53.5 -17
t46 -36t29 -62.5t1.5 -96.5q-8 -54 -32.5 -96.5t-61.5 -71.5t-84 -44t-101 -15q-12 0 -23.5 1t-23.5 4l9 58q12 -5 24.5 -7t26.5 -2q40 0 75 12t62 34.5t45 54.5t23 71q7 47 -4 82t-34 57.5t-55.5 33.5t-69.5 11h-21z" />
    <glyph glyph-name="agrave" unicode="&#xe0;" horiz-adv-x="519" 
d="M466 194q-5 -34 -8.5 -61t-5.5 -50t-3 -43t-1 -40h-56q-1 17 0 36t4 39h-2q-32 -45 -73.5 -66t-100.5 -21q-30 0 -58 7.5t-49 24t-31.5 42.5t-5.5 63q7 53 39 84t73.5 46.5t86.5 20t79 4.5h70l4 28q8 60 -25 86t-89 26q-81 0 -149 -52l-29 41q38 32 89 48.5t96 16.5
q84 0 128.5 -39.5t32.5 -127.5zM351 232q-38 0 -74.5 -5t-66 -17t-50 -32t-24.5 -50q-3 -21 4 -37.5t20.5 -27t31.5 -16t37 -5.5q48 0 81 14t54.5 36.5t33 51t15.5 57.5l4 31h-66zM397 564h-50l-114 144h80z" />
    <glyph glyph-name="aacute" unicode="&#xe1;" horiz-adv-x="519" 
d="M466 194q-5 -34 -8.5 -61t-5.5 -50t-3 -43t-1 -40h-56q-1 17 0 36t4 39h-2q-32 -45 -73.5 -66t-100.5 -21q-30 0 -58 7.5t-49 24t-31.5 42.5t-5.5 63q7 53 39 84t73.5 46.5t86.5 20t79 4.5h70l4 28q8 60 -25 86t-89 26q-81 0 -149 -52l-29 41q38 32 89 48.5t96 16.5
q84 0 128.5 -39.5t32.5 -127.5zM351 232q-38 0 -74.5 -5t-66 -17t-50 -32t-24.5 -50q-3 -21 4 -37.5t20.5 -27t31.5 -16t37 -5.5q48 0 81 14t54.5 36.5t33 51t15.5 57.5l4 31h-66zM405 708h80l-154 -144h-50z" />
    <glyph glyph-name="acircumflex" unicode="&#xe2;" horiz-adv-x="519" 
d="M466 194q-5 -34 -8.5 -61t-5.5 -50t-3 -43t-1 -40h-56q-1 17 0 36t4 39h-2q-32 -45 -73.5 -66t-100.5 -21q-30 0 -58 7.5t-49 24t-31.5 42.5t-5.5 63q7 53 39 84t73.5 46.5t86.5 20t79 4.5h70l4 28q8 60 -25 86t-89 26q-81 0 -149 -52l-29 41q38 32 89 48.5t96 16.5
q84 0 128.5 -39.5t32.5 -127.5zM351 232q-38 0 -74.5 -5t-66 -17t-50 -32t-24.5 -50q-3 -21 4 -37.5t20.5 -27t31.5 -16t37 -5.5q48 0 81 14t54.5 36.5t33 51t15.5 57.5l4 31h-66zM324 708h70l88 -144h-65l-66 108l-96 -108h-59z" />
    <glyph glyph-name="atilde" unicode="&#xe3;" horiz-adv-x="519" 
d="M466 194q-5 -34 -8.5 -61t-5.5 -50t-3 -43t-1 -40h-56q-1 17 0 36t4 39h-2q-32 -45 -73.5 -66t-100.5 -21q-30 0 -58 7.5t-49 24t-31.5 42.5t-5.5 63q7 53 39 84t73.5 46.5t86.5 20t79 4.5h70l4 28q8 60 -25 86t-89 26q-81 0 -149 -52l-29 41q38 32 89 48.5t96 16.5
q84 0 128.5 -39.5t32.5 -127.5zM351 232q-38 0 -74.5 -5t-66 -17t-50 -32t-24.5 -50q-3 -21 4 -37.5t20.5 -27t31.5 -16t37 -5.5q48 0 81 14t54.5 36.5t33 51t15.5 57.5l4 31h-66zM185 581q5 17 14 35.5t23 32.5q14 15 30.5 24.5t36.5 9.5t38 -8t34 -17q15 -8 30.5 -15.5
t29.5 -7.5q22 0 35 15t19 33h36q-5 -18 -13 -36.5t-20.5 -33t-28.5 -23.5t-36 -9t-37 8l-34 16t-32.5 16t-30.5 8q-23 0 -36.5 -15t-21.5 -33h-36z" />
    <glyph glyph-name="adieresis" unicode="&#xe4;" horiz-adv-x="519" 
d="M466 194q-5 -34 -8.5 -61t-5.5 -50t-3 -43t-1 -40h-56q-1 17 0 36t4 39h-2q-32 -45 -73.5 -66t-100.5 -21q-30 0 -58 7.5t-49 24t-31.5 42.5t-5.5 63q7 53 39 84t73.5 46.5t86.5 20t79 4.5h70l4 28q8 60 -25 86t-89 26q-81 0 -149 -52l-29 41q38 32 89 48.5t96 16.5
q84 0 128.5 -39.5t32.5 -127.5zM351 232q-38 0 -74.5 -5t-66 -17t-50 -32t-24.5 -50q-3 -21 4 -37.5t20.5 -27t31.5 -16t37 -5.5q48 0 81 14t54.5 36.5t33 51t15.5 57.5l4 31h-66zM208 652q3 20 19 34t36 14t32 -14t9 -34t-19 -34t-36 -14t-32 14t-9 34zM398 652q3 20 19 34
t36 14t32 -14t9 -34t-19 -34t-36 -14t-32 14t-9 34z" />
    <glyph glyph-name="aring" unicode="&#xe5;" horiz-adv-x="519" 
d="M466 194q-5 -34 -8.5 -61t-5.5 -50t-3 -43t-1 -40h-56q-1 17 0 36t4 39h-2q-32 -45 -73.5 -66t-100.5 -21q-30 0 -58 7.5t-49 24t-31.5 42.5t-5.5 63q7 53 39 84t73.5 46.5t86.5 20t79 4.5h70l4 28q8 60 -25 86t-89 26q-81 0 -149 -52l-29 41q38 32 89 48.5t96 16.5
q84 0 128.5 -39.5t32.5 -127.5zM351 232q-38 0 -74.5 -5t-66 -17t-50 -32t-24.5 -50q-3 -21 4 -37.5t20.5 -27t31.5 -16t37 -5.5q48 0 81 14t54.5 36.5t33 51t15.5 57.5l4 31h-66zM258 649q3 19 12.5 36.5t24 30.5t32.5 20.5t38 7.5q19 0 35 -8t26.5 -21.5t15.5 -30.5t2 -36
q-3 -18 -12.5 -35t-24 -30t-32.5 -21t-37 -8q-20 0 -35.5 7.5t-26.5 20.5t-16 30.5t-2 36.5zM408 649q3 25 -10.5 42t-38.5 17t-43.5 -17.5t-21.5 -42.5q-4 -25 10 -41.5t38 -16.5q25 0 43.5 17t22.5 42z" />
    <glyph glyph-name="ae" unicode="&#xe6;" horiz-adv-x="852" 
d="M431 279q9 68 -19 104.5t-103 36.5q-81 0 -149 -52l-29 41q38 32 89 48.5t96 16.5q63 0 105.5 -20.5t61.5 -75.5q16 24 37.5 42t45.5 30t49.5 18t49.5 6q42 0 78 -12.5t61 -39.5t36 -69.5t3 -101.5l-5 -35h-356q-6 -36 -1 -67.5t21.5 -55t45 -37.5t69.5 -14q43 0 80 19.5
t64 54.5l42 -34q-23 -26 -46 -43.5t-47 -29t-51 -16.5t-59 -5q-61 0 -105 27t-61 87q-38 -62 -95.5 -88t-123.5 -26q-30 0 -58 7.5t-49 24t-31.5 42.5t-5.5 63q3 22 15 47.5t39 47t72.5 36t116.5 14.5h115zM305 216q-53 0 -86 -10t-52 -23.5t-27 -29t-9 -25.5
q-3 -21 4 -37.5t20.5 -27t31.5 -16t37 -5.5q46 0 81 14t59.5 37.5t38.5 55t19 67.5h-117zM785 270q4 31 -0.5 58.5t-19.5 47.5t-41 32t-64 12q-35 0 -64 -12t-51.5 -32.5t-37 -47.5t-18.5 -58h296z" />
    <glyph glyph-name="ccedilla" unicode="&#xe7;" horiz-adv-x="481" 
d="M476 68q-40 -41 -85.5 -60.5t-95.5 -19.5q-9 0 -14 1l-45 -53l1 -2q14 7 32 7q16 0 30.5 -4.5t25 -13.5t15.5 -22.5t2 -31.5q-3 -23 -15.5 -39t-30 -26t-38.5 -15t-40 -5q-50 0 -92 21l19 32q30 -17 73 -17q10 0 21.5 2.5t21.5 7.5t17 13t9 20q3 23 -13.5 32.5t-36.5 9.5
q-23 0 -45 -8l-14 15l69 81q-42 7 -75 27.5t-54.5 51.5t-30 71.5t-1.5 87.5q7 53 31.5 97.5t61 77t84 50.5t100.5 18q51 0 91.5 -21t69.5 -59l-53 -36q-23 29 -51 45.5t-64 16.5q-42 0 -78 -15t-63.5 -40.5t-45 -60t-23.5 -73.5t2 -73.5t28 -60t52 -40.5t74 -15
q38 0 72 17.5t61 46.5z" />
    <glyph glyph-name="egrave" unicode="&#xe8;" horiz-adv-x="556" 
d="M500 87q-43 -53 -97.5 -76t-116.5 -23q-53 0 -93.5 18t-67 50.5t-37 77t-2.5 98.5q7 52 30.5 96t59 76.5t80 51t95.5 18.5q53 0 91 -18.5t61.5 -49t32 -69.5t2.5 -79l-6 -42h-388q-3 -19 0.5 -48.5t19.5 -57.5t46.5 -48t83.5 -20q46 0 92.5 22t74.5 60zM479 270
q4 31 -4 58t-27 47.5t-46.5 32.5t-60.5 12q-49 0 -84.5 -20t-58.5 -46t-34.5 -50.5t-12.5 -33.5h328zM415 564h-50l-114 144h80z" />
    <glyph glyph-name="eacute" unicode="&#xe9;" horiz-adv-x="556" 
d="M500 87q-43 -53 -97.5 -76t-116.5 -23q-53 0 -93.5 18t-67 50.5t-37 77t-2.5 98.5q7 52 30.5 96t59 76.5t80 51t95.5 18.5q53 0 91 -18.5t61.5 -49t32 -69.5t2.5 -79l-6 -42h-388q-3 -19 0.5 -48.5t19.5 -57.5t46.5 -48t83.5 -20q46 0 92.5 22t74.5 60zM479 270
q4 31 -4 58t-27 47.5t-46.5 32.5t-60.5 12q-49 0 -84.5 -20t-58.5 -46t-34.5 -50.5t-12.5 -33.5h328zM423 708h80l-154 -144h-50z" />
    <glyph glyph-name="ecircumflex" unicode="&#xea;" horiz-adv-x="556" 
d="M500 87q-43 -53 -97.5 -76t-116.5 -23q-53 0 -93.5 18t-67 50.5t-37 77t-2.5 98.5q7 52 30.5 96t59 76.5t80 51t95.5 18.5q53 0 91 -18.5t61.5 -49t32 -69.5t2.5 -79l-6 -42h-388q-3 -19 0.5 -48.5t19.5 -57.5t46.5 -48t83.5 -20q46 0 92.5 22t74.5 60zM479 270
q4 31 -4 58t-27 47.5t-46.5 32.5t-60.5 12q-49 0 -84.5 -20t-58.5 -46t-34.5 -50.5t-12.5 -33.5h328zM342 708h70l88 -144h-65l-66 108l-96 -108h-59z" />
    <glyph glyph-name="edieresis" unicode="&#xeb;" horiz-adv-x="556" 
d="M500 87q-43 -53 -97.5 -76t-116.5 -23q-53 0 -93.5 18t-67 50.5t-37 77t-2.5 98.5q7 52 30.5 96t59 76.5t80 51t95.5 18.5q53 0 91 -18.5t61.5 -49t32 -69.5t2.5 -79l-6 -42h-388q-3 -19 0.5 -48.5t19.5 -57.5t46.5 -48t83.5 -20q46 0 92.5 22t74.5 60zM479 270
q4 31 -4 58t-27 47.5t-46.5 32.5t-60.5 12q-49 0 -84.5 -20t-58.5 -46t-34.5 -50.5t-12.5 -33.5h328zM226 652q3 20 19 34t36 14t32 -14t9 -34t-19 -34t-36 -14t-32 14t-9 34zM416 652q3 20 19 34t36 14t32 -14t9 -34t-19 -34t-36 -14t-32 14t-9 34z" />
    <glyph glyph-name="igrave" unicode="&#xec;" 
d="M154 462h60l-64 -462h-60zM257 564h-50l-114 144h80z" />
    <glyph glyph-name="iacute" unicode="&#xed;" 
d="M154 462h60l-64 -462h-60zM265 708h80l-154 -144h-50z" />
    <glyph glyph-name="icircumflex" unicode="&#xee;" 
d="M154 462h60l-64 -462h-60zM184 708h70l88 -144h-65l-66 108l-96 -108h-59z" />
    <glyph glyph-name="idieresis" unicode="&#xef;" 
d="M154 462h60l-64 -462h-60zM68 652q3 20 19 34t36 14t32 -14t9 -34t-19 -34t-36 -14t-32 14t-9 34zM258 652q3 20 19 34t36 14t32 -14t9 -34t-19 -34t-36 -14t-32 14t-9 34z" />
    <glyph glyph-name="eth" unicode="&#xf0;" horiz-adv-x="594" 
d="M345 660q-20 21 -43 42.5t-40 35.5l56 30q20 -17 43.5 -38.5t40.5 -41.5l112 56l32 -30l-114 -57q19 -20 48 -56t53.5 -86.5t38.5 -115.5t3 -143q-9 -62 -33.5 -112t-61.5 -84.5t-84.5 -53t-100.5 -18.5t-95.5 18t-70 50.5t-39.5 77t-4 97.5q7 53 31.5 97.5t61 77
t84 50.5t100.5 18q42 0 77.5 -13t63.5 -42l3 2q-29 67 -64.5 120.5t-67.5 86.5l-115 -57l-27 33zM146 231q-6 -39 2 -73.5t28 -60t52 -40.5t74 -15t78 15t63.5 40.5t45 60t23.5 73.5t-2 73.5t-28 60t-52 40.5t-74 15t-78 -15t-63.5 -40.5t-45 -60t-23.5 -73.5z" />
    <glyph glyph-name="ntilde" unicode="&#xf1;" horiz-adv-x="556" 
d="M126 332q2 13 4 31.5t3.5 37.5t3 35.5t2.5 25.5h60q-2 -26 -5 -50t-2 -31h3q12 19 29.5 36t39.5 29.5t48 20t54 7.5q54 0 86 -17t47.5 -44.5t17.5 -63.5t-3 -74l-38 -275h-60l38 272q4 28 3 54.5t-11 47.5t-30.5 33.5t-56.5 12.5q-33 0 -64 -11.5t-56 -35t-42.5 -59
t-24.5 -83.5l-32 -231h-60zM203 581q5 17 14 35.5t23 32.5q14 15 30.5 24.5t36.5 9.5t38 -8t34 -17q15 -8 30.5 -15.5t29.5 -7.5q22 0 35 15t19 33h36q-5 -18 -13 -36.5t-20.5 -33t-28.5 -23.5t-36 -9t-37 8l-34 16t-32.5 16t-30.5 8q-23 0 -36.5 -15t-21.5 -33h-36z" />
    <glyph glyph-name="ograve" unicode="&#xf2;" horiz-adv-x="594" 
d="M86 231q7 53 31.5 97.5t61 77t84 50.5t100.5 18t95 -18t70 -50.5t39.5 -77t4.5 -97.5q-8 -53 -32 -97.5t-61 -77t-84 -50.5t-100 -18t-95.5 18t-70 50.5t-39.5 77t-4 97.5zM146 231q-6 -39 2 -73.5t28 -60t52 -40.5t74 -15t78 15t63.5 40.5t45 60t23.5 73.5t-2 73.5
t-28 60t-52 40.5t-74 15t-78 -15t-63.5 -40.5t-45 -60t-23.5 -73.5zM434 564h-50l-114 144h80z" />
    <glyph glyph-name="oacute" unicode="&#xf3;" horiz-adv-x="594" 
d="M86 231q7 53 31.5 97.5t61 77t84 50.5t100.5 18t95 -18t70 -50.5t39.5 -77t4.5 -97.5q-8 -53 -32 -97.5t-61 -77t-84 -50.5t-100 -18t-95.5 18t-70 50.5t-39.5 77t-4 97.5zM146 231q-6 -39 2 -73.5t28 -60t52 -40.5t74 -15t78 15t63.5 40.5t45 60t23.5 73.5t-2 73.5
t-28 60t-52 40.5t-74 15t-78 -15t-63.5 -40.5t-45 -60t-23.5 -73.5zM442 708h80l-154 -144h-50z" />
    <glyph glyph-name="ocircumflex" unicode="&#xf4;" horiz-adv-x="594" 
d="M86 231q7 53 31.5 97.5t61 77t84 50.5t100.5 18t95 -18t70 -50.5t39.5 -77t4.5 -97.5q-8 -53 -32 -97.5t-61 -77t-84 -50.5t-100 -18t-95.5 18t-70 50.5t-39.5 77t-4 97.5zM146 231q-6 -39 2 -73.5t28 -60t52 -40.5t74 -15t78 15t63.5 40.5t45 60t23.5 73.5t-2 73.5
t-28 60t-52 40.5t-74 15t-78 -15t-63.5 -40.5t-45 -60t-23.5 -73.5zM361 708h70l88 -144h-65l-66 108l-96 -108h-59z" />
    <glyph glyph-name="otilde" unicode="&#xf5;" horiz-adv-x="594" 
d="M86 231q7 53 31.5 97.5t61 77t84 50.5t100.5 18t95 -18t70 -50.5t39.5 -77t4.5 -97.5q-8 -53 -32 -97.5t-61 -77t-84 -50.5t-100 -18t-95.5 18t-70 50.5t-39.5 77t-4 97.5zM146 231q-6 -39 2 -73.5t28 -60t52 -40.5t74 -15t78 15t63.5 40.5t45 60t23.5 73.5t-2 73.5
t-28 60t-52 40.5t-74 15t-78 -15t-63.5 -40.5t-45 -60t-23.5 -73.5zM222 581q5 17 14 35.5t23 32.5q14 15 30.5 24.5t36.5 9.5t38 -8t34 -17q15 -8 30.5 -15.5t29.5 -7.5q22 0 35 15t19 33h36q-5 -18 -13 -36.5t-20.5 -33t-28.5 -23.5t-36 -9t-37 8l-34 16t-32.5 16t-30.5 8
q-23 0 -36.5 -15t-21.5 -33h-36z" />
    <glyph glyph-name="odieresis" unicode="&#xf6;" horiz-adv-x="594" 
d="M86 231q7 53 31.5 97.5t61 77t84 50.5t100.5 18t95 -18t70 -50.5t39.5 -77t4.5 -97.5q-8 -53 -32 -97.5t-61 -77t-84 -50.5t-100 -18t-95.5 18t-70 50.5t-39.5 77t-4 97.5zM146 231q-6 -39 2 -73.5t28 -60t52 -40.5t74 -15t78 15t63.5 40.5t45 60t23.5 73.5t-2 73.5
t-28 60t-52 40.5t-74 15t-78 -15t-63.5 -40.5t-45 -60t-23.5 -73.5zM245 652q3 20 19 34t36 14t32 -14t9 -34t-19 -34t-36 -14t-32 14t-9 34zM435 652q3 20 19 34t36 14t32 -14t9 -34t-19 -34t-36 -14t-32 14t-9 34z" />
    <glyph glyph-name="divide" unicode="&#xf7;" horiz-adv-x="666" 
d="M123 327h510l-6 -48h-510zM346 457q3 21 20 36t38 15t34 -15t10 -36t-20 -36t-38 -15t-34 15t-10 36zM302 149q4 22 20.5 36t38.5 15q21 0 33.5 -15t9.5 -36q-2 -21 -19.5 -36t-38.5 -15t-33.5 15t-10.5 36z" />
    <glyph glyph-name="oslash" unicode="&#xf8;" horiz-adv-x="594" 
d="M119 73q-46 65 -33 158q7 53 31.5 97.5t61 77t84 50.5t100.5 18q47 0 84.5 -14t65.5 -39l79 70l27 -29l-81 -71q48 -63 34 -160q-8 -53 -32 -97.5t-61 -77t-84 -50.5t-100 -18q-48 0 -86 14t-65 40l-77 -69l-28 29zM466 380q-20 19 -47.5 29.5t-62.5 10.5q-42 0 -78 -15
t-63.5 -40.5t-45 -60t-23.5 -73.5q-5 -33 0 -63t20 -53zM191 83q41 -41 111 -41q42 0 78 15t63.5 40.5t45 60t23.5 73.5q5 35 -0.5 65t-19.5 53z" />
    <glyph glyph-name="ugrave" unicode="&#xf9;" horiz-adv-x="556" 
d="M489 130q-2 -13 -4 -31.5t-3.5 -37.5t-3 -35.5t-2.5 -25.5h-60q2 26 5 50t2 31h-3q-12 -19 -29.5 -36t-39.5 -29.5t-48 -20t-54 -7.5q-54 0 -86 17t-47.5 44.5t-17.5 63.5t3 74l38 275h60l-38 -272q-4 -28 -3 -54.5t11 -47.5t30.5 -33.5t56.5 -12.5q33 0 64 11.5t56 35
t42.5 59t24.5 83.5l32 231h60zM415 564h-50l-114 144h80z" />
    <glyph glyph-name="uacute" unicode="&#xfa;" horiz-adv-x="556" 
d="M489 130q-2 -13 -4 -31.5t-3.5 -37.5t-3 -35.5t-2.5 -25.5h-60q2 26 5 50t2 31h-3q-12 -19 -29.5 -36t-39.5 -29.5t-48 -20t-54 -7.5q-54 0 -86 17t-47.5 44.5t-17.5 63.5t3 74l38 275h60l-38 -272q-4 -28 -3 -54.5t11 -47.5t30.5 -33.5t56.5 -12.5q33 0 64 11.5t56 35
t42.5 59t24.5 83.5l32 231h60zM423 708h80l-154 -144h-50z" />
    <glyph glyph-name="ucircumflex" unicode="&#xfb;" horiz-adv-x="556" 
d="M489 130q-2 -13 -4 -31.5t-3.5 -37.5t-3 -35.5t-2.5 -25.5h-60q2 26 5 50t2 31h-3q-12 -19 -29.5 -36t-39.5 -29.5t-48 -20t-54 -7.5q-54 0 -86 17t-47.5 44.5t-17.5 63.5t3 74l38 275h60l-38 -272q-4 -28 -3 -54.5t11 -47.5t30.5 -33.5t56.5 -12.5q33 0 64 11.5t56 35
t42.5 59t24.5 83.5l32 231h60zM342 708h70l88 -144h-65l-66 108l-96 -108h-59z" />
    <glyph glyph-name="udieresis" unicode="&#xfc;" horiz-adv-x="556" 
d="M489 130q-2 -13 -4 -31.5t-3.5 -37.5t-3 -35.5t-2.5 -25.5h-60q2 26 5 50t2 31h-3q-12 -19 -29.5 -36t-39.5 -29.5t-48 -20t-54 -7.5q-54 0 -86 17t-47.5 44.5t-17.5 63.5t3 74l38 275h60l-38 -272q-4 -28 -3 -54.5t11 -47.5t30.5 -33.5t56.5 -12.5q33 0 64 11.5t56 35
t42.5 59t24.5 83.5l32 231h60zM226 652q3 20 19 34t36 14t32 -14t9 -34t-19 -34t-36 -14t-32 14t-9 34zM416 652q3 20 19 34t36 14t32 -14t9 -34t-19 -34t-36 -14t-32 14t-9 34z" />
    <glyph glyph-name="yacute" unicode="&#xfd;" horiz-adv-x="463" 
d="M189 -143q-23 -45 -56.5 -71t-83.5 -26q-15 0 -29.5 2.5t-27.5 6.5l13 56q12 -4 25 -7.5t27 -3.5q16 0 29.5 7t24 18t19 24.5t15.5 27.5l57 107l-123 464h67l99 -389l203 389h64zM377 708h80l-154 -144h-50z" />
    <glyph glyph-name="thorn" unicode="&#xfe;" horiz-adv-x="611" 
d="M173 756h60l-53 -375h2q17 24 40.5 41.5t50 29t54 17t53.5 5.5q53 0 95 -18t70 -50.5t39.5 -77t4.5 -97.5q-8 -53 -32 -97.5t-61 -77t-84 -50.5t-100 -18q-26 0 -52 5.5t-49.5 17t-42 29t-28.5 41.5h-2l-44 -309h-60zM153 231q-6 -39 4 -73.5t32.5 -60t55.5 -40.5t74 -15
q42 0 78 15t63.5 40.5t45 60t23.5 73.5t-2 73.5t-28 60t-52 40.5t-74 15q-41 0 -78.5 -15t-67 -40.5t-49 -60t-25.5 -73.5z" />
    <glyph glyph-name="ydieresis" unicode="&#xff;" horiz-adv-x="463" 
d="M189 -143q-23 -45 -56.5 -71t-83.5 -26q-15 0 -29.5 2.5t-27.5 6.5l13 56q12 -4 25 -7.5t27 -3.5q16 0 29.5 7t24 18t19 24.5t15.5 27.5l57 107l-123 464h67l99 -389l203 389h64zM180 652q3 20 19 34t36 14t32 -14t9 -34t-19 -34t-36 -14t-32 14t-9 34zM370 652
q3 20 19 34t36 14t32 -14t9 -34t-19 -34t-36 -14t-32 14t-9 34z" />
    <glyph glyph-name="Amacron" unicode="&#x100;" horiz-adv-x="685" 
d="M413 708h68l199 -708h-74l-51 188h-375l-106 -188h-69zM434 636l-220 -388h325zM589 799h-264l7 48h264z" />
    <glyph glyph-name="amacron" unicode="&#x101;" horiz-adv-x="519" 
d="M466 194q-5 -34 -8.5 -61t-5.5 -50t-3 -43t-1 -40h-56q-1 17 0 36t4 39h-2q-32 -45 -73.5 -66t-100.5 -21q-30 0 -58 7.5t-49 24t-31.5 42.5t-5.5 63q7 53 39 84t73.5 46.5t86.5 20t79 4.5h70l4 28q8 60 -25 86t-89 26q-81 0 -149 -52l-29 41q38 32 89 48.5t96 16.5
q84 0 128.5 -39.5t32.5 -127.5zM351 232q-38 0 -74.5 -5t-66 -17t-50 -32t-24.5 -50q-3 -21 4 -37.5t20.5 -27t31.5 -16t37 -5.5q48 0 81 14t54.5 36.5t33 51t15.5 57.5l4 31h-66zM489 606h-264l6 48h264z" />
    <glyph glyph-name="Abreve" unicode="&#x102;" horiz-adv-x="685" 
d="M413 708h68l199 -708h-74l-51 188h-375l-106 -188h-69zM434 636l-220 -388h325zM385 881q1 -40 25.5 -59t63.5 -19q45 0 72 16.5t43 61.5h42q-15 -60 -59 -93t-104 -33t-95 33t-30 93h42z" />
    <glyph glyph-name="abreve" unicode="&#x103;" horiz-adv-x="519" 
d="M466 194q-5 -34 -8.5 -61t-5.5 -50t-3 -43t-1 -40h-56q-1 17 0 36t4 39h-2q-32 -45 -73.5 -66t-100.5 -21q-30 0 -58 7.5t-49 24t-31.5 42.5t-5.5 63q7 53 39 84t73.5 46.5t86.5 20t79 4.5h70l4 28q8 60 -25 86t-89 26q-81 0 -149 -52l-29 41q38 32 89 48.5t96 16.5
q84 0 128.5 -39.5t32.5 -127.5zM351 232q-38 0 -74.5 -5t-66 -17t-50 -32t-24.5 -50q-3 -21 4 -37.5t20.5 -27t31.5 -16t37 -5.5q48 0 81 14t54.5 36.5t33 51t15.5 57.5l4 31h-66zM269 708q1 -40 25.5 -59t63.5 -19q45 0 72 17t43 61h42q-15 -60 -59.5 -93t-104.5 -33
q-59 0 -94 33t-30 93h42z" />
    <glyph glyph-name="Aogonek" unicode="&#x104;" horiz-adv-x="685" 
d="M669 -183q-18 -14 -40 -23.5t-50 -9.5q-40 0 -63 22t-17 60q3 21 13.5 40t25.5 35.5t33 31.5t35 27l-51 188h-375l-106 -188h-69l408 708h68l199 -708h-29q-12 -8 -26.5 -21t-28 -29t-23.5 -34t-13 -37q-6 -47 37 -47q21 0 35.5 7.5t22.5 15.5zM434 636l-220 -388h325z
" />
    <glyph glyph-name="aogonek" unicode="&#x105;" horiz-adv-x="519" 
d="M455 -183q-18 -14 -40 -23.5t-50 -9.5q-40 0 -63 22t-17 60q3 21 13.5 40t25.5 35.5t33 31.5t35 27q-2 37 4 75h-2q-32 -45 -73 -66t-101 -21q-30 0 -58 7.5t-49 24t-31.5 42.5t-5.5 63q5 35 21 60.5t39.5 42.5t51.5 27.5t57.5 16t57.5 7t51 1.5h70l4 28q8 60 -24.5 86
t-89.5 26q-81 0 -149 -52l-29 41q38 32 89 48.5t96 16.5q84 0 128.5 -39.5t32.5 -127.5l-16 -113q-5 -34 -8.5 -61t-6 -50t-3 -43t-0.5 -40h-11q-12 -8 -26.5 -21t-28 -29t-23.5 -34t-13 -37q-6 -47 37 -47q21 0 35.5 7.5t22.5 15.5zM351 232q-38 0 -74.5 -5t-66 -17
t-50 -32t-24.5 -50q-3 -21 4 -37.5t20.5 -27t31.5 -16t37 -5.5q48 0 81 14t54.5 36.5t33 51t15.5 57.5l4 31h-66z" />
    <glyph glyph-name="Cacute" unicode="&#x106;" horiz-adv-x="704" 
d="M695 111q-60 -69 -131.5 -99t-149.5 -30q-81 0 -144.5 27.5t-105 77t-58.5 118t-6 149.5q12 81 48.5 149t92 117.5t126.5 77.5t152 28q72 0 131 -25.5t97 -85.5l-60 -45q-26 49 -75 72.5t-102 23.5q-69 0 -128 -24t-104 -66t-74 -99t-38 -123t4 -123t46 -99t85 -66
t121 -24q27 0 56.5 6.5t59.5 20t58 34t51 49.5zM570 896h80l-154 -144h-50z" />
    <glyph glyph-name="cacute" unicode="&#x107;" horiz-adv-x="481" 
d="M476 68q-40 -41 -85.5 -60.5t-95.5 -19.5q-53 0 -95.5 18t-70 50.5t-39.5 77t-4 97.5q7 53 31.5 97.5t61 77t84 50.5t100.5 18q51 0 91.5 -21t69.5 -59l-53 -36q-23 29 -51 45.5t-64 16.5q-42 0 -78 -15t-63.5 -40.5t-45 -60t-23.5 -73.5t2 -73.5t28 -60t52 -40.5t74 -15
q38 0 72 17.5t61 46.5zM440 708h80l-154 -144h-50z" />
    <glyph glyph-name="Ccircumflex" unicode="&#x108;" horiz-adv-x="704" 
d="M695 111q-60 -69 -131.5 -99t-149.5 -30q-81 0 -144.5 27.5t-105 77t-58.5 118t-6 149.5q12 81 48.5 149t92 117.5t126.5 77.5t152 28q72 0 131 -25.5t97 -85.5l-60 -45q-26 49 -75 72.5t-102 23.5q-69 0 -128 -24t-104 -66t-74 -99t-38 -123t4 -123t46 -99t85 -66
t121 -24q27 0 56.5 6.5t59.5 20t58 34t51 49.5zM507 896h70l88 -144h-65l-66 108l-96 -108h-59z" />
    <glyph glyph-name="ccircumflex" unicode="&#x109;" horiz-adv-x="481" 
d="M476 68q-40 -41 -85.5 -60.5t-95.5 -19.5q-53 0 -95.5 18t-70 50.5t-39.5 77t-4 97.5q7 53 31.5 97.5t61 77t84 50.5t100.5 18q51 0 91.5 -21t69.5 -59l-53 -36q-23 29 -51 45.5t-64 16.5q-42 0 -78 -15t-63.5 -40.5t-45 -60t-23.5 -73.5t2 -73.5t28 -60t52 -40.5t74 -15
q38 0 72 17.5t61 46.5zM358 708h70l88 -144h-65l-66 108l-96 -108h-59z" />
    <glyph glyph-name="Cdotaccent" unicode="&#x10a;" horiz-adv-x="704" 
d="M695 111q-60 -69 -131.5 -99t-149.5 -30q-81 0 -144.5 27.5t-105 77t-58.5 118t-6 149.5q12 81 48.5 149t92 117.5t126.5 77.5t152 28q72 0 131 -25.5t97 -85.5l-60 -45q-26 49 -75 72.5t-102 23.5q-69 0 -128 -24t-104 -66t-74 -99t-38 -123t4 -123t46 -99t85 -66
t121 -24q27 0 56.5 6.5t59.5 20t58 34t51 49.5zM490 840q2 20 18 34t36 14t32 -14t10 -34q-3 -20 -19 -34t-36 -14t-32 14t-9 34z" />
    <glyph glyph-name="cdotaccent" unicode="&#x10b;" horiz-adv-x="481" 
d="M476 68q-40 -41 -85.5 -60.5t-95.5 -19.5q-53 0 -95.5 18t-70 50.5t-39.5 77t-4 97.5q7 53 31.5 97.5t61 77t84 50.5t100.5 18q51 0 91.5 -21t69.5 -59l-53 -36q-23 29 -51 45.5t-64 16.5q-42 0 -78 -15t-63.5 -40.5t-45 -60t-23.5 -73.5t2 -73.5t28 -60t52 -40.5t74 -15
q38 0 72 17.5t61 46.5zM340 652q3 20 19 34t36 14t32 -14t9 -34t-19 -34t-36 -14t-32 14t-9 34z" />
    <glyph glyph-name="Ccaron" unicode="&#x10c;" horiz-adv-x="704" 
d="M695 111q-60 -69 -131.5 -99t-149.5 -30q-81 0 -144.5 27.5t-105 77t-58.5 118t-6 149.5q12 81 48.5 149t92 117.5t126.5 77.5t152 28q72 0 131 -25.5t97 -85.5l-60 -45q-26 49 -75 72.5t-102 23.5q-69 0 -128 -24t-104 -66t-74 -99t-38 -123t4 -123t46 -99t85 -66
t121 -24q27 0 56.5 6.5t59.5 20t58 34t51 49.5zM555 752h-70l-89 144h62l67 -114l102 114h54z" />
    <glyph glyph-name="ccaron" unicode="&#x10d;" horiz-adv-x="481" 
d="M476 68q-40 -41 -85.5 -60.5t-95.5 -19.5q-53 0 -95.5 18t-70 50.5t-39.5 77t-4 97.5q7 53 31.5 97.5t61 77t84 50.5t100.5 18q51 0 91.5 -21t69.5 -59l-53 -36q-23 29 -51 45.5t-64 16.5q-42 0 -78 -15t-63.5 -40.5t-45 -60t-23.5 -73.5t2 -73.5t28 -60t52 -40.5t74 -15
q38 0 72 17.5t61 46.5zM406 564h-70l-89 144h62l67 -114l102 114h54z" />
    <glyph glyph-name="Dcaron" unicode="&#x10e;" horiz-adv-x="741" 
d="M187 708h219q92 0 153 -22.5t98.5 -57.5t56 -77.5t24.5 -81.5t4.5 -70.5t-3.5 -44.5t-9 -44.5t-24.5 -70.5t-47.5 -81.5t-77 -77.5t-114.5 -57.5t-159.5 -22.5h-219zM162 60h136q70 0 133.5 17.5t114 53.5t83.5 91.5t44 131.5t-7 131.5t-57.5 91.5t-98.5 53.5t-129 17.5
h-136zM465 752h-70l-89 144h62l67 -114l102 114h54z" />
    <glyph glyph-name="dcaron" unicode="&#x10f;" horiz-adv-x="611" 
d="M495 81h-2q-17 -24 -40.5 -41.5t-50 -29t-54 -17t-53.5 -5.5q-53 0 -95.5 18t-70 50.5t-39.5 77t-4 97.5q7 53 31.5 97.5t61 77t84 50.5t100.5 18q26 0 52 -5.5t49.5 -17t41.5 -29t29 -41.5h2l53 375h60l-106 -756h-60zM522 231q6 39 -4 73.5t-32.5 60t-55.5 40.5t-74 15
q-42 0 -78 -15t-63.5 -40.5t-45 -60t-23.5 -73.5t2 -73.5t28 -60t52 -40.5t74 -15q41 0 78.5 15t67 40.5t49 60t25.5 73.5zM767 708h65l-90 -185h-53z" />
    <glyph glyph-name="Dcroat" unicode="&#x110;" horiz-adv-x="741" 
d="M209 396h258l-7 -54h-258l-40 -282h136q70 0 133.5 17.5t114 53.5t83.5 91.5t44 131.5t-7 131.5t-57.5 91.5t-98.5 53.5t-129 17.5h-136zM136 342h-78l7 54h78l44 312h219q92 0 153 -22.5t98.5 -57.5t56 -77.5t24.5 -81.5t4.5 -70.5t-3.5 -44.5t-9 -44.5t-24.5 -70.5
t-47.5 -81.5t-77 -77.5t-114.5 -57.5t-159.5 -22.5h-219z" />
    <glyph glyph-name="dcroat" unicode="&#x111;" horiz-adv-x="611" 
d="M495 81h-2q-17 -24 -40.5 -41.5t-50 -29t-54 -17t-53.5 -5.5q-53 0 -95.5 18t-70 50.5t-39.5 77t-4 97.5q7 53 31.5 97.5t61 77t84 50.5t100.5 18q26 0 52 -5.5t49.5 -17t41.5 -29t29 -41.5h2l28 200h-162l8 53h162l17 122h60l-17 -122h72l-8 -53h-72l-81 -581h-60z
M522 231q6 39 -4 73.5t-32.5 60t-56 40.5t-73.5 15q-42 0 -78 -15t-63.5 -40.5t-45 -60t-23.5 -73.5t2 -73.5t28 -60t52 -40.5t74 -15q40 0 77.5 15t67.5 40.5t49.5 60t25.5 73.5z" />
    <glyph glyph-name="Emacron" unicode="&#x112;" horiz-adv-x="593" 
d="M196 708h433l-8 -60h-367l-36 -252h344l-8 -60h-344l-39 -276h383l-8 -60h-449zM565 799h-264l7 48h264z" />
    <glyph glyph-name="emacron" unicode="&#x113;" horiz-adv-x="556" 
d="M500 87q-43 -53 -97.5 -76t-116.5 -23q-53 0 -93.5 18t-67 50.5t-37 77t-2.5 98.5q7 52 30.5 96t59 76.5t80 51t95.5 18.5q53 0 91 -18.5t61.5 -49t32 -69.5t2.5 -79l-6 -42h-388q-3 -19 0.5 -48.5t19.5 -57.5t46.5 -48t83.5 -20q46 0 92.5 22t74.5 60zM479 270
q4 31 -4 58t-27 47.5t-46.5 32.5t-60.5 12q-49 0 -84.5 -20t-58.5 -46t-34.5 -50.5t-12.5 -33.5h328zM511 606h-264l6 48h264z" />
    <glyph glyph-name="Ebreve" unicode="&#x114;" horiz-adv-x="593" 
d="M196 708h433l-8 -60h-367l-36 -252h344l-8 -60h-344l-39 -276h383l-8 -60h-449zM342 881q1 -40 25.5 -59t63.5 -19q45 0 72 16.5t43 61.5h42q-15 -60 -59 -93t-104 -33t-95 33t-30 93h42z" />
    <glyph glyph-name="ebreve" unicode="&#x115;" horiz-adv-x="556" 
d="M500 87q-43 -53 -97.5 -76t-116.5 -23q-53 0 -93.5 18t-67 50.5t-37 77t-2.5 98.5q7 52 30.5 96t59 76.5t80 51t95.5 18.5q53 0 91 -18.5t61.5 -49t32 -69.5t2.5 -79l-6 -42h-388q-3 -19 0.5 -48.5t19.5 -57.5t46.5 -48t83.5 -20q46 0 92.5 22t74.5 60zM479 270
q4 31 -4 58t-27 47.5t-46.5 32.5t-60.5 12q-49 0 -84.5 -20t-58.5 -46t-34.5 -50.5t-12.5 -33.5h328zM291 708q1 -40 25.5 -59t63.5 -19q45 0 72 17t43 61h42q-15 -60 -59.5 -93t-104.5 -33q-59 0 -94 33t-30 93h42z" />
    <glyph glyph-name="Edotaccent" unicode="&#x116;" horiz-adv-x="593" 
d="M196 708h433l-8 -60h-367l-36 -252h344l-8 -60h-344l-39 -276h383l-8 -60h-449zM394 840q2 20 18 34t36 14t32 -14t10 -34q-3 -20 -19 -34t-36 -14t-32 14t-9 34z" />
    <glyph glyph-name="edotaccent" unicode="&#x117;" horiz-adv-x="556" 
d="M500 87q-43 -53 -97.5 -76t-116.5 -23q-53 0 -93.5 18t-67 50.5t-37 77t-2.5 98.5q7 52 30.5 96t59 76.5t80 51t95.5 18.5q53 0 91 -18.5t61.5 -49t32 -69.5t2.5 -79l-6 -42h-388q-3 -19 0.5 -48.5t19.5 -57.5t46.5 -48t83.5 -20q46 0 92.5 22t74.5 60zM479 270
q4 31 -4 58t-27 47.5t-46.5 32.5t-60.5 12q-49 0 -84.5 -20t-58.5 -46t-34.5 -50.5t-12.5 -33.5h328zM340 652q3 20 19 34t36 14t32 -14t9 -34t-19 -34t-36 -14t-32 14t-9 34z" />
    <glyph glyph-name="Eogonek" unicode="&#x118;" horiz-adv-x="593" 
d="M196 708h433l-8 -60h-367l-36 -252h344l-8 -60h-344l-39 -276h383l-8 -60h-52q-12 -8 -26.5 -21t-28 -29t-23.5 -34t-13 -37q-6 -47 37 -47q21 0 35.5 7.5t22.5 15.5l14 -38q-18 -14 -40 -23.5t-50 -9.5q-40 0 -63 22t-17 60q3 21 13.5 40t25.5 35.5t33 31.5t35 27h-352z
" />
    <glyph glyph-name="eogonek" unicode="&#x119;" horiz-adv-x="556" 
d="M362 -183q-18 -14 -40 -23.5t-50 -9.5q-40 0 -63 22t-17 60q5 37 31.5 68t58.5 54q-52 1 -92 19.5t-65.5 50.5t-36 76.5t-2.5 97.5q7 52 30.5 96t59 76.5t80 51t95.5 18.5q53 0 91 -18.5t61 -49t32 -69.5t3 -79l-6 -42h-388q-3 -19 0.5 -48.5t19.5 -57.5t46.5 -48
t83.5 -20q46 0 92 22t75 60l39 -37q-35 -43 -77 -66t-92 -30q-12 -9 -24.5 -21.5t-23.5 -27t-19 -30.5t-11 -33q-6 -47 37 -47q21 0 35.5 7.5t22.5 15.5zM479 270q4 31 -4 58t-27 47.5t-46.5 32.5t-60.5 12q-49 0 -84.5 -20t-58.5 -46t-34.5 -50.5t-12.5 -33.5h328z" />
    <glyph glyph-name="Ecaron" unicode="&#x11a;" horiz-adv-x="593" 
d="M196 708h433l-8 -60h-367l-36 -252h344l-8 -60h-344l-39 -276h383l-8 -60h-449zM459 752h-70l-89 144h62l67 -114l102 114h54z" />
    <glyph glyph-name="ecaron" unicode="&#x11b;" horiz-adv-x="556" 
d="M500 87q-43 -53 -97.5 -76t-116.5 -23q-53 0 -93.5 18t-67 50.5t-37 77t-2.5 98.5q7 52 30.5 96t59 76.5t80 51t95.5 18.5q53 0 91 -18.5t61.5 -49t32 -69.5t2.5 -79l-6 -42h-388q-3 -19 0.5 -48.5t19.5 -57.5t46.5 -48t83.5 -20q46 0 92.5 22t74.5 60zM479 270
q4 31 -4 58t-27 47.5t-46.5 32.5t-60.5 12q-49 0 -84.5 -20t-58.5 -46t-34.5 -50.5t-12.5 -33.5h328zM406 564h-70l-89 144h62l67 -114l102 114h54z" />
    <glyph glyph-name="Gcircumflex" unicode="&#x11c;" horiz-adv-x="778" 
d="M687 46q-67 -35 -135.5 -49.5t-137.5 -14.5q-81 0 -144.5 27.5t-105 77t-58.5 118t-6 149.5q12 81 48.5 149t92 117.5t126.5 77.5t152 28q158 0 241 -98l-55 -50q-14 19 -35 35.5t-47 28t-55 18t-58 6.5q-69 0 -128 -24t-104 -66t-74 -99t-38 -123t4 -123t46 -99t85 -66
t121 -24q57 0 108.5 9t95.5 33l34 238h-170l8 60h236zM505 896h70l88 -144h-65l-66 108l-96 -108h-59z" />
    <glyph glyph-name="gcircumflex" unicode="&#x11d;" horiz-adv-x="611" 
d="M548 30q-12 -86 -45 -139t-74 -82t-85.5 -39t-79.5 -10q-70 0 -128.5 25.5t-87.5 71.5l54 44q25 -45 70 -66t99 -21q46 0 79 12t56.5 31.5t38.5 43t23.5 47t12.5 44.5t6 34l9 64h-2q-32 -42 -79.5 -66t-107.5 -24q-51 0 -93.5 18.5t-71.5 51t-42.5 75.5t-6.5 92t32.5 92
t63.5 75t85.5 51t98.5 19q60 0 101 -24t61 -66h2l11 78h60zM519 237q5 38 -4.5 71.5t-31 58t-52.5 39t-69 14.5t-73.5 -14.5t-64 -39t-47.5 -58t-24 -71.5t4.5 -71.5t31 -58t52.5 -39t69 -14.5t73.5 14.5t64 39t47.5 58t24 71.5zM393 708h70l88 -144h-65l-66 108l-96 -108
h-59z" />
    <glyph glyph-name="Gbreve" unicode="&#x11e;" horiz-adv-x="778" 
d="M687 46q-67 -35 -135.5 -49.5t-137.5 -14.5q-81 0 -144.5 27.5t-105 77t-58.5 118t-6 149.5q12 81 48.5 149t92 117.5t126.5 77.5t152 28q158 0 241 -98l-55 -50q-14 19 -35 35.5t-47 28t-55 18t-58 6.5q-69 0 -128 -24t-104 -66t-74 -99t-38 -123t4 -123t46 -99t85 -66
t121 -24q57 0 108.5 9t95.5 33l34 238h-170l8 60h236zM436 881q1 -40 25.5 -59t63.5 -19q45 0 72 16.5t43 61.5h42q-15 -60 -59 -93t-104 -33t-95 33t-30 93h42z" />
    <glyph glyph-name="gbreve" unicode="&#x11f;" horiz-adv-x="611" 
d="M548 30q-12 -86 -45 -139t-74 -82t-85.5 -39t-79.5 -10q-70 0 -128.5 25.5t-87.5 71.5l54 44q25 -45 70 -66t99 -21q46 0 79 12t56.5 31.5t38.5 43t23.5 47t12.5 44.5t6 34l9 64h-2q-32 -42 -79.5 -66t-107.5 -24q-51 0 -93.5 18.5t-71.5 51t-42.5 75.5t-6.5 92t32.5 92
t63.5 75t85.5 51t98.5 19q60 0 101 -24t61 -66h2l11 78h60zM519 237q5 38 -4.5 71.5t-31 58t-52.5 39t-69 14.5t-73.5 -14.5t-64 -39t-47.5 -58t-24 -71.5t4.5 -71.5t31 -58t52.5 -39t69 -14.5t73.5 14.5t64 39t47.5 58t24 71.5zM326 708q1 -40 25.5 -59t63.5 -19
q45 0 72 17t43 61h42q-15 -60 -59.5 -93t-104.5 -33q-59 0 -94 33t-30 93h42z" />
    <glyph glyph-name="Gdotaccent" unicode="&#x120;" horiz-adv-x="778" 
d="M687 46q-67 -35 -135.5 -49.5t-137.5 -14.5q-81 0 -144.5 27.5t-105 77t-58.5 118t-6 149.5q12 81 48.5 149t92 117.5t126.5 77.5t152 28q158 0 241 -98l-55 -50q-14 19 -35 35.5t-47 28t-55 18t-58 6.5q-69 0 -128 -24t-104 -66t-74 -99t-38 -123t4 -123t46 -99t85 -66
t121 -24q57 0 108.5 9t95.5 33l34 238h-170l8 60h236zM488 840q2 20 18 34t36 14t32 -14t10 -34q-3 -20 -19 -34t-36 -14t-32 14t-9 34z" />
    <glyph glyph-name="gdotaccent" unicode="&#x121;" horiz-adv-x="611" 
d="M548 30q-12 -86 -45 -139t-74 -82t-85.5 -39t-79.5 -10q-70 0 -128.5 25.5t-87.5 71.5l54 44q25 -45 70 -66t99 -21q46 0 79 12t56.5 31.5t38.5 43t23.5 47t12.5 44.5t6 34l9 64h-2q-32 -42 -79.5 -66t-107.5 -24q-51 0 -93.5 18.5t-71.5 51t-42.5 75.5t-6.5 92t32.5 92
t63.5 75t85.5 51t98.5 19q60 0 101 -24t61 -66h2l11 78h60zM519 237q5 38 -4.5 71.5t-31 58t-52.5 39t-69 14.5t-73.5 -14.5t-64 -39t-47.5 -58t-24 -71.5t4.5 -71.5t31 -58t52.5 -39t69 -14.5t73.5 14.5t64 39t47.5 58t24 71.5zM375 652q3 20 19 34t36 14t32 -14t9 -34
t-19 -34t-36 -14t-32 14t-9 34z" />
    <glyph glyph-name="Gcommaaccent" unicode="&#x122;" horiz-adv-x="778" 
d="M687 46q-67 -35 -135.5 -49.5t-137.5 -14.5q-81 0 -144.5 27.5t-105 77t-58.5 118t-6 149.5q12 81 48.5 149t92 117.5t126.5 77.5t152 28q158 0 241 -98l-55 -50q-14 19 -35 35.5t-47 28t-55 18t-58 6.5q-69 0 -128 -24t-104 -66t-74 -99t-38 -123t4 -123t46 -99t85 -66
t121 -24q57 0 108.5 9t95.5 33l34 238h-170l8 60h236zM377 -66h65l-85 -165h-53z" />
    <glyph glyph-name="gcommaaccent" unicode="&#x123;" horiz-adv-x="611" 
d="M548 30q-12 -86 -45 -139t-74 -82t-85.5 -39t-79.5 -10q-70 0 -128.5 25.5t-87.5 71.5l54 44q25 -45 70 -66t99 -21q46 0 79 12t56.5 31.5t38.5 43t23.5 47t12.5 44.5t6 34l9 64h-2q-32 -42 -79.5 -66t-107.5 -24q-51 0 -93.5 18.5t-71.5 51t-42.5 75.5t-6.5 92t32.5 92
t63.5 75t85.5 51t98.5 19q60 0 101 -24t61 -66h2l11 78h60zM519 237q5 38 -4.5 71.5t-31 58t-52.5 39t-69 14.5t-73.5 -14.5t-64 -39t-47.5 -58t-24 -71.5t4.5 -71.5t31 -58t52.5 -39t69 -14.5t73.5 14.5t64 39t47.5 58t24 71.5zM433 594h-65l86 165h53z" />
    <glyph glyph-name="Hcircumflex" unicode="&#x124;" horiz-adv-x="722" 
d="M196 708h66l-44 -312h396l44 312h66l-99 -708h-66l47 336h-396l-47 -336h-66zM450 896h70l88 -144h-65l-66 108l-96 -108h-59z" />
    <glyph glyph-name="hcircumflex" unicode="&#x125;" horiz-adv-x="556" 
d="M186 756h60l-53 -375h2q12 19 29.5 36t39.5 29.5t48 20t54 7.5q54 0 86 -17t47.5 -44.5t17.5 -63.5t-3 -74l-38 -275h-60l38 272q4 28 3 54.5t-11 47.5t-30.5 33.5t-56.5 12.5q-33 0 -64 -11.5t-56 -35t-42.5 -59t-24.5 -83.5l-32 -231h-60zM341 936h70l88 -144h-65
l-66 108l-96 -108h-59z" />
    <glyph glyph-name="Hbar" unicode="&#x126;" horiz-adv-x="722" 
d="M196 708h66l-16 -111h396l16 111h66l-99 -708h-66l47 336h-396l-47 -336h-66zM614 396l22 153h-396l-22 -153h396z" />
    <glyph glyph-name="hbar" unicode="&#x127;" horiz-adv-x="556" 
d="M161 581h-72l8 53h72l17 122h60l-17 -122h162l-8 -53h-162l-28 -200h2q12 19 29.5 36t39.5 29.5t48 20t54 7.5q54 0 85.5 -17t47.5 -44.5t18 -63.5t-3 -74l-38 -275h-60l38 272q4 28 3 54.5t-11 47.5t-30.5 33.5t-56.5 12.5q-33 0 -64 -11.5t-56 -35t-42.5 -59
t-24.5 -83.5l-32 -231h-60z" />
    <glyph glyph-name="Itilde" unicode="&#x128;" horiz-adv-x="260" 
d="M196 708h66l-99 -708h-66zM83 769q5 17 13.5 35.5t22.5 32.5q14 15 31 24.5t37 9.5t37.5 -8t33.5 -17q17 -8 31.5 -15.5t28.5 -7.5q22 0 35.5 15t19.5 33h36q-5 -18 -13.5 -36.5t-20.5 -33t-28.5 -23.5t-35.5 -9q-20 0 -37.5 8t-34.5 16t-32.5 16t-30.5 8q-23 0 -36 -15
t-21 -33h-36z" />
    <glyph glyph-name="itilde" unicode="&#x129;" 
d="M154 462h60l-64 -462h-60zM47 581q5 17 14 35.5t23 32.5q14 15 30.5 24.5t36.5 9.5t38 -8t34 -17q15 -8 30.5 -15.5t29.5 -7.5q22 0 35 15t19 33h36q-5 -18 -13 -36.5t-20.5 -33t-28.5 -23.5t-36 -9t-37 8l-34 16t-32.5 16t-30.5 8q-23 0 -36.5 -15t-21.5 -33h-36z" />
    <glyph glyph-name="Imacron" unicode="&#x12a;" horiz-adv-x="260" 
d="M196 708h66l-99 -708h-66zM373 799h-264l7 48h264z" />
    <glyph glyph-name="imacron" unicode="&#x12b;" 
d="M154 462h60l-64 -462h-60zM338 606h-264l6 48h264z" />
    <glyph glyph-name="Iogonek" unicode="&#x12e;" horiz-adv-x="260" 
d="M196 708h66l-99 -708h-13q-12 -8 -26.5 -21t-28 -29t-23.5 -34t-13 -37q-6 -47 37 -47q21 0 35.5 7.5t22.5 15.5l14 -38q-18 -14 -40 -23.5t-50 -9.5q-40 0 -62.5 22t-16.5 60q3 21 13 40t25 35.5t33 31.5t35 27h-8z" />
    <glyph glyph-name="iogonek" unicode="&#x12f;" 
d="M154 462h60l-64 -462h-10q-12 -8 -26.5 -21t-28 -29t-23.5 -34t-13 -37q-6 -47 37 -47q21 0 35.5 7.5t22.5 15.5l14 -38q-18 -14 -40 -23.5t-50 -9.5q-40 0 -62.5 22t-16.5 60q3 21 13.5 40t25.5 35.5t32.5 31.5t34.5 27h-5zM165 645q3 19 17.5 32t33.5 13t30.5 -13
t8.5 -32q-2 -19 -17 -32t-34 -13t-30 13t-9 32z" />
    <glyph glyph-name="Idotaccent" unicode="&#x130;" horiz-adv-x="260" 
d="M196 708h66l-99 -708h-66zM204 840q2 20 18 34t36 14t32 -14t10 -34q-3 -20 -19 -34t-36 -14t-32 14t-9 34z" />
    <glyph glyph-name="dotlessi" unicode="&#x131;" 
d="M154 462h60l-64 -462h-60z" />
    <glyph glyph-name="IJ" unicode="&#x132;" horiz-adv-x="708" 
d="M196 708h66l-99 -708h-66zM640 208q-5 -32 -15 -71t-34 -73.5t-66 -58t-111 -23.5q-78 0 -118 39.5t-46 105.5l68 12q10 -97 104 -97q35 0 61 11.5t44 31.5t28.5 47.5t15.5 59.5l73 516h66z" />
    <glyph glyph-name="ij" unicode="&#x133;" horiz-adv-x="455" 
d="M154 462h60l-64 -462h-60zM165 645q3 19 17.5 32t33.5 13t30.5 -13t8.5 -32q-2 -19 -17 -32t-34 -13t-30 13t-9 32zM353 -81q-5 -36 -14.5 -65t-27.5 -50t-45 -32.5t-66 -11.5q-25 0 -47 9l16 53q10 -4 18.5 -6t18.5 -2q24 0 39.5 8.5t25 22t14 31.5t7.5 38l77 548h60z
M380 645q3 19 17.5 32t33.5 13t30.5 -13t8.5 -32q-2 -19 -17 -32t-34 -13t-30 13t-9 32z" />
    <glyph glyph-name="Jcircumflex" unicode="&#x134;" horiz-adv-x="482" 
d="M414 208q-5 -32 -15 -71t-34 -73.5t-66 -58t-111 -23.5q-78 0 -118 39.5t-46 105.5l68 12q10 -97 104 -97q35 0 61 11.5t44 31.5t28.5 47.5t15.5 59.5l73 516h66zM440 896h70l88 -144h-65l-66 108l-96 -108h-59z" />
    <glyph glyph-name="jcircumflex" unicode="&#x135;" 
d="M138 -81q-5 -36 -14.5 -65t-27 -50t-44.5 -32.5t-67 -11.5q-25 0 -47 9l16 53q22 -8 37 -8q24 0 39 8.5t25 22t14.5 31.5t7.5 38l77 548h60zM184 708h70l88 -144h-65l-66 108l-96 -108h-59z" />
    <glyph glyph-name="Kcommaaccent" unicode="&#x136;" horiz-adv-x="611" 
d="M196 708h66l-44 -312h6l387 312h91l-404 -324l325 -384h-95l-308 366h-6l-51 -366h-66zM301 -66h65l-85 -165h-53z" />
    <glyph glyph-name="kcommaaccent" unicode="&#x137;" horiz-adv-x="481" 
d="M186 756h60l-71 -504l257 209h88l-267 -211l231 -250h-91l-219 244l-34 -244h-60zM201 -66h65l-85 -165h-53z" />
    <glyph glyph-name="Lacute" unicode="&#x139;" horiz-adv-x="500" 
d="M196 708h66l-91 -648h330l-8 -60h-396zM301 896h80l-154 -144h-50z" />
    <glyph glyph-name="lacute" unicode="&#x13a;" 
d="M196 756h60l-106 -756h-60zM319 936h80l-154 -144h-50z" />
    <glyph glyph-name="Lcommaaccent" unicode="&#x13b;" horiz-adv-x="500" 
d="M196 708h66l-91 -648h330l-8 -60h-396zM260 -66h65l-85 -165h-53z" />
    <glyph glyph-name="lcommaaccent" unicode="&#x13c;" 
d="M196 756h60l-106 -756h-60zM103 -66h65l-85 -165h-53z" />
    <glyph glyph-name="Lcaron" unicode="&#x13d;" horiz-adv-x="500" 
d="M196 708h66l-91 -648h330l-8 -60h-396zM382 708h65l-90 -185h-53z" />
    <glyph glyph-name="lcaron" unicode="&#x13e;" 
d="M196 756h60l-106 -756h-60zM369 708h65l-90 -185h-53z" />
    <glyph glyph-name="Ldot" unicode="&#x13f;" horiz-adv-x="500" 
d="M196 708h66l-91 -648h330l-8 -60h-396zM368 367q3 20 19 34t36 14t32 -14t9 -34t-19 -34t-36 -14t-32 14t-9 34z" />
    <glyph glyph-name="ldot" unicode="&#x140;" horiz-adv-x="336" 
d="M196 756h60l-106 -756h-60zM281 384q3 20 19 34t36 14t32 -14t9 -34t-19 -34t-36 -14t-32 14t-9 34z" />
    <glyph glyph-name="Lslash" unicode="&#x141;" horiz-adv-x="500" 
d="M129 231l-81 -64l9 65l81 63l58 413h66l-50 -358l242 189l-8 -62l-243 -189l-32 -228h330l-8 -60h-396z" />
    <glyph glyph-name="lslash" unicode="&#x142;" 
d="M135 324l-96 -85l10 67l95 85l52 365h60l-43 -305l96 86l-9 -67l-96 -85l-54 -385h-60z" />
    <glyph glyph-name="Nacute" unicode="&#x143;" horiz-adv-x="778" 
d="M196 708h85l344 -620h2l87 620h66l-99 -708h-85l-344 620h-2l-87 -620h-66zM571 896h80l-154 -144h-50z" />
    <glyph glyph-name="nacute" unicode="&#x144;" horiz-adv-x="556" 
d="M126 332q2 13 4 31.5t3.5 37.5t3 35.5t2.5 25.5h60q-2 -26 -5 -50t-2 -31h3q12 19 29.5 36t39.5 29.5t48 20t54 7.5q54 0 86 -17t47.5 -44.5t17.5 -63.5t-3 -74l-38 -275h-60l38 272q4 28 3 54.5t-11 47.5t-30.5 33.5t-56.5 12.5q-33 0 -64 -11.5t-56 -35t-42.5 -59
t-24.5 -83.5l-32 -231h-60zM411 708h80l-154 -144h-50z" />
    <glyph glyph-name="Ncommaaccent" unicode="&#x145;" horiz-adv-x="778" 
d="M196 708h85l344 -620h2l87 620h66l-99 -708h-85l-344 620h-2l-87 -620h-66zM353 -66h65l-85 -165h-53z" />
    <glyph glyph-name="ncommaaccent" unicode="&#x146;" horiz-adv-x="556" 
d="M126 332q2 13 4 31.5t3.5 37.5t3 35.5t2.5 25.5h60q-2 -26 -5 -50t-2 -31h3q12 19 29.5 36t39.5 29.5t48 20t54 7.5q54 0 86 -17t47.5 -44.5t17.5 -63.5t-3 -74l-38 -275h-60l38 272q4 28 3 54.5t-11 47.5t-30.5 33.5t-56.5 12.5q-33 0 -64 -11.5t-56 -35t-42.5 -59
t-24.5 -83.5l-32 -231h-60zM245 -66h65l-85 -165h-53z" />
    <glyph glyph-name="Ncaron" unicode="&#x147;" horiz-adv-x="778" 
d="M196 708h85l344 -620h2l87 620h66l-99 -708h-85l-344 620h-2l-87 -620h-66zM530 752h-70l-89 144h62l67 -114l102 114h54z" />
    <glyph glyph-name="ncaron" unicode="&#x148;" horiz-adv-x="556" 
d="M126 332q2 13 4 31.5t3.5 37.5t3 35.5t2.5 25.5h60q-2 -26 -5 -50t-2 -31h3q12 19 29.5 36t39.5 29.5t48 20t54 7.5q54 0 86 -17t47.5 -44.5t17.5 -63.5t-3 -74l-38 -275h-60l38 272q4 28 3 54.5t-11 47.5t-30.5 33.5t-56.5 12.5q-33 0 -64 -11.5t-56 -35t-42.5 -59
t-24.5 -83.5l-32 -231h-60zM397 564h-70l-89 144h62l67 -114l102 114h54z" />
    <glyph glyph-name="napostrophe" unicode="&#x149;" horiz-adv-x="556" 
d="M126 332q2 13 4 31.5t3.5 37.5t3 35.5t2.5 25.5h60q-2 -26 -5 -50t-2 -31h3q12 19 29.5 36t39.5 29.5t48 20t54 7.5q54 0 86 -17t47.5 -44.5t17.5 -63.5t-3 -74l-38 -275h-60l38 272q4 28 3 54.5t-11 47.5t-30.5 33.5t-56.5 12.5q-33 0 -64 -11.5t-56 -35t-42.5 -59
t-24.5 -83.5l-32 -231h-60zM164 708h65l-90 -185h-53z" />
    <glyph glyph-name="Omacron" unicode="&#x14c;" horiz-adv-x="834" 
d="M100 354q12 81 48.5 149t92 117.5t126.5 77.5t152 28t144.5 -28t104.5 -77.5t58.5 -117.5t5.5 -149q-11 -81 -47.5 -149.5t-92 -118t-126.5 -77t-152 -27.5t-144.5 27.5t-105 77t-58.5 118t-6 149.5zM166 354q-9 -66 4 -123t46 -99t85 -66t121 -24t128 24t104 66t74 99
t38 123t-3.5 123t-45.5 99t-85.5 66t-121.5 24t-128 -24t-104 -66t-74 -99t-38 -123zM662 799h-264l7 48h264z" />
    <glyph glyph-name="omacron" unicode="&#x14d;" horiz-adv-x="594" 
d="M86 231q7 53 31.5 97.5t61 77t84 50.5t100.5 18t95 -18t70 -50.5t39.5 -77t4.5 -97.5q-8 -53 -32 -97.5t-61 -77t-84 -50.5t-100 -18t-95.5 18t-70 50.5t-39.5 77t-4 97.5zM146 231q-6 -39 2 -73.5t28 -60t52 -40.5t74 -15t78 15t63.5 40.5t45 60t23.5 73.5t-2 73.5
t-28 60t-52 40.5t-74 15t-78 -15t-63.5 -40.5t-45 -60t-23.5 -73.5zM515 606h-264l6 48h264z" />
    <glyph glyph-name="Obreve" unicode="&#x14e;" horiz-adv-x="834" 
d="M100 354q12 81 48.5 149t92 117.5t126.5 77.5t152 28t144.5 -28t104.5 -77.5t58.5 -117.5t5.5 -149q-11 -81 -47.5 -149.5t-92 -118t-126.5 -77t-152 -27.5t-144.5 27.5t-105 77t-58.5 118t-6 149.5zM166 354q-9 -66 4 -123t46 -99t85 -66t121 -24t128 24t104 66t74 99
t38 123t-3.5 123t-45.5 99t-85.5 66t-121.5 24t-128 -24t-104 -66t-74 -99t-38 -123zM439 881q1 -40 25.5 -59t63.5 -19q45 0 72 16.5t43 61.5h42q-15 -60 -59 -93t-104 -33t-95 33t-30 93h42z" />
    <glyph glyph-name="obreve" unicode="&#x14f;" horiz-adv-x="594" 
d="M86 231q7 53 31.5 97.5t61 77t84 50.5t100.5 18t95 -18t70 -50.5t39.5 -77t4.5 -97.5q-8 -53 -32 -97.5t-61 -77t-84 -50.5t-100 -18t-95.5 18t-70 50.5t-39.5 77t-4 97.5zM146 231q-6 -39 2 -73.5t28 -60t52 -40.5t74 -15t78 15t63.5 40.5t45 60t23.5 73.5t-2 73.5
t-28 60t-52 40.5t-74 15t-78 -15t-63.5 -40.5t-45 -60t-23.5 -73.5zM295 708q1 -40 25.5 -59t63.5 -19q45 0 72 17t43 61h42q-15 -60 -59.5 -93t-104.5 -33q-59 0 -94 33t-30 93h42z" />
    <glyph glyph-name="Ohungarumlaut" unicode="&#x150;" horiz-adv-x="834" 
d="M100 354q12 81 48.5 149t92 117.5t126.5 77.5t152 28t144.5 -28t104.5 -77.5t58.5 -117.5t5.5 -149q-11 -81 -47.5 -149.5t-92 -118t-126.5 -77t-152 -27.5t-144.5 27.5t-105 77t-58.5 118t-6 149.5zM166 354q-9 -66 4 -123t46 -99t85 -66t121 -24t128 24t104 66t74 99
t38 123t-3.5 123t-45.5 99t-85.5 66t-121.5 24t-128 -24t-104 -66t-74 -99t-38 -123zM537 896h80l-154 -144h-50zM683 896h80l-154 -144h-50z" />
    <glyph glyph-name="ohungarumlaut" unicode="&#x151;" horiz-adv-x="594" 
d="M86 231q7 53 31.5 97.5t61 77t84 50.5t100.5 18t95 -18t70 -50.5t39.5 -77t4.5 -97.5q-8 -53 -32 -97.5t-61 -77t-84 -50.5t-100 -18t-95.5 18t-70 50.5t-39.5 77t-4 97.5zM146 231q-6 -39 2 -73.5t28 -60t52 -40.5t74 -15t78 15t63.5 40.5t45 60t23.5 73.5t-2 73.5
t-28 60t-52 40.5t-74 15t-78 -15t-63.5 -40.5t-45 -60t-23.5 -73.5zM394 708h80l-154 -144h-50zM540 708h80l-154 -144h-50z" />
    <glyph glyph-name="OE" unicode="&#x152;" horiz-adv-x="944" 
d="M589 60h304l-8 -60h-472q-71 0 -132 25t-103 71.5t-61.5 112t-8.5 145.5q12 88 54 154t102 110.5t133 67t147 22.5h432l-8 -60h-296l-36 -252h279l-8 -60h-279zM606 648h-78q-53 0 -110.5 -17t-108 -53t-87.5 -91.5t-48 -132.5q-8 -55 0.5 -98t28.5 -76t48.5 -55.5
t60.5 -37t65 -21t62 -6.5h84z" />
    <glyph glyph-name="oe" unicode="&#x153;" horiz-adv-x="907" 
d="M840 270q4 31 -0.5 58.5t-19.5 47.5t-41 32t-64 12q-35 0 -64 -12t-51.5 -32.5t-37 -47.5t-18.5 -58h296zM537 216q-6 -36 -1 -67.5t21.5 -55t45 -37.5t69.5 -14q43 0 80 19.5t64 54.5l42 -34q-23 -26 -46 -43.5t-47 -29t-51 -16.5t-59 -5q-61 0 -105 27t-61 87h-2
q-37 -56 -93 -85t-122 -29q-50 0 -89.5 18t-65.5 50.5t-37.5 77t-3.5 97.5q7 53 31 97.5t59 77t79.5 50.5t94.5 18t83 -13.5t53.5 -32t31 -38t15.5 -31.5q12 20 29.5 40.5t42 37t56 27t69.5 10.5q42 0 78 -12.5t61 -39.5t36 -69.5t3 -101.5l-5 -35h-356zM136 231
q-5 -37 2 -71t25.5 -60.5t48 -42t69.5 -15.5t73.5 15t59.5 40.5t42.5 60t22.5 73.5t-1 73.5t-25.5 60t-48 40.5t-69.5 15t-74 -15.5t-60 -42t-43 -60.5t-22 -71z" />
    <glyph glyph-name="Racute" unicode="&#x154;" horiz-adv-x="593" 
d="M218 396h140q52 0 86.5 13t55 32t30 41t12.5 40t-0.5 40t-19 41t-46 32t-82.5 13h-140zM196 708h186q14 0 38 -1t51.5 -6t54.5 -16t47.5 -32t30.5 -53t4 -78q-7 -51 -29 -84t-51.5 -53.5t-63 -30.5t-63.5 -14l159 -340h-75l-152 336h-123l-47 -336h-66zM457 896h80
l-154 -144h-50z" />
    <glyph glyph-name="racute" unicode="&#x155;" horiz-adv-x="333" 
d="M126 332q2 13 4 31.5t3.5 37.5t3 35.5t2.5 25.5h60q-2 -26 -5 -50t-2 -31q29 41 68.5 67t91.5 26q16 0 34 -5l-15 -59q-11 4 -22 4q-39 0 -69 -12.5t-52 -34.5t-35 -51.5t-18 -63.5l-35 -252h-60zM332 708h80l-154 -144h-50z" />
    <glyph glyph-name="Rcommaaccent" unicode="&#x156;" horiz-adv-x="593" 
d="M218 396h140q52 0 86.5 13t55 32t30 41t12.5 40t-0.5 40t-19 41t-46 32t-82.5 13h-140zM196 708h186q14 0 38 -1t51.5 -6t54.5 -16t47.5 -32t30.5 -53t4 -78q-7 -51 -29 -84t-51.5 -53.5t-63 -30.5t-63.5 -14l159 -340h-75l-152 336h-123l-47 -336h-66zM259 -66h65
l-85 -165h-53z" />
    <glyph glyph-name="rcommaaccent" unicode="&#x157;" horiz-adv-x="333" 
d="M126 332q2 13 4 31.5t3.5 37.5t3 35.5t2.5 25.5h60q-2 -26 -5 -50t-2 -31q29 41 68.5 67t91.5 26q16 0 34 -5l-15 -59q-11 4 -22 4q-39 0 -69 -12.5t-52 -34.5t-35 -51.5t-18 -63.5l-35 -252h-60zM118 -66h65l-85 -165h-53z" />
    <glyph glyph-name="Rcaron" unicode="&#x158;" horiz-adv-x="593" 
d="M218 396h140q52 0 86.5 13t55 32t30 41t12.5 40t-0.5 40t-19 41t-46 32t-82.5 13h-140zM196 708h186q14 0 38 -1t51.5 -6t54.5 -16t47.5 -32t30.5 -53t4 -78q-7 -51 -29 -84t-51.5 -53.5t-63 -30.5t-63.5 -14l159 -340h-75l-152 336h-123l-47 -336h-66zM434 752h-70
l-89 144h62l67 -114l102 114h54z" />
    <glyph glyph-name="rcaron" unicode="&#x159;" horiz-adv-x="333" 
d="M126 332q2 13 4 31.5t3.5 37.5t3 35.5t2.5 25.5h60q-2 -26 -5 -50t-2 -31q29 41 68.5 67t91.5 26q16 0 34 -5l-15 -59q-11 4 -22 4q-39 0 -69 -12.5t-52 -34.5t-35 -51.5t-18 -63.5l-35 -252h-60zM301 564h-70l-89 144h62l67 -114l102 114h54z" />
    <glyph glyph-name="Sacute" unicode="&#x15a;" horiz-adv-x="556" 
d="M134 131q20 -45 58 -67t91 -22q33 0 63.5 10t54.5 28t40 43.5t21 57.5q5 37 -7 61t-35.5 39.5t-55 26.5t-64 22t-63.5 25t-53.5 36.5t-33.5 56.5t-4 84q7 47 31 83.5t59 61t77.5 37t87.5 12.5q58 0 104.5 -20.5t75.5 -68.5l-63 -41q-20 35 -51 52.5t-77 17.5
q-32 0 -62 -8.5t-54 -25t-40.5 -41.5t-21.5 -59q-6 -40 6.5 -65.5t35.5 -42t54.5 -27t64 -21t63.5 -23.5t54 -34.5t34 -54.5t4 -83q-7 -48 -30.5 -85t-57.5 -62.5t-75.5 -38.5t-84.5 -13q-70 0 -126 24.5t-89 82.5zM467 896h80l-154 -144h-50z" />
    <glyph glyph-name="sacute" unicode="&#x15b;" horiz-adv-x="426" 
d="M97 118q14 -37 48 -56.5t75 -19.5q19 0 39 6t36.5 17t28 26.5t14.5 35.5q3 24 -6.5 38.5t-27.5 23.5t-41.5 15t-48.5 11.5t-48.5 13.5t-41 22t-26.5 35.5t-4 54.5q5 34 22.5 59t42.5 41.5t54 24.5t58 8q57 0 95.5 -21t55.5 -66l-59 -32q-13 32 -35.5 48.5t-63.5 16.5
q-16 0 -34 -5t-34 -14t-27 -23t-14 -32q-4 -31 14 -46t47.5 -23.5t64 -14.5t63 -19.5t45 -39t10.5 -72.5q-5 -36 -22.5 -62.5t-43 -44.5t-57 -27t-64.5 -9q-60 0 -106.5 23t-66.5 71zM365 708h80l-154 -144h-50z" />
    <glyph glyph-name="Scircumflex" unicode="&#x15c;" horiz-adv-x="556" 
d="M134 131q20 -45 58 -67t91 -22q33 0 63.5 10t54.5 28t40 43.5t21 57.5q5 37 -7 61t-35.5 39.5t-55 26.5t-64 22t-63.5 25t-53.5 36.5t-33.5 56.5t-4 84q7 47 31 83.5t59 61t77.5 37t87.5 12.5q58 0 104.5 -20.5t75.5 -68.5l-63 -41q-20 35 -51 52.5t-77 17.5
q-32 0 -62 -8.5t-54 -25t-40.5 -41.5t-21.5 -59q-6 -40 6.5 -65.5t35.5 -42t54.5 -27t64 -21t63.5 -23.5t54 -34.5t34 -54.5t4 -83q-7 -48 -30.5 -85t-57.5 -62.5t-75.5 -38.5t-84.5 -13q-70 0 -126 24.5t-89 82.5zM388 896h70l88 -144h-65l-66 108l-96 -108h-59z" />
    <glyph glyph-name="scircumflex" unicode="&#x15d;" horiz-adv-x="426" 
d="M97 118q14 -37 48 -56.5t75 -19.5q19 0 39 6t36.5 17t28 26.5t14.5 35.5q3 24 -6.5 38.5t-27.5 23.5t-41.5 15t-48.5 11.5t-48.5 13.5t-41 22t-26.5 35.5t-4 54.5q5 34 22.5 59t42.5 41.5t54 24.5t58 8q57 0 95.5 -21t55.5 -66l-59 -32q-13 32 -35.5 48.5t-63.5 16.5
q-16 0 -34 -5t-34 -14t-27 -23t-14 -32q-4 -31 14 -46t47.5 -23.5t64 -14.5t63 -19.5t45 -39t10.5 -72.5q-5 -36 -22.5 -62.5t-43 -44.5t-57 -27t-64.5 -9q-60 0 -106.5 23t-66.5 71zM281 708h70l88 -144h-65l-66 108l-96 -108h-59z" />
    <glyph glyph-name="Scedilla" unicode="&#x15e;" horiz-adv-x="556" 
d="M134 131q20 -45 57.5 -67t91.5 -22q33 0 63.5 10t54.5 28t40 43.5t21 57.5q5 37 -7 61t-35.5 39.5t-55 26.5t-64 22t-63.5 25t-53.5 36.5t-33.5 56.5t-4 84q7 47 30.5 83.5t58.5 61t78 37t88 12.5q58 0 104.5 -20.5t75.5 -68.5l-63 -41q-39 70 -128 70q-32 0 -62 -8.5
t-54 -25t-40.5 -41.5t-21.5 -59q-6 -40 6.5 -65.5t35.5 -42t54.5 -27t64 -21t63.5 -23.5t54 -34.5t34 -54.5t4 -83q-6 -46 -28 -82t-54.5 -61t-71.5 -39t-80 -16l-40 -47l1 -2q14 7 32 7q16 0 30.5 -4.5t25 -13.5t15.5 -22.5t2 -31.5q-3 -23 -15.5 -39t-30 -26t-38.5 -15
t-40 -5q-50 0 -92 21l19 32q31 -17 73 -17q10 0 21.5 2.5t21.5 7.5t17 13t9 20q4 23 -13 32.5t-37 9.5q-21 0 -45 -8l-14 15l60 71q-63 4 -111.5 28t-79.5 78z" />
    <glyph glyph-name="scedilla" unicode="&#x15f;" horiz-adv-x="426" 
d="M97 118q14 -37 47.5 -56.5t75.5 -19.5q19 0 39 6t36.5 17t28 26.5t14.5 35.5q3 24 -6.5 38.5t-27.5 23.5t-41.5 15t-48.5 11.5t-48.5 13.5t-41 22t-26.5 35.5t-4 54.5q5 34 22.5 59t42.5 41.5t54 24.5t58 8q57 0 95.5 -21t55.5 -66l-59 -32q-13 32 -35 48.5t-64 16.5
q-16 0 -34 -5t-34 -14t-27 -23t-14 -32q-4 -31 14 -46t47.5 -23.5t64 -14.5t63 -19.5t45 -39t10.5 -72.5q-5 -33 -20.5 -58.5t-38.5 -43.5t-51.5 -28t-58.5 -12l-46 -53l1 -2q14 7 32 7q16 0 30.5 -4.5t25 -13.5t15.5 -22.5t2 -31.5q-3 -23 -15.5 -39t-30 -26t-38.5 -15
t-40 -5q-50 0 -92 21l19 32q31 -17 73 -17q10 0 21.5 2.5t21.5 7.5t17 13t9 20q4 23 -13 32.5t-37 9.5q-21 0 -45 -8l-14 15l66 77q-54 3 -94 25.5t-59 67.5z" />
    <glyph glyph-name="Scaron" unicode="&#x160;" horiz-adv-x="556" 
d="M134 131q20 -45 58 -67t91 -22q33 0 63.5 10t54.5 28t40 43.5t21 57.5q5 37 -7 61t-35.5 39.5t-55 26.5t-64 22t-63.5 25t-53.5 36.5t-33.5 56.5t-4 84q7 47 31 83.5t59 61t77.5 37t87.5 12.5q58 0 104.5 -20.5t75.5 -68.5l-63 -41q-20 35 -51 52.5t-77 17.5
q-32 0 -62 -8.5t-54 -25t-40.5 -41.5t-21.5 -59q-6 -40 6.5 -65.5t35.5 -42t54.5 -27t64 -21t63.5 -23.5t54 -34.5t34 -54.5t4 -83q-7 -48 -30.5 -85t-57.5 -62.5t-75.5 -38.5t-84.5 -13q-70 0 -126 24.5t-89 82.5zM416 752h-70l-89 144h62l67 -114l102 114h54z" />
    <glyph glyph-name="scaron" unicode="&#x161;" horiz-adv-x="426" 
d="M97 118q14 -37 48 -56.5t75 -19.5q19 0 39 6t36.5 17t28 26.5t14.5 35.5q3 24 -6.5 38.5t-27.5 23.5t-41.5 15t-48.5 11.5t-48.5 13.5t-41 22t-26.5 35.5t-4 54.5q5 34 22.5 59t42.5 41.5t54 24.5t58 8q57 0 95.5 -21t55.5 -66l-59 -32q-13 32 -35.5 48.5t-63.5 16.5
q-16 0 -34 -5t-34 -14t-27 -23t-14 -32q-4 -31 14 -46t47.5 -23.5t64 -14.5t63 -19.5t45 -39t10.5 -72.5q-5 -36 -22.5 -62.5t-43 -44.5t-57 -27t-64.5 -9q-60 0 -106.5 23t-66.5 71zM325 564h-70l-89 144h62l67 -114l102 114h54z" />
    <glyph glyph-name="Tcommaaccent" unicode="&#x162;" horiz-adv-x="574" 
d="M345 648h-242l8 60h550l-8 -60h-242l-91 -648h-66zM249 -66h65l-85 -165h-53z" />
    <glyph glyph-name="tcommaaccent" unicode="&#x163;" horiz-adv-x="333" 
d="M363 408h-132l-42 -301q-5 -31 9.5 -48t44.5 -17q17 0 35.5 4.5t35.5 11.5l-3 -54q-17 -6 -40 -11t-40 -5q-32 0 -53.5 9.5t-33.5 25.5t-15.5 37.5t0.5 46.5l42 301h-100l7 54h100l19 133h60l-19 -133h132zM148 -66h65l-85 -165h-53z" />
    <glyph glyph-name="Tcaron" unicode="&#x164;" horiz-adv-x="574" 
d="M345 648h-242l8 60h550l-8 -60h-242l-91 -648h-66zM429 752h-70l-89 144h62l67 -114l102 114h54z" />
    <glyph glyph-name="tcaron" unicode="&#x165;" horiz-adv-x="333" 
d="M363 408h-132l-42 -301q-5 -31 9.5 -48t44.5 -17q17 0 35.5 4.5t35.5 11.5l-3 -54q-17 -6 -40 -11t-40 -5q-32 0 -53.5 9.5t-33.5 25.5t-15.5 37.5t0.5 46.5l42 301h-100l7 54h100l19 133h60l-19 -133h132zM377 708h65l-90 -185h-53z" />
    <glyph glyph-name="Tbar" unicode="&#x166;" horiz-adv-x="574" 
d="M528 414h-150l-58 -414h-66l58 414h-148l6 48h148l27 186h-242l8 60h550l-8 -60h-242l-27 -186h150z" />
    <glyph glyph-name="tbar" unicode="&#x167;" horiz-adv-x="333" 
d="M329 277h-117l-23 -170q-5 -31 9.5 -48t44.5 -17q17 0 35.5 4.5t35.5 11.5l-3 -54q-18 -6 -40.5 -11t-39.5 -5q-32 0 -53.5 9.5t-33.5 25.5t-15.5 37.5t0.5 46.5l23 170h-87l7 48h87l12 83h-100l7 54h100l19 133h60l-19 -133h132l-7 -54h-132l-12 -83h117z" />
    <glyph glyph-name="Utilde" unicode="&#x168;" horiz-adv-x="684" 
d="M638 271q-8 -57 -28.5 -109t-56.5 -92t-89 -64t-125 -24t-118 24t-71 64t-30.5 92t2.5 109l61 437h66l-59 -420q-5 -38 -4.5 -81t16 -80t49.5 -61t96 -24t103 24t67 61t39 80t18 81l59 420h66zM295 769q5 17 13.5 35.5t22.5 32.5q14 15 31 24.5t37 9.5t37.5 -8t33.5 -17
q17 -8 31.5 -15.5t28.5 -7.5q22 0 35.5 15t19.5 33h36q-5 -18 -13.5 -36.5t-20.5 -33t-28.5 -23.5t-35.5 -9q-20 0 -37.5 8t-34.5 16t-32.5 16t-30.5 8q-23 0 -36 -15t-21 -33h-36z" />
    <glyph glyph-name="utilde" unicode="&#x169;" horiz-adv-x="556" 
d="M489 130q-2 -13 -4 -31.5t-3.5 -37.5t-3 -35.5t-2.5 -25.5h-60q2 26 5 50t2 31h-3q-12 -19 -29.5 -36t-39.5 -29.5t-48 -20t-54 -7.5q-54 0 -86 17t-47.5 44.5t-17.5 63.5t3 74l38 275h60l-38 -272q-4 -28 -3 -54.5t11 -47.5t30.5 -33.5t56.5 -12.5q33 0 64 11.5t56 35
t42.5 59t24.5 83.5l32 231h60zM202 581q5 17 14 35.5t23 32.5q14 15 30.5 24.5t36.5 9.5t38 -8t34 -17q15 -8 30.5 -15.5t29.5 -7.5q22 0 35 15t19 33h36q-5 -18 -13 -36.5t-20.5 -33t-28.5 -23.5t-36 -9t-37 8l-34 16t-32.5 16t-30.5 8q-23 0 -36.5 -15t-21.5 -33h-36z" />
    <glyph glyph-name="Umacron" unicode="&#x16a;" horiz-adv-x="684" 
d="M638 271q-8 -57 -28.5 -109t-56.5 -92t-89 -64t-125 -24t-118 24t-71 64t-30.5 92t2.5 109l61 437h66l-59 -420q-5 -38 -4.5 -81t16 -80t49.5 -61t96 -24t103 24t67 61t39 80t18 81l59 420h66zM587 799h-264l7 48h264z" />
    <glyph glyph-name="umacron" unicode="&#x16b;" horiz-adv-x="556" 
d="M489 130q-2 -13 -4 -31.5t-3.5 -37.5t-3 -35.5t-2.5 -25.5h-60q2 26 5 50t2 31h-3q-12 -19 -29.5 -36t-39.5 -29.5t-48 -20t-54 -7.5q-54 0 -86 17t-47.5 44.5t-17.5 63.5t3 74l38 275h60l-38 -272q-4 -28 -3 -54.5t11 -47.5t30.5 -33.5t56.5 -12.5q33 0 64 11.5t56 35
t42.5 59t24.5 83.5l32 231h60zM494 606h-264l6 48h264z" />
    <glyph glyph-name="Ubreve" unicode="&#x16c;" horiz-adv-x="684" 
d="M638 271q-8 -57 -28.5 -109t-56.5 -92t-89 -64t-125 -24t-118 24t-71 64t-30.5 92t2.5 109l61 437h66l-59 -420q-5 -38 -4.5 -81t16 -80t49.5 -61t96 -24t103 24t67 61t39 80t18 81l59 420h66zM364 881q1 -40 25.5 -59t63.5 -19q45 0 72 16.5t43 61.5h42q-15 -60 -59 -93
t-104 -33t-95 33t-30 93h42z" />
    <glyph glyph-name="ubreve" unicode="&#x16d;" horiz-adv-x="556" 
d="M489 130q-2 -13 -4 -31.5t-3.5 -37.5t-3 -35.5t-2.5 -25.5h-60q2 26 5 50t2 31h-3q-12 -19 -29.5 -36t-39.5 -29.5t-48 -20t-54 -7.5q-54 0 -86 17t-47.5 44.5t-17.5 63.5t3 74l38 275h60l-38 -272q-4 -28 -3 -54.5t11 -47.5t30.5 -33.5t56.5 -12.5q33 0 64 11.5t56 35
t42.5 59t24.5 83.5l32 231h60zM274 708q1 -40 25.5 -59t63.5 -19q45 0 72 17t43 61h42q-15 -60 -59.5 -93t-104.5 -33q-59 0 -94 33t-30 93h42z" />
    <glyph glyph-name="Uring" unicode="&#x16e;" horiz-adv-x="684" 
d="M638 271q-8 -57 -28.5 -109t-56.5 -92t-89 -64t-125 -24t-118 24t-71 64t-30.5 92t2.5 109l61 437h66l-59 -420q-5 -38 -4.5 -81t16 -80t49.5 -61t96 -24t103 24t67 61t39 80t18 81l59 420h66zM367 837q3 19 12.5 36.5t24 30.5t32.5 20.5t38 7.5q19 0 35 -8t26.5 -21.5
t15.5 -30.5t2 -36q-3 -18 -12 -35t-23.5 -30t-32.5 -21t-37 -8q-39 0 -62.5 28t-18.5 67zM517 837q4 25 -10 42t-39 17t-43 -17.5t-22 -42.5t10.5 -41.5t38.5 -16.5q25 0 43 17t22 42z" />
    <glyph glyph-name="uring" unicode="&#x16f;" horiz-adv-x="556" 
d="M489 130q-2 -13 -4 -31.5t-3.5 -37.5t-3 -35.5t-2.5 -25.5h-60q2 26 5 50t2 31h-3q-12 -19 -29.5 -36t-39.5 -29.5t-48 -20t-54 -7.5q-54 0 -86 17t-47.5 44.5t-17.5 63.5t3 74l38 275h60l-38 -272q-4 -28 -3 -54.5t11 -47.5t30.5 -33.5t56.5 -12.5q33 0 64 11.5t56 35
t42.5 59t24.5 83.5l32 231h60zM275 649q3 19 12.5 36.5t24 30.5t32.5 20.5t38 7.5q19 0 35 -8t26.5 -21.5t15.5 -30.5t2 -36q-3 -18 -12.5 -35t-24 -30t-32.5 -21t-37 -8q-20 0 -35.5 7.5t-26.5 20.5t-16 30.5t-2 36.5zM425 649q3 25 -10.5 42t-38.5 17t-43.5 -17.5
t-21.5 -42.5q-4 -25 10 -41.5t38 -16.5q25 0 43.5 17t22.5 42z" />
    <glyph glyph-name="Uhungarumlaut" unicode="&#x170;" horiz-adv-x="684" 
d="M638 271q-8 -57 -28.5 -109t-56.5 -92t-89 -64t-125 -24t-118 24t-71 64t-30.5 92t2.5 109l61 437h66l-59 -420q-5 -38 -4.5 -81t16 -80t49.5 -61t96 -24t103 24t67 61t39 80t18 81l59 420h66zM451 896h80l-154 -144h-50zM597 896h80l-154 -144h-50z" />
    <glyph glyph-name="uhungarumlaut" unicode="&#x171;" horiz-adv-x="556" 
d="M489 130q-2 -13 -4 -31.5t-3.5 -37.5t-3 -35.5t-2.5 -25.5h-60q2 26 5 50t2 31h-3q-12 -19 -29.5 -36t-39.5 -29.5t-48 -20t-54 -7.5q-54 0 -86 17t-47.5 44.5t-17.5 63.5t3 74l38 275h60l-38 -272q-4 -28 -3 -54.5t11 -47.5t30.5 -33.5t56.5 -12.5q33 0 64 11.5t56 35
t42.5 59t24.5 83.5l32 231h60zM359 708h80l-154 -144h-50zM505 708h80l-154 -144h-50z" />
    <glyph glyph-name="Uogonek" unicode="&#x172;" horiz-adv-x="684" 
d="M416 -183q-18 -14 -40 -23.5t-50 -9.5q-40 0 -63 22t-17 60q5 35 29 64.5t53 52.5q-69 2 -112.5 26.5t-67 64t-29 90.5t2.5 107l61 437h66l-59 -420q-5 -38 -4.5 -81t16 -80t49.5 -61t96 -24q61 0 102.5 24t67.5 61t39 80t18 81l59 420h66l-61 -437q-8 -53 -26 -102
t-49.5 -88t-77.5 -65t-109 -32q-23 -19 -43.5 -46.5t-25.5 -58.5q-6 -47 37 -47q21 0 35.5 7.5t22.5 15.5z" />
    <glyph glyph-name="uogonek" unicode="&#x173;" horiz-adv-x="556" 
d="M479 -183q-18 -14 -40 -23.5t-50 -9.5q-40 0 -63 22t-17 60q3 21 13.5 40t25.5 35.5t33 31.5t35 27q2 26 5.5 50t1.5 31h-3q-12 -19 -29.5 -36t-39.5 -29.5t-48 -20t-54 -7.5q-54 0 -86 17t-47.5 44.5t-17.5 63.5t3 74l38 275h60l-38 -272q-4 -28 -3 -54.5t11 -47.5
t30.5 -33.5t56.5 -12.5q33 0 64 11.5t56 35t42.5 59t24.5 83.5l32 231h60l-46 -332q-2 -13 -4 -31.5t-3.5 -37.5t-3 -35.5t-2.5 -25.5h-15q-12 -8 -26.5 -21t-28 -29t-23.5 -34t-13 -37q-6 -47 37 -47q21 0 35.5 7.5t22.5 15.5z" />
    <glyph glyph-name="Wcircumflex" unicode="&#x174;" horiz-adv-x="944" 
d="M104 708h68l88 -627h2l267 627h84l91 -627h2l264 627h68l-305 -708h-81l-91 630h-2l-267 -630h-81zM562 896h70l88 -144h-65l-66 108l-96 -108h-59z" />
    <glyph glyph-name="wcircumflex" unicode="&#x175;" horiz-adv-x="704" 
d="M79 462h66l58 -387h2l183 387h57l83 -387h2l163 387h60l-200 -462h-62l-85 378h-2l-182 -378h-62zM417 708h70l88 -144h-65l-66 108l-96 -108h-59z" />
    <glyph glyph-name="Ycircumflex" unicode="&#x176;" horiz-adv-x="574" 
d="M296 305l-203 403h79l167 -336l266 336h74l-317 -403l-42 -305h-66zM377 896h70l88 -144h-65l-66 108l-96 -108h-59z" />
    <glyph glyph-name="ycircumflex" unicode="&#x177;" horiz-adv-x="463" 
d="M189 -143q-23 -45 -56.5 -71t-83.5 -26q-15 0 -29.5 2.5t-27.5 6.5l13 56q12 -4 25 -7.5t27 -3.5q16 0 29.5 7t24 18t19 24.5t15.5 27.5l57 107l-123 464h67l99 -389l203 389h64zM301 708h70l88 -144h-65l-66 108l-96 -108h-59z" />
    <glyph glyph-name="Ydieresis" unicode="&#x178;" horiz-adv-x="574" 
d="M296 305l-203 403h79l167 -336l266 336h74l-317 -403l-42 -305h-66zM262 840q2 20 18 34t36 14t32 -14t10 -34q-3 -20 -19 -34t-36 -14t-32 14t-9 34zM452 840q2 20 18 34t36 14t32 -14t10 -34q-3 -20 -19 -34t-36 -14t-32 14t-9 34z" />
    <glyph glyph-name="Zacute" unicode="&#x179;" horiz-adv-x="556" 
d="M30 52l498 596h-408l8 60h493l-8 -54l-500 -594h428l-8 -60h-510zM454 896h80l-154 -144h-50z" />
    <glyph glyph-name="zacute" unicode="&#x17a;" horiz-adv-x="426" 
d="M32 36l329 372h-263l7 54h346l-5 -36l-328 -372h288l-7 -54h-372zM365 708h80l-154 -144h-50z" />
    <glyph glyph-name="Zdotaccent" unicode="&#x17b;" horiz-adv-x="556" 
d="M30 52l498 596h-408l8 60h493l-8 -54l-500 -594h428l-8 -60h-510zM364 840q2 20 18 34t36 14t32 -14t10 -34q-3 -20 -19 -34t-36 -14t-32 14t-9 34z" />
    <glyph glyph-name="zdotaccent" unicode="&#x17c;" horiz-adv-x="426" 
d="M32 36l329 372h-263l7 54h346l-5 -36l-328 -372h288l-7 -54h-372zM275 652q3 20 19 34t36 14t32 -14t9 -34t-19 -34t-36 -14t-32 14t-9 34z" />
    <glyph glyph-name="Zcaron" unicode="&#x17d;" horiz-adv-x="556" 
d="M30 52l498 596h-408l8 60h493l-8 -54l-500 -594h428l-8 -60h-510zM416 752h-70l-89 144h62l67 -114l102 114h54z" />
    <glyph glyph-name="zcaron" unicode="&#x17e;" horiz-adv-x="426" 
d="M32 36l329 372h-263l7 54h346l-5 -36l-328 -372h288l-7 -54h-372zM325 564h-70l-89 144h62l67 -114l102 114h54z" />
    <glyph glyph-name="florin" unicode="&#x192;" horiz-adv-x="520" 
d="M447 371h-117l-127 -391q-20 -58 -58 -91t-103 -33q-21 0 -40.5 5t-33.5 19l35 47q11 -9 24 -13t27 -4q40 0 62.5 28.5t39.5 82.5l114 350h-108l6 48h117l51 154q9 26 22.5 52.5t33 47.5t46.5 34t62 13q49 0 85 -30l-38 -45q-11 9 -25 15t-30 6q-38 0 -61 -26.5
t-35 -63.5l-51 -157h108z" />
    <glyph glyph-name="Scommaaccent" unicode="&#x218;" horiz-adv-x="556" 
d="M134 131q20 -45 58 -67t91 -22q33 0 63.5 10t54.5 28t40 43.5t21 57.5q5 37 -7 61t-35.5 39.5t-55 26.5t-64 22t-63.5 25t-53.5 36.5t-33.5 56.5t-4 84q7 47 31 83.5t59 61t77.5 37t87.5 12.5q58 0 104.5 -20.5t75.5 -68.5l-63 -41q-20 35 -51 52.5t-77 17.5
q-32 0 -62 -8.5t-54 -25t-40.5 -41.5t-21.5 -59q-6 -40 6.5 -65.5t35.5 -42t54.5 -27t64 -21t63.5 -23.5t54 -34.5t34 -54.5t4 -83q-7 -48 -30.5 -85t-57.5 -62.5t-75.5 -38.5t-84.5 -13q-70 0 -126 24.5t-89 82.5zM244 -66h65l-85 -165h-53z" />
    <glyph glyph-name="scommaaccent" unicode="&#x219;" horiz-adv-x="426" 
d="M97 118q14 -37 48 -56.5t75 -19.5q19 0 39 6t36.5 17t28 26.5t14.5 35.5q3 24 -6.5 38.5t-27.5 23.5t-41.5 15t-48.5 11.5t-48.5 13.5t-41 22t-26.5 35.5t-4 54.5q5 34 22.5 59t42.5 41.5t54 24.5t58 8q57 0 95.5 -21t55.5 -66l-59 -32q-13 32 -35.5 48.5t-63.5 16.5
q-16 0 -34 -5t-34 -14t-27 -23t-14 -32q-4 -31 14 -46t47.5 -23.5t64 -14.5t63 -19.5t45 -39t10.5 -72.5q-5 -36 -22.5 -62.5t-43 -44.5t-57 -27t-64.5 -9q-60 0 -106.5 23t-66.5 71zM182 -66h65l-85 -165h-53z" />
    <glyph glyph-name="uni021A" unicode="&#x21a;" horiz-adv-x="574" 
d="M345 648h-242l8 60h550l-8 -60h-242l-91 -648h-66zM249 -66h65l-85 -165h-53z" />
    <glyph glyph-name="uni021B" unicode="&#x21b;" horiz-adv-x="333" 
d="M363 408h-132l-42 -301q-5 -31 9.5 -48t44.5 -17q17 0 35.5 4.5t35.5 11.5l-3 -54q-17 -6 -40 -11t-40 -5q-32 0 -53.5 9.5t-33.5 25.5t-15.5 37.5t0.5 46.5l42 301h-100l7 54h100l19 133h60l-19 -133h132zM148 -66h65l-85 -165h-53z" />
    <glyph glyph-name="dotlessj" unicode="&#x237;" 
d="M138 -81q-5 -36 -14.5 -65t-27 -50t-44.5 -32.5t-67 -11.5q-25 0 -47 9l16 53q22 -8 37 -8q24 0 39 8.5t25 22t14.5 31.5t7.5 38l77 548h60z" />
    <glyph glyph-name="circumflex" unicode="&#x2c6;" 
d="M184 708h70l88 -144h-65l-66 108l-96 -108h-59z" />
    <glyph glyph-name="caron" unicode="&#x2c7;" 
d="M232 564h-70l-89 144h62l67 -114l102 114h54z" />
    <glyph glyph-name="uni02C9" unicode="&#x2c9;" 
d="M337 606h-264l6 48h264z" />
    <glyph glyph-name="breve" unicode="&#x2d8;" 
d="M117 708q1 -40 25.5 -59t63.5 -19q45 0 72 17t43 61h42q-15 -60 -59.5 -93t-104.5 -33q-59 0 -94 33t-30 93h42z" />
    <glyph glyph-name="dotaccent" unicode="&#x2d9;" 
d="M166 652q3 20 19 34t36 14t32 -14t9 -34t-19 -34t-36 -14t-32 14t-9 34z" />
    <glyph glyph-name="ring" unicode="&#x2da;" 
d="M118 649q3 19 12.5 36.5t24 30.5t32.5 20.5t38 7.5q19 0 35 -8t26.5 -21.5t15.5 -30.5t2 -36q-3 -18 -12.5 -35t-24 -30t-32.5 -21t-37 -8q-20 0 -35.5 7.5t-26.5 20.5t-16 30.5t-2 36.5zM268 649q3 25 -10.5 42t-38.5 17t-43.5 -17.5t-21.5 -42.5q-4 -25 10 -41.5
t38 -16.5q25 0 43.5 17t22.5 42z" />
    <glyph glyph-name="ogonek" unicode="&#x2db;" 
d="M161 -183q-18 -14 -40 -23.5t-50 -9.5q-40 0 -62.5 22t-16.5 60q3 21 13 40t25 36t33 31.5t35 26.5h45q-12 -8 -27 -21t-28 -28.5t-23 -34t-13 -37.5q-6 -47 37 -47q21 0 35.5 7.5t22.5 15.5z" />
    <glyph glyph-name="tilde" unicode="&#x2dc;" 
d="M45 581q5 17 14 35.5t23 32.5q14 15 30.5 24.5t36.5 9.5t38 -8t34 -17q15 -8 30.5 -15.5t29.5 -7.5q22 0 35 15t19 33h36q-5 -18 -13 -36.5t-20.5 -33t-28.5 -23.5t-36 -9t-37 8l-34 16t-32.5 16t-30.5 8q-23 0 -36.5 -15t-21.5 -33h-36z" />
    <glyph glyph-name="hungarumlaut" unicode="&#x2dd;" 
d="M192 708h80l-154 -144h-50zM338 708h80l-154 -144h-50z" />
    <glyph glyph-name="uni0394" unicode="&#x394;" horiz-adv-x="670" 
d="M15 0l381 712h74l187 -712h-642zM422 645l-308 -583h455z" />
    <glyph glyph-name="uni03A9" unicode="&#x3a9;" horiz-adv-x="744" 
d="M434 0l25 181q46 8 83.5 28.5t65 51.5t45 70t23.5 84q7 54 -6 99t-42.5 77.5t-73 50.5t-96.5 18t-101.5 -18.5t-87 -51t-64.5 -77.5t-33 -98q-6 -44 0 -83.5t25 -70.5t50.5 -52t75.5 -28l-25 -181h-251l8 58h197l11 82q-45 13 -78 40t-53 63.5t-27 80.5t0 92
q9 67 42.5 123t83 96.5t111 63t126.5 22.5q64 0 119 -22.5t92.5 -63t55 -96.5t8.5 -122q-7 -48 -26 -92.5t-49 -81.5t-71 -63.5t-90 -39.5l-11 -82h197l-8 -58h-251z" />
    <glyph glyph-name="uni03BC" unicode="&#x3bc;" horiz-adv-x="556" 
d="M489 130q-2 -13 -4 -31.5t-3.5 -37.5t-3 -35.5t-2.5 -25.5h-60q2 26 5 50t2 31h-3q-12 -19 -29.5 -36t-39.5 -29.5t-48 -20t-54 -7.5q-41 0 -67.5 10t-44.5 28l-36 -254h-59l97 690h60l-38 -272q-4 -28 -3 -54.5t11 -47.5t30.5 -33.5t56.5 -12.5q33 0 64 11.5t56 35
t42.5 59t24.5 83.5l32 231h60z" />
    <glyph glyph-name="pi" unicode="&#x3c0;" horiz-adv-x="563" 
d="M525 9q-16 -7 -29.5 -11t-30.5 -4q-27 0 -40.5 9t-19 24.5t-4 35.5t4.5 42l44 310h-232l-58 -415h-52l58 415h-70l6 47h482l-6 -47h-76l-45 -317q-2 -12 -2 -23t3 -19t11 -13t24 -5q8 0 17.5 2t19.5 5z" />
    <glyph glyph-name="endash" unicode="&#x2013;" horiz-adv-x="500" 
d="M37 264h500l-8 -54h-500z" />
    <glyph glyph-name="emdash" unicode="&#x2014;" horiz-adv-x="1000" 
d="M37 264h1000l-8 -54h-1000z" />
    <glyph glyph-name="quoteleft" unicode="&#x2018;" horiz-adv-x="260" 
d="M201 480h-72l108 228h60z" />
    <glyph glyph-name="quoteright" unicode="&#x2019;" horiz-adv-x="260" 
d="M224 708h73l-109 -228h-59z" />
    <glyph glyph-name="quotesinglbase" unicode="&#x201a;" horiz-adv-x="260" 
d="M137 90h73l-109 -228h-59z" />
    <glyph glyph-name="quotedblleft" unicode="&#x201c;" horiz-adv-x="520" 
d="M245 480h-73l109 228h59zM419 480h-73l109 228h59z" />
    <glyph glyph-name="quotedblright" unicode="&#x201d;" horiz-adv-x="520" 
d="M441 708h73l-109 -228h-59zM267 708h73l-109 -228h-59z" />
    <glyph glyph-name="quotedblbase" unicode="&#x201e;" horiz-adv-x="520" 
d="M354 90h73l-109 -228h-59zM180 90h73l-109 -228h-59z" />
    <glyph glyph-name="dagger" unicode="&#x2020;" horiz-adv-x="520" 
d="M294 461h-192l7 48h192l28 199h60l-28 -199h192l-7 -48h-192l-82 -587h-60z" />
    <glyph glyph-name="daggerdbl" unicode="&#x2021;" horiz-adv-x="520" 
d="M240 73h-192l7 48h192l47 340h-192l7 48h192l28 199h60l-28 -199h192l-7 -48h-192l-47 -340h192l-7 -48h-192l-28 -199h-60z" />
    <glyph glyph-name="bullet" unicode="&#x2022;" horiz-adv-x="500" 
d="M122 354q5 37 23.5 69t46 56t61.5 38t71 14t67 -14t51 -38t30 -56t4 -69t-23.5 -69t-46 -56t-61.5 -38t-71 -14t-67 14t-51 38t-30 56t-4 69z" />
    <glyph glyph-name="ellipsis" unicode="&#x2026;" horiz-adv-x="1000" 
d="M124 42q3 20 19 34t36 14t32 -14t9 -34q-2 -20 -18 -34t-36 -14t-32 14t-10 34zM457 42q3 20 19 34t36 14t32 -14t9 -34q-2 -20 -18 -34t-36 -14t-32 14t-10 34zM790 42q3 20 19 34t36 14t32 -14t9 -34q-2 -20 -18 -34t-36 -14t-32 14t-10 34z" />
    <glyph glyph-name="perthousand" unicode="&#x2030;" horiz-adv-x="981" 
d="M626 742l42 -28l-562 -748l-41 28zM325 141q4 31 20.5 59t40 49t53 33t61.5 12q31 0 57.5 -12t44 -33t25.5 -49t4 -59q-4 -32 -20 -59.5t-39.5 -48.5t-53.5 -33t-61 -12q-32 0 -58 12t-44 33t-26 48.5t-4 59.5zM373 141q-6 -44 20.5 -74.5t70.5 -30.5q22 0 42 8t36 22.5
t27 33.5t14 41q6 44 -20 74.5t-70 30.5q-22 0 -42 -8.5t-36.5 -22.5t-27.5 -33t-14 -41zM668 141q4 31 20.5 59t40 49t53 33t61.5 12q31 0 57.5 -12t44 -33t25.5 -49t4 -59q-4 -32 -20 -59.5t-39.5 -48.5t-53.5 -33t-61 -12q-32 0 -58 12t-44 33t-26 48.5t-4 59.5zM716 141
q-6 -44 20.5 -74.5t70.5 -30.5q22 0 42 8t36 22.5t27 33.5t14 41q6 44 -20 74.5t-70 30.5q-22 0 -42 -8.5t-36.5 -22.5t-27.5 -33t-14 -41zM105 567q4 31 20.5 59t40 49t53 33t61.5 12q31 0 57.5 -12t44 -33t25.5 -49t4 -59q-5 -32 -20.5 -59.5t-39.5 -48.5t-53.5 -33
t-60.5 -12q-32 0 -58 12t-44 33t-26.5 48.5t-3.5 59.5zM153 567q-6 -44 20 -74.5t70 -30.5q22 0 42 8t36.5 22.5t27.5 33.5t14 41q6 44 -20 74.5t-70 30.5q-22 0 -42 -8.5t-36.5 -22.5t-27.5 -33t-14 -41z" />
    <glyph glyph-name="guilsinglleft" unicode="&#x2039;" horiz-adv-x="315" 
d="M96 237l165 203l38 -29l-140 -174l93 -176l-48 -27z" />
    <glyph glyph-name="guilsinglright" unicode="&#x203a;" horiz-adv-x="315" 
d="M285 237l-166 -203l-38 29l141 174l-93 176l47 27z" />
    <glyph glyph-name="fraction" unicode="&#x2044;" horiz-adv-x="168" 
d="M393 742l42 -28l-561 -748l-41 28z" />
    <glyph glyph-name="Euro" unicode="&#x20ac;" horiz-adv-x="470" 
d="M516 649q-12 7 -33 12.5t-51 5.5q-69 0 -122.5 -52t-85.5 -154h223l-19 -48h-218q-5 -13 -8 -30.5t-5 -32.5q-2 -11 -3.5 -26.5t-2.5 -26.5h200l-18 -48h-183q-2 -97 38 -151.5t109 -54.5q32 0 56.5 8t44.5 19l4 -57q-19 -11 -49 -20t-72 -9q-51 0 -88 19.5t-62 55
t-37 84t-12 106.5h-63l19 48h48q-1 11 1 26.5t4 26.5q2 14 5 31.5t8 31.5h-59l17 48h52q43 134 115.5 198.5t168.5 64.5q32 0 58.5 -6t42.5 -14z" />
    <glyph glyph-name="afii61289" unicode="&#x2113;" horiz-adv-x="500" 
d="M412 42q-30 -24 -63 -37t-66 -13q-53 0 -82.5 29.5t-20.5 92.5l18 129l-73 -68l-17 28l96 82l36 261q6 40 20 71.5t33.5 53.5t43.5 33t50 11q46 0 70.5 -32.5t16.5 -89.5q-11 -74 -65 -151.5t-151 -164.5l-21 -152q-4 -28 1 -46t15.5 -28.5t24 -14.5t27.5 -4q20 0 43 8
t49 26zM428 588q6 42 -7 66.5t-39 24.5t-50.5 -29.5t-33.5 -92.5l-34 -239q73 72 114.5 141.5t49.5 128.5z" />
    <glyph glyph-name="trademark" unicode="&#x2122;" horiz-adv-x="990" 
d="M309 660h-133l7 48h320l-7 -48h-133l-51 -364h-54zM577 708h86l84 -328l175 328h83l-58 -412h-54l51 361h-2l-193 -361h-32l-91 361h-2l-51 -361h-54z" />
    <glyph glyph-name="Omega" unicode="&#x2126;" horiz-adv-x="744" 
d="M434 0l25 181q46 8 83.5 28.5t65 51.5t45 70t23.5 84q7 54 -6 99t-42.5 77.5t-73 50.5t-96.5 18t-101.5 -18.5t-87 -51t-64.5 -77.5t-33 -98q-6 -44 0 -83.5t25 -70.5t50.5 -52t75.5 -28l-25 -181h-251l8 58h197l11 82q-45 13 -78 40t-53 63.5t-27 80.5t0 92
q9 67 42.5 123t83 96.5t111 63t126.5 22.5q64 0 119 -22.5t92.5 -63t55 -96.5t8.5 -122q-7 -48 -26 -92.5t-49 -81.5t-71 -63.5t-90 -39.5l-11 -82h197l-8 -58h-251z" />
    <glyph glyph-name="estimated" unicode="&#x212e;" horiz-adv-x="500" 
d="M157 259v-181q59 -59 145 -59q63 0 109 28.5t84 91.5l35 -21q-23 -36 -46.5 -61.5t-51 -42t-59.5 -24t-71 -7.5q-59 0 -106.5 21.5t-81.5 59t-52 87.5t-18 108t18 108.5t52 87.5t81.5 58.5t106.5 21.5q58 0 105.5 -20.5t81.5 -57t53 -87t19 -111.5h-404zM448 295v145
q-63 60 -147 60t-144 -60v-145h291z" />
    <glyph glyph-name="partialdiff" unicode="&#x2202;" horiz-adv-x="496" 
d="M506 363q-5 -37 -14.5 -79t-24 -83.5t-36 -80t-50.5 -68t-67 -47t-86 -17.5q-47 0 -81.5 18.5t-55.5 49.5t-29 71.5t-2 84.5q6 43 24.5 82t47.5 68t67.5 46t84.5 17q49 0 89 -23t65 -61q2 13 4.5 26t4.5 26q6 42 4 89.5t-17 88.5t-45.5 68t-82.5 27q-35 0 -62 -13
t-56 -33l-30 43q36 28 73 43t80 15q72 0 114.5 -34t63 -86.5t23 -116t-5.5 -121.5zM425 278q-23 36 -59 63.5t-84 27.5q-34 0 -61.5 -13t-47.5 -35t-33 -51t-17 -60q-4 -30 0.5 -60t18 -54.5t37 -39.5t57.5 -15q43 0 75.5 24t55.5 60t37 77t21 76z" />
    <glyph glyph-name="Delta" unicode="&#x2206;" horiz-adv-x="670" 
d="M15 0l381 712h74l187 -712h-642zM422 645l-308 -583h455z" />
    <glyph glyph-name="product" unicode="&#x220f;" horiz-adv-x="711" 
d="M575 -214v938h-438v-938h-66v1000h570v-1000h-66z" />
    <glyph glyph-name="summation" unicode="&#x2211;" horiz-adv-x="604" 
d="M25 -214v55l329 448l-315 441v56h527v-62h-442l309 -435l-328 -442h473v-61h-553z" />
    <glyph glyph-name="minus" unicode="&#x2212;" horiz-adv-x="666" 
d="M123 327h510l-6 -48h-510z" />
    <glyph glyph-name="uni2215" unicode="&#x2215;" horiz-adv-x="168" 
d="M289 742l46 -28l-457 -748l-45 28z" />
    <glyph glyph-name="uni2219" unicode="&#x2219;" horiz-adv-x="260" 
d="M126 318q3 20 19 34t36 14t32 -14t9 -34t-19 -34t-36 -14t-32 14t-9 34z" />
    <glyph glyph-name="radical" unicode="&#x221a;" horiz-adv-x="493" 
d="M292 -214h-66l-164 340l-46 -22l-24 50l100 48l158 -332l189 916h63z" />
    <glyph glyph-name="infinity" unicode="&#x221e;" horiz-adv-x="741" 
d="M700 252q0 -31 -10 -58t-28 -47t-44 -31.5t-58 -11.5q-29 0 -55 9.5t-49.5 25t-44.5 34.5t-40 38q-22 -18 -43 -37t-43.5 -34.5t-48 -25.5t-55.5 -10q-32 0 -57.5 11t-44 30.5t-28.5 46t-10 57.5q0 30 9.5 57t27.5 47.5t43.5 32t57.5 11.5q29 0 55.5 -10.5t50 -27t45 -36
t41.5 -38.5q20 19 40.5 39t43 36.5t48 27t55.5 10.5q32 0 58 -11t45 -30.5t29 -46.5t10 -58zM643 249q0 38 -20.5 65t-62.5 27q-21 0 -41.5 -9.5t-39.5 -24t-37 -30.5t-33 -29q16 -14 33.5 -29t37 -28t40 -21t43.5 -8q38 0 59 25t21 62zM333 249q-15 13 -33 28.5t-38.5 29.5
t-41.5 23.5t-42 9.5q-19 0 -34 -7.5t-25 -20t-15.5 -28.5t-5.5 -34q0 -38 22 -63t62 -25q21 0 41.5 8.5t40 21.5t37.5 28.5t32 28.5z" />
    <glyph glyph-name="integral" unicode="&#x222b;" horiz-adv-x="543" 
d="M406 736q0 -17 -10.5 -25.5t-26.5 -8.5q-14 0 -21 6t-11.5 13.5t-8.5 14t-11 6.5q-12 0 -19 -13t-10.5 -32.5t-5 -42.5t-1 -44.5t1 -37.5t0.5 -21v-504q0 -32 -1 -76.5t-12 -85.5t-36 -69.5t-73 -28.5q-21 0 -40.5 11t-19.5 36q0 14 9.5 23t23.5 9q13 0 20 -6t11.5 -13
t8.5 -13t10 -6q13 0 20 22.5t9.5 51t2.5 54v31.5l1 21v495q0 23 -1 53t0.5 61.5t7 61.5t19 54t36 38.5t57.5 14.5q11 0 23.5 -2.5t23 -8.5t17 -15.5t6.5 -23.5z" />
    <glyph glyph-name="approxequal" unicode="&#x2248;" horiz-adv-x="666" 
d="M644 397q-7 -24 -18.5 -47t-28 -40.5t-38 -28t-49.5 -10.5q-31 0 -66.5 11.5t-70.5 25.5t-68 25t-62 11q-35 0 -59.5 -24t-35.5 -56h-33q7 25 18.5 48t27.5 41t37.5 28.5t50.5 10.5q31 0 66 -11t71 -25q34 -14 68 -25.5t64 -11.5q37 0 59.5 22.5t34.5 55.5h32zM620 226
q-7 -24 -18.5 -47t-28 -40.5t-38 -28t-49.5 -10.5q-31 0 -66.5 11.5t-70.5 25.5t-68 25t-62 11q-35 0 -59.5 -24t-35.5 -56h-33q7 25 18.5 48t27.5 41t37.5 28.5t50.5 10.5q31 0 66 -11t71 -25q34 -14 68 -25.5t64 -11.5q37 0 59.5 22.5t34.5 55.5h32z" />
    <glyph glyph-name="notequal" unicode="&#x2260;" horiz-adv-x="666" 
d="M311 126l-95 -142l-39 21l81 121h-153l7 48h178l95 142h-253l7 48h279l97 145l38 -22l-82 -123h158l-7 -48h-183l-96 -142h259l-7 -48h-284z" />
    <glyph glyph-name="lessequal" unicode="&#x2264;" horiz-adv-x="666" 
d="M89 12l7 47h490l-7 -47h-490zM130 301l8 56l516 184l-8 -52l-453 -161l408 -160l-7 -51z" />
    <glyph glyph-name="greaterequal" unicode="&#x2265;" horiz-adv-x="666" 
d="M104 117l7 51l454 160l-409 161l8 52l464 -184l-8 -56zM89 12l7 47h490l-7 -47h-490z" />
    <glyph glyph-name="lozenge" unicode="&#x25ca;" horiz-adv-x="593" 
d="M327 -35h-63l-169 391l169 391h63l171 -391zM296 681l-136 -325l136 -325l137 325z" />
    <glyph glyph-name="grave.cap" unicode="&#xe300;" 
d="M283 752h-50l-114 144h80z" />
    <glyph glyph-name="acute.cap" unicode="&#xe301;" 
d="M291 896h80l-154 -144h-50z" />
    <glyph glyph-name="circumflex.cap" unicode="&#xe302;" 
d="M210 896h70l88 -144h-65l-66 108l-96 -108h-59z" />
    <glyph glyph-name="caron.cap" unicode="&#xe303;" 
d="M258 752h-70l-89 144h62l67 -114l102 114h54z" />
    <glyph glyph-name="tilde.cap" unicode="&#xe304;" 
d="M72 769q5 17 13.5 35.5t22.5 32.5q14 15 31 24.5t37 9.5t37.5 -8t33.5 -17q17 -8 31.5 -15.5t28.5 -7.5q22 0 35.5 15t19.5 33h36q-5 -18 -13.5 -36.5t-20.5 -33t-28.5 -23.5t-35.5 -9q-20 0 -37.5 8t-34.5 16t-32.5 16t-30.5 8q-23 0 -36 -15t-21 -33h-36z" />
    <glyph glyph-name="dieresis.cap" unicode="&#xe305;" 
d="M95 840q2 20 18 34t36 14t32 -14t10 -34q-3 -20 -19 -34t-36 -14t-32 14t-9 34zM285 840q2 20 18 34t36 14t32 -14t10 -34q-3 -20 -19 -34t-36 -14t-32 14t-9 34z" />
    <glyph glyph-name="macron.cap" unicode="&#xe306;" 
d="M364 799h-264l7 48h264z" />
    <glyph glyph-name="breve.cap" unicode="&#xe307;" 
d="M141 881q1 -40 25.5 -59t63.5 -19q45 0 72 16.5t43 61.5h42q-15 -60 -59 -93t-104 -33t-95 33t-30 93h42z" />
    <glyph glyph-name="ring.cap" unicode="&#xe308;" 
d="M144 837q3 19 12.5 36.5t24 30.5t32.5 20.5t38 7.5q19 0 35 -8t26.5 -21.5t15.5 -30.5t2 -36q-3 -18 -12 -35t-23.5 -30t-32.5 -21t-37 -8q-39 0 -62.5 28t-18.5 67zM294 837q4 25 -10 42t-39 17t-43 -17.5t-22 -42.5t10.5 -41.5t38.5 -16.5q25 0 43 17t22 42z" />
    <glyph glyph-name="hungarumlaut.cap" unicode="&#xe309;" 
d="M218 896h80l-154 -144h-50zM364 896h80l-154 -144h-50z" />
    <glyph glyph-name="dotaccent.cap" unicode="&#xe30a;" 
d="M193 840q2 20 18 34t36 14t32 -14t10 -34q-3 -20 -19 -34t-36 -14t-32 14t-9 34z" />
    <glyph glyph-name="caron.alt" unicode="&#xe30b;" 
d="M191 708h65l-90 -185h-53z" />
    <glyph glyph-name="commaaccent" unicode="&#xe30c;" 
d="M82 -66h65l-85 -165h-53z" />
    <glyph glyph-name="commaaccent.alt" unicode="&#xe30d;" 
d="M218 594h-65l86 165h53z" />
    <glyph glyph-name="uniF8FF" unicode="&#xf8ff;" horiz-adv-x="512" 
d="M222 117v67h56v-67h-56zM225 234l-2 17q0 56 13 81q7 13 18 27.5t28 31.5q32 30 41 47.5t9 35.5q0 36 -22.5 60.5t-53.5 24.5t-53.5 -22t-28.5 -73l-50 8q7 72 44 104.5t91 32.5t89 -35.5t35 -95.5q0 -32 -12.5 -58.5t-50.5 -61.5q-37 -33 -43 -52q-6 -20 -6 -72h-46z
M462 50v617h-412v-617h412zM512 718v-718h-512v718h512z" />
    <glyph glyph-name="fi" unicode="&#xfb01;" horiz-adv-x="519" 
d="M433 462h60l-64 -462h-60zM444 645q3 19 17.5 32t33.5 13t30.5 -13t8.5 -32q-2 -19 -17 -32t-34 -13t-30 13t-9 32zM171 408h-96l7 54h96l22 151q6 45 23.5 74.5t40 47.5t48 25.5t47.5 7.5q42 0 68 -12l-20 -52q-19 10 -52 10q-82 0 -98 -123l-19 -129h108l-7 -54h-108
l-57 -408h-60z" />
    <glyph glyph-name="fl" unicode="&#xfb02;" horiz-adv-x="519" 
d="M171 408h-96l7 54h96l22 151q6 45 23.5 74.5t40 47.5t48 25.5t47.5 7.5q42 0 68 -12l-20 -52q-19 10 -52 10q-82 0 -98 -123l-19 -129h108l-7 -54h-108l-57 -408h-60zM475 756h60l-106 -756h-60z" />
    </font>
</defs>
</svg>
