<?xml version="1.0" standalone="no"?>
<!DOCTYPE svg PUBLIC "-//W3C//DTD SVG 1.1//EN" "http://www.w3.org/Graphics/SVG/1.1/DTD/svg11.dtd" >
<svg xmlns="http://www.w3.org/2000/svg" xmlns:xlink="http://www.w3.org/1999/xlink" version="1.1">
<metadata>
Created by FontForge 20161003 at Thu Aug 23 13:51:28 2018
 By www-data
Copyright(c) 2007 Linotype GmbH, www.linotype.com. All rights reserved.
</metadata>
<defs>
<font id="AvenirMediumOblique" horiz-adv-x="556" >
  <font-face 
    font-family="AvenirMediumOblique"
    font-weight="500"
    font-style="oblique"
    font-stretch="normal"
    units-per-em="1000"
    panose-1="2 0 6 3 2 0 0 2 0 3"
    ascent="800"
    descent="-200"
    x-height="474"
    cap-height="708"
    bbox="-166 -282 1060 944"
    underline-thickness="50"
    underline-position="-150"
    slope="-8"
    unicode-range="U+0020-FB02"
  />
<missing-glyph horiz-adv-x="512" 
d="M222 117v67h56v-67h-56zM225 234l-2 17q0 56 13 81q7 13 18 27.5t28 31.5q16 15 26 26.5t15 21t7 18t2 17.5q0 36 -22.5 60.5t-53.5 24.5t-53.5 -22t-28.5 -73l-50 8q7 72 44 104.5t91 32.5t89 -35.5t35 -95.5q0 -32 -12.5 -58.5t-50.5 -61.5q-37 -33 -43 -52
q-6 -20 -6 -72h-46zM462 50v617h-412v-617h412zM512 718v-718h-512v718h512z" />
    <glyph glyph-name=".notdef" horiz-adv-x="512" 
d="M222 117v67h56v-67h-56zM225 234l-2 17q0 56 13 81q7 13 18 27.5t28 31.5q16 15 26 26.5t15 21t7 18t2 17.5q0 36 -22.5 60.5t-53.5 24.5t-53.5 -22t-28.5 -73l-50 8q7 72 44 104.5t91 32.5t89 -35.5t35 -95.5q0 -32 -12.5 -58.5t-50.5 -61.5q-37 -33 -43 -52
q-6 -20 -6 -72h-46zM462 50v617h-412v-617h412zM512 718v-718h-512v718h512z" />
    <glyph glyph-name=".null" horiz-adv-x="0" 
 />
    <glyph glyph-name="nonmarkingreturn" horiz-adv-x="333" 
 />
    <glyph glyph-name="space" unicode=" " horiz-adv-x="278" 
 />
    <glyph glyph-name="exclam" unicode="!" horiz-adv-x="278" 
d="M213 204h-96l71 504h96zM81 60q4 27 26 46.5t49 19.5t44 -19.5t13 -46.5t-26 -46.5t-49 -19.5t-44 19.5t-13 46.5z" />
    <glyph glyph-name="quotedbl" unicode="&#x22;" horiz-adv-x="519" 
d="M245 708h78l-35 -246h-78zM394 708h78l-35 -246h-78z" />
    <glyph glyph-name="numbersign" unicode="#" 
d="M148 204h-95l11 78h106l40 144h-95l11 78h106l57 204h79l-57 -204h116l57 204h79l-57 -204h95l-11 -78h-106l-40 -144h95l-11 -78h-106l-56 -204h-79l56 204h-116l-56 -204h-79zM289 426l-40 -144h116l40 144h-116z" />
    <glyph glyph-name="dollar" unicode="$" 
d="M401 720q55 0 104.5 -18.5t82.5 -58.5l-82 -70q-18 29 -48.5 45.5t-68.5 17.5l-33 -236q40 -13 77 -27.5t64 -37t40 -56.5t6 -85q-6 -46 -29 -83t-56 -63.5t-74.5 -41.5t-85.5 -18l-10 -72h-54l10 72q-66 0 -120 21.5t-87 74.5l87 69q17 -38 53.5 -58.5t78.5 -22.5
l34 246q-39 10 -74 25.5t-59.5 39.5t-36.5 58t-5 82q6 43 27.5 77.5t53.5 60t71 41t80 18.5l10 72h54zM335 636q-49 -8 -83 -36.5t-41 -76.5q-3 -24 3.5 -41.5t19.5 -30.5t31.5 -22t38.5 -15zM310 72q51 6 90 36.5t46 81.5q4 26 -4 44.5t-23 31.5t-35 22t-42 16z" />
    <glyph glyph-name="percent" unicode="%" horiz-adv-x="852" 
d="M230 -31l-55 31l549 740l55 -31zM114 549q5 37 23.5 69t46 56t61.5 38t71 14t67 -14t50.5 -38t30 -56t4.5 -69t-23.5 -69t-46 -56t-61.5 -38t-71 -14t-67 14t-51 38t-30 56t-4 69zM192 549q-6 -42 18.5 -70.5t66.5 -28.5q21 0 40 7.5t34 21t25.5 31.5t13.5 39
q5 42 -19 70.5t-66 28.5q-21 0 -40 -7.5t-34.5 -21t-25.5 -31.5t-13 -39zM483 159q5 37 23.5 69t46 56t61.5 38t71 14t67 -14t51 -38t30 -56t4 -69t-23.5 -69t-46 -56t-61.5 -38t-71 -14t-67 14t-51 38t-30 56t-4 69zM561 159q-6 -42 18.5 -70.5t66.5 -28.5q21 0 40 7.5
t34 21t25.5 31.5t13.5 39q6 42 -18.5 70.5t-66.5 28.5q-21 0 -40 -7.5t-34 -21t-25.5 -31.5t-13.5 -39z" />
    <glyph glyph-name="ampersand" unicode="&#x26;" horiz-adv-x="722" 
d="M712 0h-129l-74 94q-53 -54 -107 -83t-126 -29q-60 0 -101.5 17.5t-66 46.5t-33 65.5t-2.5 75.5q5 37 22.5 67.5t43 55.5t57.5 45t66 35q-14 18 -26.5 36t-21 38t-12 42t-0.5 48q6 40 26 71t49 52t64.5 32t73.5 11q37 0 69 -10t54 -30t32.5 -50t4.5 -70
q-5 -33 -21.5 -60.5t-40.5 -50t-53 -40t-57 -31.5l119 -146l109 145h109l-166 -212zM479 560q5 35 -16 55.5t-59 20.5t-69 -21.5t-37 -61.5q-2 -18 2 -34t12.5 -31t19 -28t20.5 -25q19 10 40.5 22t39.5 27t31 33.5t16 42.5zM314 334q-23 -12 -46 -26t-42.5 -31t-33 -38.5
t-17.5 -48.5q-3 -26 5 -48.5t24 -39.5t38.5 -26.5t48.5 -9.5t49.5 8t44.5 20.5t40 28.5t35 33z" />
    <glyph glyph-name="quotesingle" unicode="'" horiz-adv-x="278" 
d="M242 462h-78l35 246h78z" />
    <glyph glyph-name="parenleft" unicode="(" horiz-adv-x="278" 
d="M351 690q-39 -51 -70 -98t-53.5 -95.5t-37.5 -100.5t-24 -112q-16 -110 2 -213t69 -191l-65 -40q-57 94 -79 207t-5 237q16 115 69.5 230t138.5 214z" />
    <glyph glyph-name="parenright" unicode=")" horiz-adv-x="278" 
d="M7 -122q39 51 70 98t53.5 95.5t37.5 100.5t24 112q15 110 -2.5 213t-68.5 191l65 40q57 -94 79 -207t5 -237q-17 -115 -70 -230t-138 -214z" />
    <glyph glyph-name="asterisk" unicode="*" horiz-adv-x="464" 
d="M347 561l146 47l12 -67l-146 -45l71 -119l-60 -41l-74 122l-106 -120l-49 41l105 117l-135 48l30 65l134 -48l21 147h72z" />
    <glyph glyph-name="plus" unicode="+" horiz-adv-x="666" 
d="M114 342h228l32 228h78l-32 -228h228l-11 -78h-228l-32 -228h-78l32 228h-228z" />
    <glyph glyph-name="comma" unicode="," horiz-adv-x="278" 
d="M111 -132h-82l104 246h97z" />
    <glyph glyph-name="hyphen" unicode="-" horiz-adv-x="316" 
d="M309 200h-246l11 84h246z" />
    <glyph glyph-name="period" unicode="." horiz-adv-x="278" 
d="M138 -6q-27 0 -44 19.5t-13 46.5t26 46.5t49 19.5t44 -19.5t13 -46.5t-26 -46.5t-49 -19.5z" />
    <glyph glyph-name="slash" unicode="/" horiz-adv-x="389" 
d="M63 -44l-65 26l427 770l66 -26z" />
    <glyph glyph-name="zero" unicode="0" 
d="M83 354q8 58 27 122.5t53.5 118.5t87.5 89.5t128 35.5q50 0 85.5 -16.5t58.5 -44t35.5 -64.5t17 -77.5t2.5 -82.5t-7 -81q-8 -56 -27 -120t-53.5 -119t-87 -91t-127.5 -36t-117.5 36t-62 91t-20.5 119t7 120zM179 354q-5 -35 -7.5 -83t6.5 -92.5t34.5 -75.5t75.5 -31
t84 31t55 75.5t32 92.5t16 83q3 24 6 54.5t2 62t-6.5 61t-19 53t-35.5 37.5t-55 14q-50 0 -84 -30.5t-55 -74t-32.5 -92t-16.5 -85.5z" />
    <glyph glyph-name="one" unicode="1" 
d="M354 598l-147 -120l-47 67l220 163h85l-99 -708h-96z" />
    <glyph glyph-name="two" unicode="2" 
d="M60 102l323 282q34 29 63.5 65t35.5 80q4 26 -3 47t-21.5 35.5t-35.5 22.5t-46 8q-52 0 -90 -29t-55 -80l-102 9q13 47 38.5 81.5t59.5 57.5t75 34t87 11t84.5 -12.5t65.5 -37t39.5 -61t5.5 -85.5q-5 -35 -19.5 -65.5t-35.5 -57.5t-46.5 -51t-52.5 -47l-265 -225h356
l-11 -84h-464z" />
    <glyph glyph-name="three" unicode="3" 
d="M171 173q10 -51 35 -76t81 -25q28 0 54 9.5t47 26t35.5 40t18.5 52.5q6 44 -9 70.5t-42 40t-61.5 17.5t-68.5 4l12 84q55 0 91 7.5t58.5 21.5t33 35t14.5 47q7 56 -22.5 85.5t-80.5 29.5q-39 0 -74 -22.5t-56 -59.5l-93 33q37 68 99.5 100.5t133.5 32.5q43 0 81 -11.5
t64 -35.5t38.5 -60.5t5.5 -85.5q-8 -56 -47 -100t-96 -60v-2q33 -6 56.5 -22t37.5 -40t19 -53.5t1 -62.5q-7 -51 -32 -89.5t-61 -64t-80.5 -38.5t-91.5 -13q-81 0 -137.5 37t-69.5 117z" />
    <glyph glyph-name="four" unicode="4" 
d="M357 156h-302l14 98l346 454h18h98l-66 -468h100l-12 -84h-100l-21 -156h-96zM419 594h-2l-266 -354h218z" />
    <glyph glyph-name="five" unicode="5" 
d="M557 618h-287l-28 -177q8 3 21 6t27.5 5t27.5 3t22 1q50 0 88 -17t62.5 -48t34 -74t2.5 -95q-8 -53 -33.5 -96t-63.5 -74t-85.5 -47.5t-99.5 -16.5q-72 0 -125 37t-68 106l102 33q11 -49 40.5 -70.5t77.5 -21.5q28 0 54.5 10t48 28.5t36 45.5t19.5 61q10 77 -31.5 116
t-117.5 39q-14 0 -32 -2.5t-38 -7t-41 -11.5t-40 -16l60 373h93h287z" />
    <glyph glyph-name="six" unicode="6" 
d="M280 434h4q36 16 81 16q38 0 75 -13t65 -40.5t41.5 -70t5.5 -100.5q-8 -59 -33.5 -103.5t-63 -74.5t-83.5 -45t-96 -15t-92 16t-71 46t-42.5 72t-5.5 94q4 33 13 60t22 51.5t29 48t36 49.5l219 283h113zM161 219q-5 -32 2 -59t24 -46.5t42.5 -30.5t58.5 -11t61.5 11
t50.5 30.5t36 46.5t19 59q4 32 -2.5 59t-23 46.5t-42 30.5t-58.5 11t-61.5 -11t-51 -30.5t-37 -46.5t-18.5 -59z" />
    <glyph glyph-name="seven" unicode="7" 
d="M471 624h-342l12 84h445l-12 -82l-369 -626h-108z" />
    <glyph glyph-name="eight" unicode="8" 
d="M276 -12q-48 0 -88.5 14.5t-67.5 42.5t-39.5 68t-5.5 90q4 33 18.5 61t35.5 50.5t48 38t57 23.5l1 3q-19 5 -37 18t-31 33t-19 48.5t-1 65.5q6 40 27 72.5t53 55.5t71 35.5t81 12.5t77.5 -12.5t60.5 -35.5t37.5 -55.5t6.5 -72.5q-5 -37 -19 -65.5t-32.5 -48.5t-40 -33
t-42.5 -18l-1 -3q56 -16 88 -61.5t23 -111.5q-7 -50 -30.5 -90t-58.5 -68t-79.5 -42.5t-92.5 -14.5zM241 530q-3 -21 1.5 -41t16.5 -35.5t31 -25.5t46 -10q28 0 50 9.5t38 25t26 35.5t13 42q7 49 -19 80.5t-76 31.5q-23 0 -44.5 -8t-38.5 -23t-29 -35.5t-15 -45.5zM288 72
q30 0 56 9.5t46.5 27t33.5 41.5t17 53q4 32 -3 56.5t-23 41t-39.5 25t-51.5 8.5q-29 0 -55 -10t-46.5 -27.5t-34 -41.5t-17.5 -52q-5 -31 2.5 -55.5t24 -41t40 -25.5t50.5 -9z" />
    <glyph glyph-name="nine" unicode="9" 
d="M374 274h-4q-36 -16 -80 -16q-38 0 -75.5 13t-65 40.5t-41.5 70t-6 100.5t33.5 102.5t63 74.5t84 45.5t96.5 15.5t92 -16t70.5 -46t42 -72t6.5 -94q-5 -33 -14 -60t-21.5 -51.5t-29 -48.5t-36.5 -49l-218 -283h-113zM493 489q4 32 -2.5 59t-23 46.5t-42 30.5t-58.5 11
t-61.5 -11t-51 -30.5t-37 -46.5t-18.5 -59q-5 -32 2 -59t24 -46.5t42.5 -30.5t58.5 -11t61.5 11t50.5 30.5t36 46.5t19 59z" />
    <glyph glyph-name="colon" unicode=":" horiz-adv-x="278" 
d="M187 348q-27 0 -43.5 19.5t-12.5 46.5t26 46.5t49 19.5t44 -19.5t13 -46.5t-26.5 -46.5t-49.5 -19.5zM81 60q4 27 26 46.5t49 19.5t44 -19.5t13 -46.5t-26 -46.5t-49 -19.5t-44 19.5t-13 46.5z" />
    <glyph glyph-name="semicolon" unicode=";" horiz-adv-x="278" 
d="M111 -132h-82l104 246h97zM131 413q4 27 26 46.5t49 19.5t44 -19.5t13 -46.5q-5 -27 -27 -46.5t-49 -19.5t-44 19.5t-12 46.5z" />
    <glyph glyph-name="less" unicode="&#x3c;" horiz-adv-x="666" 
d="M606 43l-504 219l12 82l565 220l-11 -79l-478 -182l427 -182z" />
    <glyph glyph-name="equal" unicode="=" horiz-adv-x="666" 
d="M659 420l-11 -78h-534l11 78h534zM636 263l-10 -78h-534l10 78h534z" />
    <glyph glyph-name="greater" unicode="&#x3e;" horiz-adv-x="666" 
d="M145 563l503 -219l-12 -82l-565 -220l12 79l477 182l-426 182z" />
    <glyph glyph-name="question" unicode="?" horiz-adv-x="500" 
d="M237 198l9 61q4 27 10 45t16.5 32.5t26 28t37.5 32.5q18 15 36.5 30.5t34 32t26.5 35t14 41.5q6 46 -20 76t-71 30q-49 0 -84 -31t-48 -81l-101 10q13 43 36.5 77.5t56 58.5t71.5 37t83 13q42 0 76.5 -12.5t58.5 -36t34.5 -58t4.5 -78.5q-6 -38 -21 -66.5t-38 -53.5
l-69 -62l-11 -9q-18 -15 -29.5 -25.5t-18 -22t-10.5 -25.5t-7 -35l-7 -44h-96zM199 60q4 27 26 46.5t49 19.5t44 -19.5t13 -46.5t-26 -46.5t-49 -19.5t-44 19.5t-13 46.5z" />
    <glyph glyph-name="at" unicode="@" horiz-adv-x="800" 
d="M490 485q-35 0 -64.5 -15.5t-51.5 -42t-36.5 -60t-19.5 -69.5q-5 -37 8.5 -58.5t51.5 -21.5q30 0 58 17.5t49.5 43.5t36 57.5t18.5 60.5q5 35 -6.5 61.5t-43.5 26.5zM568 267q-3 -8 -5.5 -14t-2.5 -11q-4 -24 25 -24q21 0 45 15.5t46 42.5t38 62.5t22 75.5
q8 59 -6.5 104.5t-46 77t-77 48t-98.5 16.5q-64 0 -121.5 -24t-102.5 -65.5t-74.5 -97.5t-38.5 -121q-9 -66 6 -122t49.5 -96.5t86 -63t114.5 -22.5q72 0 138 26t109 75h79q-26 -38 -64 -69t-82.5 -52.5t-93.5 -33.5t-97 -12q-79 0 -143.5 29t-108 79.5t-62.5 119t-8 146.5
q10 77 49 144.5t97 117.5t129.5 79t147.5 29q70 0 128.5 -23t99.5 -63.5t60 -96t10 -121.5q-9 -64 -40 -116t-71.5 -89t-84.5 -57t-79 -20q-26 0 -42 16.5t-12 47.5h-4q-26 -24 -61 -44t-72 -20q-32 0 -55.5 12.5t-38.5 33.5t-20.5 49.5t-0.5 61.5q7 49 30 97t57.5 85.5
t79 60.5t95.5 23q35 0 61.5 -17.5t34.5 -58.5h2l24 57h73z" />
    <glyph glyph-name="A" unicode="A" horiz-adv-x="704" 
d="M412 708h87l204 -708h-112l-47 175h-337l-94 -175h-112zM521 259l-86 325h-2l-180 -325h268z" />
    <glyph glyph-name="B" unicode="B" horiz-adv-x="630" 
d="M190 708h95h151q46 0 84 -11t63.5 -32.5t37 -55t5.5 -78.5q-8 -61 -47.5 -99.5t-96.5 -56.5v-2q31 -2 57 -16.5t43.5 -38t25 -54.5t2.5 -67q-7 -48 -31.5 -84.5t-61.5 -61.5t-84 -38t-99 -13h-149h-94zM245 414h131q27 0 52 5.5t44.5 18.5t33 33t17.5 49q5 42 -17.5 73
t-80.5 31h-151zM198 84h141q22 0 49 4.5t52.5 18t44.5 36.5t24 61q9 63 -27.5 94.5t-106.5 31.5h-142z" />
    <glyph glyph-name="C" unicode="C" horiz-adv-x="704" 
d="M662 555q-25 39 -68 60t-92 21q-60 0 -111.5 -22.5t-92 -61.5t-66.5 -91.5t-35 -112.5q-8 -56 3 -106t40 -88t75 -60t108 -22q61 0 110.5 25t87.5 70l72 -61q-9 -11 -32 -31.5t-59 -41t-84.5 -36t-109.5 -15.5q-84 0 -147 32t-103 84t-56 117.5t-7 132.5
q12 82 48.5 151.5t92.5 120t128 78.5t154 28q70 0 133.5 -26.5t98.5 -83.5z" />
    <glyph glyph-name="D" unicode="D" horiz-adv-x="741" 
d="M174 708h93h154q75 0 129 -17t91.5 -45.5t60 -65.5t33 -76t12 -78t-3.5 -72q-9 -68 -43 -131.5t-90 -113t-132.5 -79.5t-171.5 -30h-137h-94zM183 90h121q61 0 117.5 16.5t102.5 49.5t77 82.5t40 115.5q3 23 2.5 51t-8 57.5t-23.5 57.5t-43.5 49.5t-69 35t-98.5 13.5
h-144z" />
    <glyph glyph-name="E" unicode="E" horiz-adv-x="611" 
d="M190 708h95h362l-13 -90h-361l-29 -211h336l-13 -90h-336l-32 -227h379l-12 -90h-382h-93z" />
    <glyph glyph-name="F" unicode="F" horiz-adv-x="574" 
d="M190 708h94h351l-13 -90h-349l-31 -222h325l-12 -90h-325l-43 -306h-96z" />
    <glyph glyph-name="G" unicode="G" horiz-adv-x="778" 
d="M654 396h95l-49 -349q-28 -16 -63 -28t-71.5 -20.5t-73.5 -12.5t-69 -4q-90 0 -156.5 30t-107.5 81t-57.5 118.5t-5.5 142.5q11 79 48 147t93 118t128 78.5t153 28.5q97 0 156.5 -24.5t94.5 -67.5l-79 -73q-38 42 -84.5 58.5t-100.5 16.5q-61 0 -113.5 -22.5t-92.5 -60.5
t-66.5 -89.5t-34.5 -109.5q-8 -60 6 -111.5t45.5 -89.5t78.5 -59.5t106 -21.5q51 0 97.5 9.5t81.5 27.5l28 197h-157l12 90h158z" />
    <glyph glyph-name="H" unicode="H" horiz-adv-x="741" 
d="M190 708h96l-41 -294h367l41 294h96l-99 -708h-96l45 324h-367l-45 -324h-96z" />
    <glyph glyph-name="I" unicode="I" horiz-adv-x="278" 
d="M190 708h96l-99 -708h-96z" />
    <glyph glyph-name="J" unicode="J" horiz-adv-x="482" 
d="M411 708h96l-71 -506q-9 -67 -36.5 -109.5t-62.5 -67t-72 -34t-67 -9.5q-75 0 -121 38.5t-49 116.5l97 21q2 -40 24 -63t62 -23q36 0 59.5 14t38.5 36.5t23 51.5t12 59z" />
    <glyph glyph-name="K" unicode="K" horiz-adv-x="648" 
d="M190 708h96l-43 -306h8l356 306h134l-388 -327l312 -381h-140l-281 354h-8l-49 -354h-96z" />
    <glyph glyph-name="L" unicode="L" horiz-adv-x="519" 
d="M190 708h96l-87 -618h325l-12 -90h-325h-96z" />
    <glyph glyph-name="M" unicode="M" horiz-adv-x="906" 
d="M183 708h94h49l150 -536h4l298 536h47h96l-99 -708h-96l81 582h-2l-320 -582h-64l-158 582h-2l-81 -582h-96z" />
    <glyph glyph-name="N" unicode="N" horiz-adv-x="796" 
d="M190 708h94h32l308 -582h2l82 582h96l-99 -708h-98h-24l-313 582h-2l-81 -582h-96z" />
    <glyph glyph-name="O" unicode="O" horiz-adv-x="832" 
d="M413 -18q-81 0 -144.5 28.5t-105.5 78.5t-60 118t-7 147t48 147t93 118t128 78.5t153 28.5t144.5 -28.5t105.5 -78.5t59.5 -118t6.5 -147t-47.5 -147t-92.5 -118t-128 -78.5t-153 -28.5zM426 72q61 0 113 22.5t92.5 60.5t66.5 89.5t34 109.5t-3.5 109.5t-41 89.5
t-75.5 60.5t-107 22.5t-113.5 -22.5t-92.5 -60.5t-66.5 -89.5t-34.5 -109.5t3.5 -109.5t41.5 -89.5t76 -60.5t107 -22.5z" />
    <glyph glyph-name="P" unicode="P" horiz-adv-x="593" 
d="M190 708h97h152q68 0 109.5 -18.5t63 -47t26.5 -64t0 -68.5t-19.5 -68.5t-44.5 -64t-76.5 -47t-114.5 -18.5h-153l-43 -312h-96zM242 396h126q28 0 56 4.5t51.5 16.5t39.5 34.5t21 58.5t-5 58.5t-29.5 34.5t-46.5 16.5t-55 4.5h-126z" />
    <glyph glyph-name="Q" unicode="Q" horiz-adv-x="832" 
d="M822 0h-408q-75 0 -138 27t-106.5 75t-63.5 114.5t-9 145.5q11 78 48.5 144.5t94 115.5t127 76.5t148.5 27.5q75 0 136.5 -27t104 -74.5t61.5 -112t9 -140.5q-6 -45 -23 -88.5t-43 -81.5t-60 -68t-76 -48l-1 -2h210zM422 90q58 0 109.5 21.5t91 59t66 88.5t34.5 109
q8 56 -5 105t-42.5 85t-74.5 57t-102 21q-56 0 -106.5 -21t-90.5 -57t-67 -84.5t-34 -103.5q-8 -58 3.5 -109t41 -89t74 -60t102.5 -22z" />
    <glyph glyph-name="R" unicode="R" horiz-adv-x="611" 
d="M190 708h92h157q68 0 109.5 -18.5t63 -47t26.5 -64t0 -68.5q-5 -34 -21 -65.5t-42.5 -57t-61 -43t-75.5 -21.5l156 -323h-120l-137 312h-107l-43 -312h-96zM242 396h126q28 0 56 4.5t51.5 16.5t39.5 34.5t21 58.5t-5 58.5t-29.5 34.5t-46.5 16.5t-55 4.5h-126z" />
    <glyph glyph-name="S" unicode="S" 
d="M132 148q20 -39 58.5 -57.5t81.5 -18.5q24 0 49.5 7.5t48 22.5t39 37t20.5 51q6 41 -17 62.5t-59.5 36t-80 28t-79 37.5t-55.5 64.5t-10 109.5q4 31 22.5 66t52 64t81.5 48.5t112 19.5q29 0 56.5 -3.5t52 -12.5t45.5 -25t38 -40l-88 -71q-14 28 -44.5 45t-72.5 17
q-40 0 -68 -10.5t-46 -27t-27.5 -35.5t-11.5 -35q-6 -45 16.5 -69t59 -39t80 -27t79.5 -33.5t56.5 -58t11.5 -100.5q-8 -51 -33 -92t-62 -69t-84 -43t-98 -15q-69 0 -126 23.5t-86 74.5z" />
    <glyph glyph-name="T" unicode="T" horiz-adv-x="574" 
d="M325 618h-228l13 90h229h96h227l-13 -90h-228l-86 -618h-96z" />
    <glyph glyph-name="U" unicode="U" horiz-adv-x="704" 
d="M273 708l-61 -434q-5 -33 -0.5 -68.5t21 -65.5t48 -49t81.5 -19t87 19t62 49t38.5 65.5t18.5 68.5l61 434h96l-63 -449q-9 -62 -37 -112.5t-70 -87.5t-95 -57t-111 -20t-105.5 20t-79 57t-45.5 87.5t-5 112.5l63 449h96z" />
    <glyph glyph-name="V" unicode="V" horiz-adv-x="630" 
d="M93 708h111l127 -576h2l297 576h105l-378 -708h-90z" />
    <glyph glyph-name="W" unicode="W" horiz-adv-x="962" 
d="M100 708h100l76 -566h2l247 566h110l87 -566h2l236 566h100l-305 -708h-101l-91 578h-2l-252 -578h-101z" />
    <glyph glyph-name="X" unicode="X" horiz-adv-x="648" 
d="M307 372l-191 336h123l146 -272l220 272h120l-283 -335l208 -373h-126l-160 307l-247 -307h-119z" />
    <glyph glyph-name="Y" unicode="Y" horiz-adv-x="612" 
d="M300 302l-211 406h123l149 -311l243 311h117l-325 -406l-42 -302h-96z" />
    <glyph glyph-name="Z" unicode="Z" horiz-adv-x="593" 
d="M44 90l477 528h-391l13 90h511l-13 -90l-475 -528h407l-12 -90h-529z" />
    <glyph glyph-name="bracketleft" unicode="[" horiz-adv-x="278" 
d="M174 728h84h90l-9 -66h-90l-106 -756h90l-9 -66h-91h-83z" />
    <glyph glyph-name="backslash" unicode="\" horiz-adv-x="389" 
d="M102 726l72 26l212 -770l-74 -26z" />
    <glyph glyph-name="bracketright" unicode="]" horiz-adv-x="278" 
d="M19 -94h90l106 756h-90l9 66h91h83l-124 -888h-81h-93z" />
    <glyph glyph-name="asciicircum" unicode="^" horiz-adv-x="666" 
d="M392 708h80l152 -432h-83l-120 353l-220 -353h-83z" />
    <glyph glyph-name="underscore" unicode="_" horiz-adv-x="500" 
d="M-10 -75h499l-7 -50h-499z" />
    <glyph glyph-name="grave" unicode="`" horiz-adv-x="240" 
d="M265 564h-83l-129 144h128z" />
    <glyph glyph-name="a" unicode="a" horiz-adv-x="519" 
d="M128 416q43 35 95.5 52.5t102.5 17.5q52 0 88 -13t57 -35t28 -50.5t3 -59.5l-34 -242q-4 -25 -6 -46t-2 -40h-80q1 18 2.5 36t4.5 36h-2q-37 -46 -80.5 -65t-97.5 -19q-33 0 -61.5 9t-48.5 27t-29.5 44.5t-4.5 61.5q6 46 31 77t63.5 50.5t87 28t102.5 8.5h66l3 20
q3 18 -1.5 36t-16.5 32.5t-32 23t-49 8.5q-26 0 -46.5 -5t-37 -12.5t-31 -17.5t-28.5 -19zM356 228q-32 0 -66 -3.5t-63 -13.5t-49 -28t-24 -46q-6 -41 19 -59t72 -18q37 0 64.5 12.5t46.5 32.5t29.5 44.5t13.5 48.5l5 30h-48z" />
    <glyph glyph-name="b" unicode="b" horiz-adv-x="611" 
d="M174 756h90l-49 -350h2q29 37 77 58.5t99 21.5q55 0 96.5 -19t68.5 -52.5t37.5 -79t3.5 -98.5q-8 -53 -31 -98t-59 -79t-83.5 -53t-102.5 -19q-48 0 -90.5 21t-63.5 59h-2l-9 -68h-90zM324 72q36 0 66.5 12.5t53.5 34t38.5 52t20.5 66.5t-1.5 66.5t-24 52t-44.5 34
t-63 12.5t-66.5 -12.5t-54 -34t-38.5 -52t-20 -66.5t1.5 -66.5t23.5 -52t44.5 -34t63.5 -12.5z" />
    <glyph glyph-name="c" unicode="c" horiz-adv-x="482" 
d="M455 348q-21 26 -46.5 39.5t-63.5 13.5q-37 0 -66.5 -13.5t-51.5 -37t-35.5 -54t-18.5 -63.5t2 -62.5t24 -51.5t43.5 -34.5t61.5 -12.5q38 0 67 13.5t55 39.5l55 -64q-41 -39 -89.5 -56t-100.5 -17q-55 0 -98 18t-71 50.5t-40 78t-4 100.5q7 55 31.5 101t62 79t85.5 51.5
t104 18.5q52 0 96.5 -18.5t74.5 -56.5z" />
    <glyph glyph-name="d" unicode="d" horiz-adv-x="611" 
d="M543 0h-90l9 68h-2q-32 -38 -80 -59t-96 -21q-55 0 -97 19t-68.5 53t-37.5 79t-3 98q7 53 31 98.5t60 79t83 52.5t102 19q51 0 92.5 -21.5t61.5 -58.5h2l49 350h90zM307 72q36 0 66.5 12.5t53.5 34t38.5 52t20.5 66.5t-1.5 66.5t-24 52t-44.5 34t-63 12.5t-66.5 -12.5
t-54 -34t-38.5 -52t-20 -66.5t1.5 -66.5t23.5 -52t44.5 -34t63.5 -12.5z" />
    <glyph glyph-name="e" unicode="e" 
d="M164 204q-4 -31 6 -56.5t29.5 -43.5t47 -28t58.5 -10q42 0 75.5 19.5t64.5 51.5l60 -52q-88 -97 -223 -97q-56 0 -98.5 19t-69.5 52.5t-38 79t-3 98.5q7 53 32 98.5t62.5 79t85 52.5t100.5 19q63 0 103.5 -22t63.5 -57.5t29 -80t0 -90.5l-5 -32h-380zM458 276q3 30 -2 55
t-19 43.5t-38 29t-58 10.5q-33 0 -62 -12.5t-51.5 -32.5t-36.5 -44.5t-17 -48.5h284z" />
    <glyph glyph-name="f" unicode="f" horiz-adv-x="333" 
d="M158 396h-102l11 78h102l15 106q14 95 56.5 141.5t131.5 46.5q15 0 31.5 -1t34.5 -6l-21 -80q-12 5 -24 7t-26 2q-25 0 -41 -7.5t-26 -21.5t-15.5 -33.5t-9.5 -44.5l-15 -109h107l-11 -78h-108l-55 -396h-90z" />
    <glyph glyph-name="g" unicode="g" horiz-adv-x="611" 
d="M543 4q-8 -54 -32.5 -98.5t-63 -77t-89 -50.5t-108.5 -18q-68 0 -122 19t-98 66l71 76q30 -38 68.5 -57.5t90.5 -19.5q50 0 85 14.5t57.5 37.5t34.5 52.5t17 59.5l9 70h-3q-32 -43 -79 -63.5t-96 -20.5q-52 0 -94 18.5t-69.5 51t-39.5 77t-4 96.5q7 52 30.5 97.5
t59.5 79.5t83.5 53t102.5 19q48 0 90.5 -21t63.5 -59h2l9 68h90zM353 402q-36 0 -66.5 -12.5t-54 -34t-38.5 -52t-20 -66.5q-11 -72 25 -115.5t108 -43.5t120 43.5t59 115.5q5 36 -1.5 66.5t-24 52t-44.5 34t-63 12.5z" />
    <glyph glyph-name="h" unicode="h" 
d="M174 756h90l-50 -355h2q23 38 68 61.5t100 23.5q34 0 64 -10.5t50.5 -32.5t29.5 -56.5t2 -81.5l-42 -305h-90l39 280q4 33 -1.5 56.5t-18 38t-31.5 21t-40 6.5q-28 0 -53.5 -9t-46 -28.5t-34.5 -49.5t-20 -71l-34 -244h-90z" />
    <glyph glyph-name="i" unicode="i" horiz-adv-x="240" 
d="M141 474h90l-66 -474h-90zM144 644q4 27 26 46.5t49 19.5t44 -19.5t13 -46.5t-26 -46.5t-49 -19.5t-44 19.5t-13 46.5z" />
    <glyph glyph-name="j" unicode="j" horiz-adv-x="240" 
d="M231 474l-76 -542q-3 -18 -9.5 -47.5t-23.5 -57t-49 -47.5t-86 -20q-15 0 -29 2t-28 7l22 83q8 -3 17.5 -5.5t18.5 -2.5q36 0 53.5 23.5t24.5 68.5l75 538h90zM144 644q4 27 26 46.5t49 19.5t44 -19.5t13 -46.5t-26 -46.5t-49 -19.5t-44 19.5t-13 46.5z" />
    <glyph glyph-name="k" unicode="k" horiz-adv-x="519" 
d="M174 756h90l-69 -488l233 205h125l-251 -215l204 -258h-128l-186 246l-34 -246h-90z" />
    <glyph glyph-name="l" unicode="l" horiz-adv-x="240" 
d="M181 756h90l-106 -756h-90z" />
    <glyph glyph-name="m" unicode="m" horiz-adv-x="852" 
d="M134 474h84l-10 -74h2q5 10 19 25t36 28.5t49.5 23t59.5 9.5q103 0 135 -88q30 44 75 66t88 22q55 0 87.5 -18t48 -47.5t18 -67t-3.5 -77.5l-38 -276h-90l37 264q4 27 3.5 52t-8.5 44t-26.5 30.5t-51.5 11.5q-65 0 -98.5 -40t-42.5 -103l-36 -259h-90l34 248q5 34 5.5 62
t-7 48.5t-25.5 32t-51 11.5q-24 0 -48 -9.5t-43.5 -28.5t-33.5 -48.5t-20 -69.5l-34 -246h-90z" />
    <glyph glyph-name="n" unicode="n" 
d="M134 474h90l-10 -73h2q23 38 68 61.5t100 23.5q34 0 64 -10.5t50.5 -32.5t29.5 -56.5t2 -81.5l-42 -305h-90l39 280q4 33 -1.5 56.5t-18 38t-31.5 21t-40 6.5q-28 0 -53.5 -9t-46 -28.5t-34.5 -49.5t-20 -71l-34 -244h-90z" />
    <glyph glyph-name="o" unicode="o" horiz-adv-x="594" 
d="M174 237q-5 -36 1.5 -66.5t23.5 -52t44.5 -34t63.5 -12.5t66.5 12.5t53.5 34t38.5 52t20.5 66.5t-1.5 66.5t-24 52t-44.5 34t-63 12.5t-66.5 -12.5t-54 -34t-38.5 -52t-20 -66.5zM78 237q7 52 33 97t65 79t87.5 53.5t101.5 19.5t96 -19.5t72.5 -53.5t42.5 -79t6 -97
q-8 -52 -33.5 -97.5t-64.5 -79t-87.5 -53t-101.5 -19.5t-96.5 19.5t-72.5 53t-42.5 79t-5.5 97.5z" />
    <glyph glyph-name="p" unicode="p" horiz-adv-x="611" 
d="M134 474h90l-9 -68h2q32 38 80 59t96 21q55 0 97 -19t68.5 -53t37 -79.5t3.5 -97.5q-8 -53 -31.5 -98.5t-59.5 -79t-83 -52.5t-102 -19q-51 0 -93 21.5t-61 58.5h-2l-49 -350h-90zM370 402q-36 0 -66.5 -12.5t-54 -34t-38.5 -52t-20 -66.5t1.5 -66.5t23.5 -52t44.5 -34
t63.5 -12.5t66.5 12.5t53.5 34t38.5 52t20.5 66.5t-1.5 66.5t-24 52t-44.5 34t-63 12.5z" />
    <glyph glyph-name="q" unicode="q" horiz-adv-x="611" 
d="M510 -228h-90l42 296h-2q-29 -37 -77 -58.5t-99 -21.5q-55 0 -96.5 19t-68.5 52.5t-38 79t-3 98.5q7 52 30.5 97.5t59.5 79.5t83.5 53t102.5 19q48 0 90.5 -21t63.5 -59h2l9 68h90zM353 402q-36 0 -66.5 -12.5t-54 -34t-38.5 -52t-20 -66.5t1.5 -66.5t23.5 -52t44.5 -34
t63.5 -12.5t66.5 12.5t53.5 34t38.5 52t20.5 66.5t-1.5 66.5t-24 52t-44.5 34t-63 12.5z" />
    <glyph glyph-name="r" unicode="r" horiz-adv-x="370" 
d="M134 474h90l-10 -73h2q23 38 66 61.5t88 23.5q22 0 39 -6l-18 -97q-11 3 -21.5 5t-21.5 2q-66 0 -106 -37t-51 -115l-33 -238h-90z" />
    <glyph glyph-name="s" unicode="s" horiz-adv-x="444" 
d="M369 355q-13 20 -34.5 33.5t-55.5 13.5q-32 0 -57.5 -13.5t-28.5 -39.5q-3 -21 8.5 -34t29 -21t37.5 -12l35 -7q28 -7 52 -17t40.5 -26t23.5 -39t3 -56q-6 -40 -26.5 -68.5t-50.5 -46.5t-65.5 -26t-70.5 -8q-59 0 -100.5 18t-70.5 66l75 56q19 -22 44 -39t64 -17
q35 0 67 14.5t37 45.5q3 20 -7.5 33t-27 20.5t-36 12t-33.5 7.5q-28 7 -53 16t-43 24t-26.5 38t-3.5 57q5 37 24.5 64.5t47.5 45.5t62 27t67 9q48 0 89.5 -18t61.5 -60z" />
    <glyph glyph-name="t" unicode="t" horiz-adv-x="370" 
d="M377 396h-129l-30 -215q-3 -20 -4.5 -39.5t2.5 -35t16.5 -25t38.5 -9.5q16 0 33.5 3t32.5 11l-12 -82q-9 -5 -20.5 -8t-23 -4.5t-22 -2.5t-17.5 -1q-52 0 -78.5 14.5t-37 37.5t-9 51.5t5.5 57.5l35 247h-104l11 78h104l19 133h90l-19 -133h129z" />
    <glyph glyph-name="u" unicode="u" 
d="M488 0h-90l10 73h-2q-23 -38 -68 -61.5t-100 -23.5q-35 0 -64.5 10.5t-50 32.5t-29.5 56.5t-3 81.5l43 305h90l-39 -280q-5 -33 0.5 -56.5t18.5 -38t32 -21t40 -6.5q56 0 99 37.5t55 120.5l34 244h90z" />
    <glyph glyph-name="v" unicode="v" horiz-adv-x="500" 
d="M77 474h104l91 -363l187 363h96l-252 -474h-99z" />
    <glyph glyph-name="w" unicode="w" horiz-adv-x="759" 
d="M77 474h101l57 -354h2l163 354h95l70 -354h2l152 354h95l-219 -474h-91l-76 354h-2l-162 -354h-97z" />
    <glyph glyph-name="x" unicode="x" horiz-adv-x="519" 
d="M233 253l-137 221h116l92 -168l136 168h109l-193 -221l157 -253h-116l-113 199l-167 -199h-111z" />
    <glyph glyph-name="y" unicode="y" horiz-adv-x="500" 
d="M77 474h104l89 -370h2l186 370h97l-306 -576q-16 -31 -32.5 -56.5t-37 -43.5t-47.5 -28t-64 -10q-20 0 -40 2.5t-37 10.5l21 82q25 -11 53 -11q21 0 36.5 5.5t27 16t21 24.5t18.5 32l39 75z" />
    <glyph glyph-name="z" unicode="z" horiz-adv-x="463" 
d="M46 81l313 315h-260l11 78h370l-11 -80l-316 -316h285l-10 -78h-393z" />
    <glyph glyph-name="braceleft" unicode="{" horiz-adv-x="333" 
d="M396 656h-45q-15 0 -25.5 -7.5t-18 -20t-12.5 -28t-7 -31.5l-21 -151q-4 -35 -17 -59t-29 -40t-32 -24t-25 -10v-3q8 -1 21.5 -8t25.5 -22t18 -40.5t0 -63.5l-21 -150q-2 -15 -2 -30.5t4.5 -28t13 -20t23.5 -7.5h45l-10 -72h-75q-19 0 -36.5 9t-30 27.5t-18 47.5t0.5 69
l19 134q5 55 -14.5 86t-53.5 31l11 78q34 0 62.5 31t38.5 86l22 158q4 32 17 56.5t30 41t37 25t39 8.5h75z" />
    <glyph glyph-name="bar" unicode="|" horiz-adv-x="222" 
d="M178 756h78l-109 -774h-78z" />
    <glyph glyph-name="braceright" unicode="}" horiz-adv-x="333" 
d="M17 -88h45q15 0 25.5 7.5t18 20t12.5 28t7 31.5l21 151q4 35 17 59t29 40t32 24t25 10v3q-8 1 -21.5 8t-25.5 22t-18 40.5t0 63.5l21 150q2 15 2 30.5t-4.5 28t-13 20t-23.5 7.5h-45l10 72h75q19 0 36.5 -9t30 -27.5t18 -47.5t-0.5 -69l-19 -134q-4 -27 0 -49t13.5 -37
t23.5 -23t31 -8l-11 -78q-34 0 -63.5 -31t-37.5 -86l-22 -158q-5 -32 -17.5 -56.5t-30 -41t-37 -25t-38.5 -8.5h-75z" />
    <glyph glyph-name="asciitilde" unicode="~" horiz-adv-x="666" 
d="M614 316q-38 -51 -72.5 -69.5t-67.5 -18.5q-29 0 -57 11t-54 25q-27 14 -52 25t-49 11q-16 0 -30 -6.5t-25.5 -17t-21 -23t-17.5 -25.5l-32 62q29 39 63.5 63.5t82.5 24.5q30 0 56.5 -11t51.5 -25q24 -14 47 -25.5t46 -11.5q24 0 48.5 15.5t51.5 57.5z" />
    <glyph glyph-name="uni00A0" unicode="&#xa0;" horiz-adv-x="278" 
 />
    <glyph glyph-name="exclamdown" unicode="&#xa1;" horiz-adv-x="278" 
d="M132 282h96l-71 -504h-96zM264 426q-4 -27 -26 -46.5t-49 -19.5t-44 19.5t-13 46.5t26.5 46.5t49.5 19.5t43.5 -19.5t12.5 -46.5z" />
    <glyph glyph-name="cent" unicode="&#xa2;" 
d="M351 66q62 1 113 52l51 -58q-34 -33 -79 -50.5t-96 -21.5l-9 -66h-54l9 66q-49 5 -86 26t-60.5 54t-32.5 76.5t-2 92.5q7 51 28 93.5t53.5 74.5t75.5 53t94 28l9 66h54l-9 -66q47 -2 89 -21.5t67 -54.5l-73 -59q-16 23 -40.5 39.5t-53.5 17.5zM345 408q-32 -5 -58 -20.5
t-45 -38.5t-31 -51.5t-16 -58.5q-4 -31 0.5 -59.5t17 -52t34 -39.5t50.5 -22z" />
    <glyph glyph-name="sterling" unicode="&#xa3;" 
d="M478 328h-162l-35 -244h246l-11 -84h-247h-93h-104l11 84h102l35 244h-96l10 72h96l14 100q6 43 25.5 83t51.5 70.5t75.5 48.5t98.5 18q48 0 89 -14.5t71 -47.5l-71 -70q-20 22 -43 35t-48 13q-26 0 -51.5 -8.5t-47 -27.5t-37 -49.5t-21.5 -74.5l-10 -76h162z" />
    <glyph glyph-name="currency" unicode="&#xa4;" 
d="M163 611l43 -48q38 25 78.5 37t79.5 12t75.5 -12t68.5 -37l55 48l50 -56l-56 -49q20 -34 26.5 -72.5t0.5 -78.5q-5 -40 -23 -78.5t-47 -72.5l42 -49l-65 -57l-42 49q-36 -25 -76.5 -37t-81.5 -12q-81 0 -144 49l-56 -49l-49 57l56 49q-20 33 -26.5 72t-1.5 79
q6 41 24 79.5t47 71.5l-42 49zM148 355q-5 -37 4.5 -69.5t30.5 -57t51.5 -38.5t67.5 -14t71.5 14t62.5 38.5t46.5 57t23.5 69.5t-4 69.5t-30 57t-51.5 38.5t-67.5 14t-72 -14t-62.5 -38.5t-46.5 -57t-24 -69.5z" />
    <glyph glyph-name="yen" unicode="&#xa5;" 
d="M262 186h-171l9 66h171l7 53l-13 28h-154l10 66h114l-141 309h100l135 -316l229 316h102l-229 -309h116l-10 -66h-154l-21 -28l-7 -53h171l-9 -66h-171l-26 -186h-84z" />
    <glyph glyph-name="brokenbar" unicode="&#xa6;" horiz-adv-x="222" 
d="M112 286h78l-43 -304h-78zM178 756h78l-43 -304h-78z" />
    <glyph glyph-name="section" unicode="&#xa7;" 
d="M480 580q-8 32 -32.5 46.5t-59.5 15.5q-20 0 -38.5 -4.5t-33.5 -14t-25 -24.5t-13 -35q-4 -30 15 -50t49.5 -36.5t66 -32.5t65.5 -38t47.5 -52.5t11.5 -75.5q-6 -44 -33 -77.5t-69 -53.5q28 -21 41 -51.5t7 -69.5q-6 -43 -28.5 -75t-55 -53.5t-72 -32t-78.5 -10.5
q-66 0 -117.5 28.5t-69.5 92.5l93 41q8 -42 39 -60t74 -18q19 0 38 5t34.5 15.5t26.5 27t14 39.5q3 19 -7.5 34.5t-29.5 29t-43.5 25.5t-50.5 25t-50.5 27.5t-42.5 32.5t-27.5 40.5t-5.5 51.5q8 60 40.5 95t78.5 56q-33 20 -51 49t-13 69q6 40 28.5 71t54 51.5t69.5 31
t75 10.5q27 0 53.5 -5.5t49 -17.5t39.5 -31t26 -46zM299 400q-29 -11 -54.5 -28.5t-30.5 -50.5q-3 -23 3.5 -39t19.5 -27t29 -19.5t31 -16.5l72 -37q26 14 47.5 38t24.5 50q3 18 -2.5 32t-16 25t-24 19.5t-26.5 15.5z" />
    <glyph glyph-name="dieresis" unicode="&#xa8;" horiz-adv-x="240" 
d="M118 714q23 0 40 -16t14 -41q-4 -27 -24 -45t-47 -18t-42 18t-11 45q3 25 25 41t45 16zM322 714q23 0 40 -16t14 -41q-4 -27 -24 -45t-47 -18t-42 18t-11 45q3 25 25 41t45 16z" />
    <glyph glyph-name="copyright" unicode="&#xa9;" horiz-adv-x="800" 
d="M77 354q11 77 50 144.5t96.5 118t129.5 80t149 29.5t140.5 -29.5t107 -80t63 -118t8.5 -144.5t-49.5 -144.5t-96.5 -118t-129.5 -80t-148.5 -29.5t-140.5 29.5t-107 80t-63.5 118t-9 144.5zM629 286q-26 -72 -81 -114.5t-127 -42.5q-52 0 -91 16.5t-63.5 46.5t-33.5 72
t-2 93t27.5 93t52.5 72t75 46.5t96 16.5q75 0 120 -38.5t47 -114.5h-77q-5 37 -27 59t-72 22q-72 0 -113 -41t-51 -113q-5 -33 1 -61.5t21.5 -50t40.5 -34t59 -12.5q48 0 77.5 23t43.5 62h77zM143 354q-9 -63 7.5 -119t52 -97.5t88 -65.5t115.5 -24t122.5 24t107 65.5
t79 97.5t40.5 119t-7 119t-52 97.5t-88.5 65.5t-115.5 24t-122.5 -24t-106.5 -65.5t-79 -97.5t-41 -119z" />
    <glyph glyph-name="ordfeminine" unicode="&#xaa;" horiz-adv-x="337" 
d="M301 425l6 44l-1 1q-18 -29 -45.5 -40t-62.5 -11q-20 0 -38.5 5.5t-32 16t-20 26.5t-3.5 38q5 37 28 58t54.5 31t66 12t62.5 2h12l1 10q3 20 -12.5 34t-48.5 14q-52 0 -94 -33l-28 45q27 21 61.5 31.5t67.5 10.5q43 0 68.5 -8.5t38 -22t15 -31.5t-0.5 -37l-28 -196h-66z
M318 560q-21 0 -46 -1t-46.5 -5.5t-36.5 -15t-18 -29.5q-3 -21 14.5 -28.5t40.5 -7.5q42 0 64.5 19t27.5 49l2 19h-2z" />
    <glyph glyph-name="guillemotleft" unicode="&#xab;" horiz-adv-x="500" 
d="M81 243l175 216l56 -41l-141 -175l93 -175l-68 -41zM279 243l175 216l56 -41l-141 -175l93 -175l-68 -41z" />
    <glyph glyph-name="logicalnot" unicode="&#xac;" horiz-adv-x="666" 
d="M619 141h-78l29 201h-456l11 78h457h77z" />
    <glyph glyph-name="uni00AD" unicode="&#xad;" horiz-adv-x="316" 
d="M309 200h-246l11 84h246z" />
    <glyph glyph-name="registered" unicode="&#xae;" horiz-adv-x="800" 
d="M336 569h75h89q77 0 109 -33t23 -95q-8 -56 -40.5 -84t-77.5 -33l86 -180h-82l-82 174h-57l-24 -174h-78zM388 384h57q18 0 36.5 1.5t33.5 7.5t26 18t14 33t-4.5 33t-21 18t-31.5 7t-36 1h-57zM77 354q11 77 50 144.5t96.5 118t129.5 80t149 29.5t140.5 -29.5t107 -80
t63 -118t8.5 -144.5t-49.5 -144.5t-96.5 -118t-129.5 -80t-148.5 -29.5t-140.5 29.5t-107 80t-63.5 118t-9 144.5zM143 354q-9 -63 7.5 -119t52 -97.5t88 -65.5t115.5 -24t122.5 24t107 65.5t79 97.5t40.5 119t-7 119t-52 97.5t-88.5 65.5t-115.5 24t-122.5 -24
t-106.5 -65.5t-79 -97.5t-41 -119z" />
    <glyph glyph-name="macron" unicode="&#xaf;" horiz-adv-x="240" 
d="M348 600h-288l9 66h288z" />
    <glyph glyph-name="degree" unicode="&#xb0;" horiz-adv-x="400" 
d="M131 571q4 31 19.5 58t39 47t52 32t59.5 12t56.5 -12t42.5 -32t25 -47t4 -58q-5 -31 -20.5 -58t-38.5 -47.5t-51.5 -32t-59.5 -11.5t-56.5 11.5t-43 32t-25.5 47.5t-3 58zM197 571q-5 -35 15.5 -59t55.5 -24t62.5 24t32.5 59t-16 59t-56 24t-62 -24t-32 -59z" />
    <glyph glyph-name="plusminus" unicode="&#xb1;" horiz-adv-x="666" 
d="M121 393h228l23 163h78l-23 -163h228l-11 -78h-228l-21 -150h-78l21 150h-228zM84 129h534l-11 -78h-534z" />
    <glyph glyph-name="twosuperior" unicode="&#xb2;" horiz-adv-x="361" 
d="M77 365l201 160q17 14 34.5 32t21.5 41q3 26 -14 41t-44 15q-29 0 -49.5 -16t-26.5 -43l-83 6q14 59 60 89t109 30q31 0 57 -7.5t44 -22.5t26.5 -37.5t4.5 -52.5q-6 -40 -30 -69t-59 -55l-158 -121h213l-9 -66h-309z" />
    <glyph glyph-name="threesuperior" unicode="&#xb3;" horiz-adv-x="361" 
d="M216 543h18q17 0 33.5 1.5t30 7.5t22.5 17.5t12 30.5q3 24 -13 39t-45 15q-24 0 -44 -11.5t-31 -33.5l-80 20q22 48 66 69.5t95 21.5q30 0 55.5 -7t43.5 -21t27 -35t5 -49q-5 -35 -29.5 -61.5t-62.5 -34.5v-2q43 -5 61.5 -34.5t13.5 -68.5q-5 -30 -21 -53t-39.5 -39
t-52.5 -24t-60 -8q-57 0 -96.5 23t-47.5 76l86 20q4 -25 20 -39t48 -14q31 0 56 17.5t30 46.5q3 21 -4.5 33.5t-21 19.5t-31.5 9t-36 2h-17z" />
    <glyph glyph-name="acute" unicode="&#xb4;" horiz-adv-x="240" 
d="M257 708h128l-169 -144h-83z" />
    <glyph glyph-name="mu" unicode="&#xb5;" 
d="M134 474h90l-39 -280q-5 -33 0.5 -56.5t18.5 -38t32 -21t40 -6.5q56 0 99 37.5t55 120.5l34 244h90l-66 -474h-90l10 73h-2q-23 -38 -68 -61.5t-100 -23.5q-46 0 -80 18l-33 -234h-90z" />
    <glyph glyph-name="paragraph" unicode="&#xb6;" horiz-adv-x="600" 
d="M304 318q-46 0 -82 14.5t-60.5 39t-35 58.5t-5.5 73q14 98 82.5 151.5t174.5 53.5h59h112h78l-117 -834h-78l108 768h-112l-108 -768h-78z" />
    <glyph glyph-name="periodcentered" unicode="&#xb7;" horiz-adv-x="278" 
d="M115 303q4 27 26 46.5t49 19.5t44 -19.5t13 -46.5t-26 -46.5t-49 -19.5t-44 19.5t-13 46.5z" />
    <glyph glyph-name="cedilla" unicode="&#xb8;" horiz-adv-x="240" 
d="M0 -165q36 -15 76 -15q9 0 20 2t20.5 6.5t17 12.5t9.5 21q3 19 -5.5 28t-22 11.5t-30.5 0t-31 -6.5l-19 18l74 87h49l-53 -61h29q17 0 33 -4t27.5 -13t18 -22.5t3.5 -32.5q-4 -27 -18 -45t-34 -29t-43 -16t-44 -5q-27 0 -52.5 5.5t-47.5 17.5z" />
    <glyph glyph-name="onesuperior" unicode="&#xb9;" horiz-adv-x="361" 
d="M245 648l-96 -72l-35 46l142 98h71l-61 -431h-72z" />
    <glyph glyph-name="ordmasculine" unicode="&#xba;" horiz-adv-x="386" 
d="M294 720q75 0 113.5 -41t28.5 -110q-5 -34 -20 -62t-39.5 -47.5t-56.5 -30t-69 -10.5q-75 0 -113.5 40.5t-29.5 109.5q10 68 60.5 109.5t125.5 41.5zM285 660q-45 0 -72 -24.5t-33 -66.5q-5 -42 15 -66t65 -24t72 24t32 66q6 42 -14 66.5t-65 24.5z" />
    <glyph glyph-name="guillemotright" unicode="&#xbb;" horiz-adv-x="500" 
d="M487 243l-176 -216l-56 41l142 175l-94 175l68 41zM289 243l-176 -216l-56 41l142 175l-94 175l68 41z" />
    <glyph glyph-name="onequarter" unicode="&#xbc;" horiz-adv-x="834" 
d="M251 648l-96 -72l-35 46l142 98h71l-61 -431h-72zM686 94h-196l8 58l222 279h79l-38 -271h62l-9 -66h-62l-13 -94h-66zM715 347h-2l-142 -187h118zM695 740l55 -32l-543 -740l-55 32z" />
    <glyph glyph-name="onehalf" unicode="&#xbd;" horiz-adv-x="834" 
d="M249 648l-96 -72l-35 46l142 98h71l-61 -431h-72zM504 76l202 160q17 14 34.5 32t20.5 41q4 26 -13 41t-44 15q-29 0 -49.5 -16t-26.5 -43l-84 6q14 59 60 89t109 30q31 0 57.5 -7.5t44.5 -22.5t26 -37.5t4 -52.5q-5 -40 -29 -69t-59 -55l-158 -121h213l-9 -66h-309z
M683 740l55 -32l-543 -740l-55 32z" />
    <glyph glyph-name="threequarters" unicode="&#xbe;" horiz-adv-x="834" 
d="M215 543h18q17 0 33.5 1.5t30 7.5t22.5 17.5t12 30.5q3 24 -13 39t-45 15q-24 0 -44 -11.5t-31 -33.5l-80 20q22 48 66 69.5t95 21.5q30 0 55.5 -7t43.5 -21t27 -35t5 -49q-5 -35 -29.5 -61.5t-62.5 -34.5v-2q43 -5 61.5 -34.5t13.5 -68.5q-5 -30 -21 -53t-39.5 -39
t-52.5 -24t-60 -8q-57 0 -96.5 23t-47.5 76l86 20q4 -25 20 -39t48 -14q31 0 56 17.5t30 46.5q3 21 -4.5 33.5t-21 19.5t-31.5 9t-36 2h-17zM706 94h-196l8 58l222 279h79l-38 -271h62l-9 -66h-62l-13 -94h-66zM741 347h-2l-142 -187h118zM735 740l55 -32l-543 -740l-55 32z
" />
    <glyph glyph-name="questiondown" unicode="&#xbf;" horiz-adv-x="500" 
d="M330 288l-9 -61q-4 -27 -10 -45t-16.5 -32.5t-26 -28t-37.5 -32.5q-18 -15 -36.5 -30.5t-34 -32t-26.5 -35.5t-14 -41q-6 -46 20.5 -76t71.5 -30q49 0 83.5 31t47.5 81l101 -10q-25 -87 -91.5 -136.5t-154.5 -49.5q-42 0 -77 12.5t-58.5 36t-34 58t-4.5 78.5
q5 38 20.5 66.5t38.5 53.5l68 62l12 9q18 15 29 25.5t18 22t11 25.5t7 35l6 44h96zM236 426q4 27 26.5 46.5t49.5 19.5t43.5 -19.5t12.5 -46.5t-26 -46.5t-49 -19.5t-44 19.5t-13 46.5z" />
    <glyph glyph-name="Agrave" unicode="&#xc0;" horiz-adv-x="704" 
d="M412 708h87l204 -708h-112l-47 175h-337l-94 -175h-112zM521 259l-86 325h-2l-180 -325h268zM522 748h-83l-129 144h128z" />
    <glyph glyph-name="Aacute" unicode="&#xc1;" horiz-adv-x="704" 
d="M412 708h87l204 -708h-112l-47 175h-337l-94 -175h-112zM521 259l-86 325h-2l-180 -325h268zM514 892h128l-169 -144h-83z" />
    <glyph glyph-name="Acircumflex" unicode="&#xc2;" horiz-adv-x="704" 
d="M412 708h87l204 -708h-112l-47 175h-337l-94 -175h-112zM521 259l-86 325h-2l-180 -325h268zM530 748l-61 96l-87 -96h-91l132 144h106l92 -144h-91z" />
    <glyph glyph-name="Atilde" unicode="&#xc3;" horiz-adv-x="704" 
d="M412 708h87l204 -708h-112l-47 175h-337l-94 -175h-112zM521 259l-86 325h-2l-180 -325h268zM289 760q6 19 17 38t25.5 33.5t33 23.5t40.5 9q23 0 42 -7.5t39 -15.5q14 -6 24.5 -11.5t26.5 -5.5q20 0 34 13t22 31h48q-6 -19 -15.5 -37.5t-23 -33.5t-31 -24t-39.5 -9
q-21 0 -40.5 6.5t-37.5 14.5q-14 6 -30 12.5t-33 6.5q-19 0 -32.5 -13.5t-21.5 -30.5h-48z" />
    <glyph glyph-name="Adieresis" unicode="&#xc4;" horiz-adv-x="704" 
d="M412 708h87l204 -708h-112l-47 175h-337l-94 -175h-112zM521 259l-86 325h-2l-180 -325h268zM375 898q23 0 40 -16t14 -41q-4 -27 -24 -45t-47 -18t-42 18t-11 45q3 25 25 41t45 16zM579 898q23 0 40 -16t14 -41q-4 -27 -24 -45t-47 -18t-42 18t-11 45q3 25 25 41t45 16z
" />
    <glyph glyph-name="Aring" unicode="&#xc5;" horiz-adv-x="704" 
d="M412 708h87l204 -708h-112l-47 175h-337l-94 -175h-112zM521 259l-86 325h-2l-180 -325h268zM365 825q3 21 14 39t27 31.5t35.5 21t39.5 7.5q21 0 38.5 -7.5t29.5 -21t17.5 -31t2.5 -38.5t-13.5 -39t-26 -31.5t-35.5 -21t-41 -7.5q-41 0 -67.5 28t-20.5 70zM527 825
q4 25 -12 41t-40 16t-44 -16t-24 -41q-4 -24 12.5 -40t39.5 -16t43.5 16t24.5 40z" />
    <glyph glyph-name="AE" unicode="&#xc6;" horiz-adv-x="963" 
d="M549 708h65h94h297l-13 -90h-295l-29 -211h277l-13 -90h-277l-32 -227h307l-12 -90h-307h-96l24 172h-304l-125 -172h-118zM551 262l50 356h-19l-283 -356h252z" />
    <glyph glyph-name="Ccedilla" unicode="&#xc7;" horiz-adv-x="704" 
d="M252 -165q36 -15 76 -15q9 0 20 2t20.5 6.5t17 12.5t9.5 21q3 19 -5.5 28t-22 11.5t-30.5 0t-31 -6.5l-19 18l62 74q-48 7 -88 27q-63 32 -103 84t-56 117.5t-7 132.5q12 82 48.5 151.5t92.5 120t128 78.5t154 28q70 0 133.5 -26.5t98.5 -83.5l-88 -61q-25 39 -68 60
t-92 21q-60 0 -111.5 -22.5t-92 -61.5t-66.5 -91.5t-35 -112.5q-8 -56 3 -106t40 -88t75 -60t108 -22q61 0 110.5 25t87.5 70l72 -61q-9 -11 -32 -31.5t-59 -41t-84.5 -36t-109.5 -15.5h-14l-37 -43h29q17 0 33 -4t27.5 -13t18 -22.5t3.5 -32.5q-4 -27 -18 -45t-34 -29
t-43 -16t-44 -5q-27 0 -52.5 5.5t-47.5 17.5z" />
    <glyph glyph-name="Egrave" unicode="&#xc8;" horiz-adv-x="611" 
d="M190 708h95h362l-13 -90h-361l-29 -211h336l-13 -90h-336l-32 -227h379l-12 -90h-382h-93zM476 748h-83l-129 144h128z" />
    <glyph glyph-name="Eacute" unicode="&#xc9;" horiz-adv-x="611" 
d="M190 708h95h362l-13 -90h-361l-29 -211h336l-13 -90h-336l-32 -227h379l-12 -90h-382h-93zM468 892h128l-169 -144h-83z" />
    <glyph glyph-name="Ecircumflex" unicode="&#xca;" horiz-adv-x="611" 
d="M190 708h95h362l-13 -90h-361l-29 -211h336l-13 -90h-336l-32 -227h379l-12 -90h-382h-93zM484 748l-61 96l-87 -96h-91l132 144h106l92 -144h-91z" />
    <glyph glyph-name="Edieresis" unicode="&#xcb;" horiz-adv-x="611" 
d="M190 708h95h362l-13 -90h-361l-29 -211h336l-13 -90h-336l-32 -227h379l-12 -90h-382h-93zM329 898q23 0 40 -16t14 -41q-4 -27 -24 -45t-47 -18t-42 18t-11 45q3 25 25 41t45 16zM533 898q23 0 40 -16t14 -41q-4 -27 -24 -45t-47 -18t-42 18t-11 45q3 25 25 41t45 16z
" />
    <glyph glyph-name="Igrave" unicode="&#xcc;" horiz-adv-x="278" 
d="M190 708h96l-99 -708h-96zM309 748h-83l-129 144h128z" />
    <glyph glyph-name="Iacute" unicode="&#xcd;" horiz-adv-x="278" 
d="M190 708h96l-99 -708h-96zM301 892h128l-169 -144h-83z" />
    <glyph glyph-name="Icircumflex" unicode="&#xce;" horiz-adv-x="278" 
d="M190 708h96l-99 -708h-96zM317 748l-61 96l-87 -96h-91l132 144h106l92 -144h-91z" />
    <glyph glyph-name="Idieresis" unicode="&#xcf;" horiz-adv-x="278" 
d="M190 708h96l-99 -708h-96zM162 898q23 0 40 -16t14 -41q-4 -27 -24 -45t-47 -18t-42 18t-11 45q3 25 25 41t45 16zM366 898q23 0 40 -16t14 -41q-4 -27 -24 -45t-47 -18t-42 18t-11 45q3 25 25 41t45 16z" />
    <glyph glyph-name="Eth" unicode="&#xd0;" horiz-adv-x="741" 
d="M122 336h-72l9 66h72l43 306h96h151q75 0 129 -17t91.5 -45.5t60 -65.5t33 -76t12 -78t-3.5 -72q-9 -68 -43 -131.5t-90 -113t-132.5 -79.5t-171.5 -30h-136h-95zM183 90h121q61 0 117.5 16.5t102.5 49.5t77 82.5t40 115.5q3 23 2.5 51t-8 57.5t-23.5 57.5t-43.5 49.5
t-69 35t-98.5 13.5h-144l-30 -216h234l-9 -66h-234z" />
    <glyph glyph-name="Ntilde" unicode="&#xd1;" horiz-adv-x="796" 
d="M190 708h94h32l308 -582h2l82 582h96l-99 -708h-98h-24l-313 582h-2l-81 -582h-96zM335 760q6 19 17 38t25.5 33.5t33 23.5t40.5 9q23 0 42 -7.5t39 -15.5q14 -6 24.5 -11.5t26.5 -5.5q20 0 34 13t22 31h48q-6 -19 -15.5 -37.5t-23 -33.5t-31 -24t-39.5 -9
q-21 0 -40.5 6.5t-37.5 14.5q-14 6 -30 12.5t-33 6.5q-19 0 -32.5 -13.5t-21.5 -30.5h-48z" />
    <glyph glyph-name="Ograve" unicode="&#xd2;" horiz-adv-x="832" 
d="M413 -18q-81 0 -144.5 28.5t-105.5 78.5t-60 118t-7 147t48 147t93 118t128 78.5t153 28.5t144.5 -28.5t105.5 -78.5t59.5 -118t6.5 -147t-47.5 -147t-92.5 -118t-128 -78.5t-153 -28.5zM426 72q61 0 113 22.5t92.5 60.5t66.5 89.5t34 109.5t-3.5 109.5t-41 89.5
t-75.5 60.5t-107 22.5t-113.5 -22.5t-92.5 -60.5t-66.5 -89.5t-34.5 -109.5t3.5 -109.5t41.5 -89.5t76 -60.5t107 -22.5zM586 748h-83l-129 144h128z" />
    <glyph glyph-name="Oacute" unicode="&#xd3;" horiz-adv-x="832" 
d="M413 -18q-81 0 -144.5 28.5t-105.5 78.5t-60 118t-7 147t48 147t93 118t128 78.5t153 28.5t144.5 -28.5t105.5 -78.5t59.5 -118t6.5 -147t-47.5 -147t-92.5 -118t-128 -78.5t-153 -28.5zM426 72q61 0 113 22.5t92.5 60.5t66.5 89.5t34 109.5t-3.5 109.5t-41 89.5
t-75.5 60.5t-107 22.5t-113.5 -22.5t-92.5 -60.5t-66.5 -89.5t-34.5 -109.5t3.5 -109.5t41.5 -89.5t76 -60.5t107 -22.5zM578 892h128l-169 -144h-83z" />
    <glyph glyph-name="Ocircumflex" unicode="&#xd4;" horiz-adv-x="832" 
d="M413 -18q-81 0 -144.5 28.5t-105.5 78.5t-60 118t-7 147t48 147t93 118t128 78.5t153 28.5t144.5 -28.5t105.5 -78.5t59.5 -118t6.5 -147t-47.5 -147t-92.5 -118t-128 -78.5t-153 -28.5zM426 72q61 0 113 22.5t92.5 60.5t66.5 89.5t34 109.5t-3.5 109.5t-41 89.5
t-75.5 60.5t-107 22.5t-113.5 -22.5t-92.5 -60.5t-66.5 -89.5t-34.5 -109.5t3.5 -109.5t41.5 -89.5t76 -60.5t107 -22.5zM594 748l-61 96l-87 -96h-91l132 144h106l92 -144h-91z" />
    <glyph glyph-name="Otilde" unicode="&#xd5;" horiz-adv-x="832" 
d="M413 -18q-81 0 -144.5 28.5t-105.5 78.5t-60 118t-7 147t48 147t93 118t128 78.5t153 28.5t144.5 -28.5t105.5 -78.5t59.5 -118t6.5 -147t-47.5 -147t-92.5 -118t-128 -78.5t-153 -28.5zM426 72q61 0 113 22.5t92.5 60.5t66.5 89.5t34 109.5t-3.5 109.5t-41 89.5
t-75.5 60.5t-107 22.5t-113.5 -22.5t-92.5 -60.5t-66.5 -89.5t-34.5 -109.5t3.5 -109.5t41.5 -89.5t76 -60.5t107 -22.5zM353 760q6 19 17 38t25.5 33.5t33 23.5t40.5 9q23 0 42 -7.5t39 -15.5q14 -6 24.5 -11.5t26.5 -5.5q20 0 34 13t22 31h48q-6 -19 -15.5 -37.5
t-23 -33.5t-31 -24t-39.5 -9q-21 0 -40.5 6.5t-37.5 14.5q-14 6 -30 12.5t-33 6.5q-19 0 -32.5 -13.5t-21.5 -30.5h-48z" />
    <glyph glyph-name="Odieresis" unicode="&#xd6;" horiz-adv-x="832" 
d="M413 -18q-81 0 -144.5 28.5t-105.5 78.5t-60 118t-7 147t48 147t93 118t128 78.5t153 28.5t144.5 -28.5t105.5 -78.5t59.5 -118t6.5 -147t-47.5 -147t-92.5 -118t-128 -78.5t-153 -28.5zM426 72q61 0 113 22.5t92.5 60.5t66.5 89.5t34 109.5t-3.5 109.5t-41 89.5
t-75.5 60.5t-107 22.5t-113.5 -22.5t-92.5 -60.5t-66.5 -89.5t-34.5 -109.5t3.5 -109.5t41.5 -89.5t76 -60.5t107 -22.5zM439 898q23 0 40 -16t14 -41q-4 -27 -24 -45t-47 -18t-42 18t-11 45q3 25 25 41t45 16zM643 898q23 0 40 -16t14 -41q-4 -27 -24 -45t-47 -18t-42 18
t-11 45q3 25 25 41t45 16z" />
    <glyph glyph-name="multiply" unicode="&#xd7;" horiz-adv-x="666" 
d="M320 303l-182 212l63 55l182 -212l243 212l46 -55l-242 -212l182 -212l-63 -55l-182 212l-240 -212l-47 56z" />
    <glyph glyph-name="Oslash" unicode="&#xd8;" horiz-adv-x="832" 
d="M264 131q30 -28 70.5 -43.5t91.5 -15.5q61 0 113 22.5t92.5 60.5t66.5 89.5t34 109.5q8 54 -1.5 101t-34.5 85zM662 580q-29 26 -68.5 41t-88.5 15q-61 0 -113.5 -22.5t-92.5 -60.5t-66.5 -89.5t-34.5 -109.5q-7 -52 1.5 -98t31.5 -83zM56 8l98 93q-38 50 -53.5 114
t-4.5 139q11 79 48 147t93 118t128 78.5t153 28.5q67 0 122 -20t97 -56l96 90l36 -38l-95 -90q38 -49 54.5 -115t5.5 -143q-11 -79 -47.5 -147t-92.5 -118t-128 -78.5t-153 -28.5q-69 0 -125 20.5t-98 58.5l-97 -91z" />
    <glyph glyph-name="Ugrave" unicode="&#xd9;" horiz-adv-x="704" 
d="M273 708l-61 -434q-5 -33 -0.5 -68.5t21 -65.5t48 -49t81.5 -19t87 19t62 49t38.5 65.5t18.5 68.5l61 434h96l-63 -449q-9 -62 -37 -112.5t-70 -87.5t-95 -57t-111 -20t-105.5 20t-79 57t-45.5 87.5t-5 112.5l63 449h96zM522 748h-83l-129 144h128z" />
    <glyph glyph-name="Uacute" unicode="&#xda;" horiz-adv-x="704" 
d="M273 708l-61 -434q-5 -33 -0.5 -68.5t21 -65.5t48 -49t81.5 -19t87 19t62 49t38.5 65.5t18.5 68.5l61 434h96l-63 -449q-9 -62 -37 -112.5t-70 -87.5t-95 -57t-111 -20t-105.5 20t-79 57t-45.5 87.5t-5 112.5l63 449h96zM514 892h128l-169 -144h-83z" />
    <glyph glyph-name="Ucircumflex" unicode="&#xdb;" horiz-adv-x="704" 
d="M273 708l-61 -434q-5 -33 -0.5 -68.5t21 -65.5t48 -49t81.5 -19t87 19t62 49t38.5 65.5t18.5 68.5l61 434h96l-63 -449q-9 -62 -37 -112.5t-70 -87.5t-95 -57t-111 -20t-105.5 20t-79 57t-45.5 87.5t-5 112.5l63 449h96zM530 748l-61 96l-87 -96h-91l132 144h106l92 -144
h-91z" />
    <glyph glyph-name="Udieresis" unicode="&#xdc;" horiz-adv-x="704" 
d="M273 708l-61 -434q-5 -33 -0.5 -68.5t21 -65.5t48 -49t81.5 -19t87 19t62 49t38.5 65.5t18.5 68.5l61 434h96l-63 -449q-9 -62 -37 -112.5t-70 -87.5t-95 -57t-111 -20t-105.5 20t-79 57t-45.5 87.5t-5 112.5l63 449h96zM375 898q23 0 40 -16t14 -41q-4 -27 -24 -45
t-47 -18t-42 18t-11 45q3 25 25 41t45 16zM579 898q23 0 40 -16t14 -41q-4 -27 -24 -45t-47 -18t-42 18t-11 45q3 25 25 41t45 16z" />
    <glyph glyph-name="Yacute" unicode="&#xdd;" horiz-adv-x="612" 
d="M300 302l-211 406h123l149 -311l243 311h117l-325 -406l-42 -302h-96zM468 892h128l-169 -144h-83z" />
    <glyph glyph-name="Thorn" unicode="&#xde;" horiz-adv-x="593" 
d="M190 708h96l-20 -145h153q68 0 109 -18.5t62.5 -47t26.5 -64t1 -68.5q-5 -33 -20 -68.5t-44.5 -64t-76 -47t-114.5 -18.5h-153l-23 -167h-96zM222 251h126q28 0 56 4.5t51 16.5t39.5 34.5t21.5 58.5t-5 58.5t-29.5 34.5t-46.5 16.5t-55 4.5h-126z" />
    <glyph glyph-name="germandbls" unicode="&#xdf;" horiz-adv-x="611" 
d="M139 509q7 53 22.5 100t45 82.5t76.5 56t117 20.5q42 0 77 -11.5t60 -34.5t36 -57t5 -78q-9 -62 -44 -101t-89 -54v-2q29 -5 57 -19t49 -39.5t31 -63t3 -88.5q-8 -54 -32 -97t-60 -73t-83 -46t-99 -16q-37 0 -70 9l11 81q25 -6 53 -6q74 0 124.5 40.5t61.5 115.5
q5 40 -4.5 69t-30 48t-51 28.5t-67.5 9.5h-14l12 84h16q51 0 86 29t42 80q4 30 -2.5 51t-21 33.5t-33.5 18t-39 5.5q-38 0 -64.5 -12.5t-44.5 -34.5t-28.5 -52t-15.5 -65l-73 -520h-90z" />
    <glyph glyph-name="agrave" unicode="&#xe0;" horiz-adv-x="519" 
d="M128 416q43 35 95.5 52.5t102.5 17.5q52 0 88 -13t57 -35t28 -50.5t3 -59.5l-34 -242q-4 -25 -6 -46t-2 -40h-80q1 18 2.5 36t4.5 36h-2q-37 -46 -80.5 -65t-97.5 -19q-33 0 -61.5 9t-48.5 27t-29.5 44.5t-4.5 61.5q6 46 31 77t63.5 50.5t87 28t102.5 8.5h66l3 20
q3 18 -1.5 36t-16.5 32.5t-32 23t-49 8.5q-26 0 -46.5 -5t-37 -12.5t-31 -17.5t-28.5 -19zM356 228q-32 0 -66 -3.5t-63 -13.5t-49 -28t-24 -46q-6 -41 19 -59t72 -18q37 0 64.5 12.5t46.5 32.5t29.5 44.5t13.5 48.5l5 30h-48zM405 564h-83l-129 144h128z" />
    <glyph glyph-name="aacute" unicode="&#xe1;" horiz-adv-x="519" 
d="M128 416q43 35 95.5 52.5t102.5 17.5q52 0 88 -13t57 -35t28 -50.5t3 -59.5l-34 -242q-4 -25 -6 -46t-2 -40h-80q1 18 2.5 36t4.5 36h-2q-37 -46 -80.5 -65t-97.5 -19q-33 0 -61.5 9t-48.5 27t-29.5 44.5t-4.5 61.5q6 46 31 77t63.5 50.5t87 28t102.5 8.5h66l3 20
q3 18 -1.5 36t-16.5 32.5t-32 23t-49 8.5q-26 0 -46.5 -5t-37 -12.5t-31 -17.5t-28.5 -19zM356 228q-32 0 -66 -3.5t-63 -13.5t-49 -28t-24 -46q-6 -41 19 -59t72 -18q37 0 64.5 12.5t46.5 32.5t29.5 44.5t13.5 48.5l5 30h-48zM397 708h128l-169 -144h-83z" />
    <glyph glyph-name="acircumflex" unicode="&#xe2;" horiz-adv-x="519" 
d="M128 416q43 35 95.5 52.5t102.5 17.5q52 0 88 -13t57 -35t28 -50.5t3 -59.5l-34 -242q-4 -25 -6 -46t-2 -40h-80q1 18 2.5 36t4.5 36h-2q-37 -46 -80.5 -65t-97.5 -19q-33 0 -61.5 9t-48.5 27t-29.5 44.5t-4.5 61.5q6 46 31 77t63.5 50.5t87 28t102.5 8.5h66l3 20
q3 18 -1.5 36t-16.5 32.5t-32 23t-49 8.5q-26 0 -46.5 -5t-37 -12.5t-31 -17.5t-28.5 -19zM356 228q-32 0 -66 -3.5t-63 -13.5t-49 -28t-24 -46q-6 -41 19 -59t72 -18q37 0 64.5 12.5t46.5 32.5t29.5 44.5t13.5 48.5l5 30h-48zM413 564l-61 96l-87 -96h-91l132 144h106
l92 -144h-91z" />
    <glyph glyph-name="atilde" unicode="&#xe3;" horiz-adv-x="519" 
d="M128 416q43 35 95.5 52.5t102.5 17.5q52 0 88 -13t57 -35t28 -50.5t3 -59.5l-34 -242q-4 -25 -6 -46t-2 -40h-80q1 18 2.5 36t4.5 36h-2q-37 -46 -80.5 -65t-97.5 -19q-33 0 -61.5 9t-48.5 27t-29.5 44.5t-4.5 61.5q6 46 31 77t63.5 50.5t87 28t102.5 8.5h66l3 20
q3 18 -1.5 36t-16.5 32.5t-32 23t-49 8.5q-26 0 -46.5 -5t-37 -12.5t-31 -17.5t-28.5 -19zM356 228q-32 0 -66 -3.5t-63 -13.5t-49 -28t-24 -46q-6 -41 19 -59t72 -18q37 0 64.5 12.5t46.5 32.5t29.5 44.5t13.5 48.5l5 30h-48zM172 576q6 19 17 38t25.5 33.5t33 23.5t40.5 9
q23 0 42 -7.5t39 -15.5q14 -6 24.5 -11.5t26.5 -5.5q20 0 34 13t22 31h48q-6 -19 -15.5 -37.5t-23 -33.5t-31 -24t-39.5 -9q-21 0 -40.5 6.5t-37.5 14.5q-14 6 -30 12.5t-33 6.5q-19 0 -32.5 -13.5t-21.5 -30.5h-48z" />
    <glyph glyph-name="adieresis" unicode="&#xe4;" horiz-adv-x="519" 
d="M128 416q43 35 95.5 52.5t102.5 17.5q52 0 88 -13t57 -35t28 -50.5t3 -59.5l-34 -242q-4 -25 -6 -46t-2 -40h-80q1 18 2.5 36t4.5 36h-2q-37 -46 -80.5 -65t-97.5 -19q-33 0 -61.5 9t-48.5 27t-29.5 44.5t-4.5 61.5q6 46 31 77t63.5 50.5t87 28t102.5 8.5h66l3 20
q3 18 -1.5 36t-16.5 32.5t-32 23t-49 8.5q-26 0 -46.5 -5t-37 -12.5t-31 -17.5t-28.5 -19zM356 228q-32 0 -66 -3.5t-63 -13.5t-49 -28t-24 -46q-6 -41 19 -59t72 -18q37 0 64.5 12.5t46.5 32.5t29.5 44.5t13.5 48.5l5 30h-48zM258 714q23 0 40 -16t14 -41q-4 -27 -24 -45
t-47 -18t-42 18t-11 45q3 25 25 41t45 16zM462 714q23 0 40 -16t14 -41q-4 -27 -24 -45t-47 -18t-42 18t-11 45q3 25 25 41t45 16z" />
    <glyph glyph-name="aring" unicode="&#xe5;" horiz-adv-x="519" 
d="M128 416q43 35 95.5 52.5t102.5 17.5q52 0 88 -13t57 -35t28 -50.5t3 -59.5l-34 -242q-4 -25 -6 -46t-2 -40h-80q1 18 2.5 36t4.5 36h-2q-37 -46 -80.5 -65t-97.5 -19q-33 0 -61.5 9t-48.5 27t-29.5 44.5t-4.5 61.5q6 46 31 77t63.5 50.5t87 28t102.5 8.5h66l3 20
q3 18 -1.5 36t-16.5 32.5t-32 23t-49 8.5q-26 0 -46.5 -5t-37 -12.5t-31 -17.5t-28.5 -19zM356 228q-32 0 -66 -3.5t-63 -13.5t-49 -28t-24 -46q-6 -41 19 -59t72 -18q37 0 64.5 12.5t46.5 32.5t29.5 44.5t13.5 48.5l5 30h-48zM249 651q3 21 14 39t27 31.5t35.5 21t39.5 7.5
q21 0 38.5 -7.5t29.5 -21t17.5 -31t2.5 -38.5t-13.5 -39t-26 -31.5t-35.5 -21t-41 -7.5q-41 0 -67.5 28t-20.5 70zM411 651q4 25 -12 41t-40 16t-44 -16t-24 -41q-4 -24 12.5 -40t39.5 -16t43.5 16t24.5 40z" />
    <glyph glyph-name="ae" unicode="&#xe6;" horiz-adv-x="852" 
d="M841 204h-353q-4 -29 2 -55t21.5 -45.5t40.5 -31.5t59 -12q43 0 76.5 21.5t56.5 53.5l66 -55q-48 -48 -97.5 -73t-114.5 -25q-57 0 -102 21.5t-69 75.5q-40 -45 -91 -71t-117 -26q-48 0 -80.5 13.5t-52 35t-26.5 49t-3 55.5q6 42 27.5 69.5t52 43t66.5 22t71 6.5h140
l2 15q4 25 -0.5 47.5t-17 39.5t-33.5 26.5t-50 9.5q-42 0 -74.5 -14t-67.5 -40l-48 57q42 34 95 51.5t104 17.5q49 0 93 -17t66 -59q13 13 30.5 26.5t39 24.5t48 18t59.5 7q68 0 107 -26t58.5 -63.5t22.5 -79t-1 -71.5zM262 204q-52 0 -78 -17t-31 -52q-2 -17 3.5 -32
t17.5 -26t29.5 -17t37.5 -6q28 0 55 9.5t49 27t37 42.5t20 57l2 14h-142zM755 276q3 27 -0.5 51t-15.5 42t-34.5 28.5t-56.5 10.5q-32 0 -57.5 -10.5t-45 -28.5t-31.5 -42t-16 -51h257z" />
    <glyph glyph-name="ccedilla" unicode="&#xe7;" horiz-adv-x="482" 
d="M151 -165q36 -15 76 -15q9 0 20 2t20.5 6.5t17 12.5t9.5 21q3 19 -5.5 28t-22 11.5t-30.5 0t-31 -6.5l-19 18l66 78q-32 4 -59 15q-43 18 -71 50.5t-40 78t-4 100.5q7 55 31.5 101t62 79t85.5 51.5t104 18.5q52 0 96.5 -18.5t74.5 -56.5l-77 -62q-21 26 -46.5 39.5
t-63.5 13.5q-37 0 -66.5 -13.5t-51.5 -37t-35.5 -54t-18.5 -63.5t2 -62.5t24 -51.5t43.5 -34.5t61.5 -12.5q38 0 67 13.5t55 39.5l55 -64q-41 -39 -90 -56q-45 -16 -93 -17l-42 -49h29q17 0 33 -4t27.5 -13t18 -22.5t3.5 -32.5q-4 -27 -18 -45t-34 -29t-43 -16t-44 -5
q-27 0 -52.5 5.5t-47.5 17.5z" />
    <glyph glyph-name="egrave" unicode="&#xe8;" 
d="M164 204q-4 -31 6 -56.5t29.5 -43.5t47 -28t58.5 -10q42 0 75.5 19.5t64.5 51.5l60 -52q-88 -97 -223 -97q-56 0 -98.5 19t-69.5 52.5t-38 79t-3 98.5q7 53 32 98.5t62.5 79t85 52.5t100.5 19q63 0 103.5 -22t63.5 -57.5t29 -80t0 -90.5l-5 -32h-380zM458 276q3 30 -2 55
t-19 43.5t-38 29t-58 10.5q-33 0 -62 -12.5t-51.5 -32.5t-36.5 -44.5t-17 -48.5h284zM423 564h-83l-129 144h128z" />
    <glyph glyph-name="eacute" unicode="&#xe9;" 
d="M164 204q-4 -31 6 -56.5t29.5 -43.5t47 -28t58.5 -10q42 0 75.5 19.5t64.5 51.5l60 -52q-88 -97 -223 -97q-56 0 -98.5 19t-69.5 52.5t-38 79t-3 98.5q7 53 32 98.5t62.5 79t85 52.5t100.5 19q63 0 103.5 -22t63.5 -57.5t29 -80t0 -90.5l-5 -32h-380zM458 276q3 30 -2 55
t-19 43.5t-38 29t-58 10.5q-33 0 -62 -12.5t-51.5 -32.5t-36.5 -44.5t-17 -48.5h284zM415 708h128l-169 -144h-83z" />
    <glyph glyph-name="ecircumflex" unicode="&#xea;" 
d="M164 204q-4 -31 6 -56.5t29.5 -43.5t47 -28t58.5 -10q42 0 75.5 19.5t64.5 51.5l60 -52q-88 -97 -223 -97q-56 0 -98.5 19t-69.5 52.5t-38 79t-3 98.5q7 53 32 98.5t62.5 79t85 52.5t100.5 19q63 0 103.5 -22t63.5 -57.5t29 -80t0 -90.5l-5 -32h-380zM458 276q3 30 -2 55
t-19 43.5t-38 29t-58 10.5q-33 0 -62 -12.5t-51.5 -32.5t-36.5 -44.5t-17 -48.5h284zM431 564l-61 96l-87 -96h-91l132 144h106l92 -144h-91z" />
    <glyph glyph-name="edieresis" unicode="&#xeb;" 
d="M164 204q-4 -31 6 -56.5t29.5 -43.5t47 -28t58.5 -10q42 0 75.5 19.5t64.5 51.5l60 -52q-88 -97 -223 -97q-56 0 -98.5 19t-69.5 52.5t-38 79t-3 98.5q7 53 32 98.5t62.5 79t85 52.5t100.5 19q63 0 103.5 -22t63.5 -57.5t29 -80t0 -90.5l-5 -32h-380zM458 276q3 30 -2 55
t-19 43.5t-38 29t-58 10.5q-33 0 -62 -12.5t-51.5 -32.5t-36.5 -44.5t-17 -48.5h284zM276 714q23 0 40 -16t14 -41q-4 -27 -24 -45t-47 -18t-42 18t-11 45q3 25 25 41t45 16zM480 714q23 0 40 -16t14 -41q-4 -27 -24 -45t-47 -18t-42 18t-11 45q3 25 25 41t45 16z" />
    <glyph glyph-name="igrave" unicode="&#xec;" horiz-adv-x="240" 
d="M141 474h90l-66 -474h-90zM265 564h-83l-129 144h128z" />
    <glyph glyph-name="iacute" unicode="&#xed;" horiz-adv-x="240" 
d="M141 474h90l-66 -474h-90zM257 708h128l-169 -144h-83z" />
    <glyph glyph-name="icircumflex" unicode="&#xee;" horiz-adv-x="240" 
d="M141 474h90l-66 -474h-90zM273 564l-61 96l-87 -96h-91l132 144h106l92 -144h-91z" />
    <glyph glyph-name="idieresis" unicode="&#xef;" horiz-adv-x="240" 
d="M141 474h90l-66 -474h-90zM118 714q23 0 40 -16t14 -41q-4 -27 -24 -45t-47 -18t-42 18t-11 45q3 25 25 41t45 16zM322 714q23 0 40 -16t14 -41q-4 -27 -24 -45t-47 -18t-42 18t-11 45q3 25 25 41t45 16z" />
    <glyph glyph-name="eth" unicode="&#xf0;" horiz-adv-x="594" 
d="M575 712l-120 -55q33 -41 60.5 -85t46 -92t25.5 -100.5t-1 -110.5q-9 -63 -33 -115t-61.5 -89t-87 -57t-109.5 -20q-53 0 -96.5 19.5t-72.5 53t-42.5 79t-5.5 97.5q7 52 33 97t65 79t87.5 53.5t101.5 19.5q33 0 65.5 -11t52.5 -39l2 2q-21 50 -52 94.5t-67 85.5l-114 -52
l-40 46l113 53l-75 71l85 46l78 -78l116 52zM174 237q-5 -36 1.5 -66.5t23.5 -52t44.5 -34t63.5 -12.5t66.5 12.5t53.5 34t38.5 52t20.5 66.5t-1.5 66.5t-24 52t-44.5 34t-63 12.5t-66.5 -12.5t-54 -34t-38.5 -52t-20 -66.5z" />
    <glyph glyph-name="ntilde" unicode="&#xf1;" 
d="M134 474h90l-10 -73h2q23 38 68 61.5t100 23.5q34 0 64 -10.5t50.5 -32.5t29.5 -56.5t2 -81.5l-42 -305h-90l39 280q4 33 -1.5 56.5t-18 38t-31.5 21t-40 6.5q-28 0 -53.5 -9t-46 -28.5t-34.5 -49.5t-20 -71l-34 -244h-90zM190 576q6 19 17 38t25.5 33.5t33 23.5t40.5 9
q23 0 42 -7.5t39 -15.5q14 -6 24.5 -11.5t26.5 -5.5q20 0 34 13t22 31h48q-6 -19 -15.5 -37.5t-23 -33.5t-31 -24t-39.5 -9q-21 0 -40.5 6.5t-37.5 14.5q-14 6 -30 12.5t-33 6.5q-19 0 -32.5 -13.5t-21.5 -30.5h-48z" />
    <glyph glyph-name="ograve" unicode="&#xf2;" horiz-adv-x="594" 
d="M174 237q-5 -36 1.5 -66.5t23.5 -52t44.5 -34t63.5 -12.5t66.5 12.5t53.5 34t38.5 52t20.5 66.5t-1.5 66.5t-24 52t-44.5 34t-63 12.5t-66.5 -12.5t-54 -34t-38.5 -52t-20 -66.5zM78 237q7 52 33 97t65 79t87.5 53.5t101.5 19.5t96 -19.5t72.5 -53.5t42.5 -79t6 -97
q-8 -52 -33.5 -97.5t-64.5 -79t-87.5 -53t-101.5 -19.5t-96.5 19.5t-72.5 53t-42.5 79t-5.5 97.5zM442 564h-83l-129 144h128z" />
    <glyph glyph-name="oacute" unicode="&#xf3;" horiz-adv-x="594" 
d="M174 237q-5 -36 1.5 -66.5t23.5 -52t44.5 -34t63.5 -12.5t66.5 12.5t53.5 34t38.5 52t20.5 66.5t-1.5 66.5t-24 52t-44.5 34t-63 12.5t-66.5 -12.5t-54 -34t-38.5 -52t-20 -66.5zM78 237q7 52 33 97t65 79t87.5 53.5t101.5 19.5t96 -19.5t72.5 -53.5t42.5 -79t6 -97
q-8 -52 -33.5 -97.5t-64.5 -79t-87.5 -53t-101.5 -19.5t-96.5 19.5t-72.5 53t-42.5 79t-5.5 97.5zM434 708h128l-169 -144h-83z" />
    <glyph glyph-name="ocircumflex" unicode="&#xf4;" horiz-adv-x="594" 
d="M174 237q-5 -36 1.5 -66.5t23.5 -52t44.5 -34t63.5 -12.5t66.5 12.5t53.5 34t38.5 52t20.5 66.5t-1.5 66.5t-24 52t-44.5 34t-63 12.5t-66.5 -12.5t-54 -34t-38.5 -52t-20 -66.5zM78 237q7 52 33 97t65 79t87.5 53.5t101.5 19.5t96 -19.5t72.5 -53.5t42.5 -79t6 -97
q-8 -52 -33.5 -97.5t-64.5 -79t-87.5 -53t-101.5 -19.5t-96.5 19.5t-72.5 53t-42.5 79t-5.5 97.5zM450 564l-61 96l-87 -96h-91l132 144h106l92 -144h-91z" />
    <glyph glyph-name="otilde" unicode="&#xf5;" horiz-adv-x="594" 
d="M174 237q-5 -36 1.5 -66.5t23.5 -52t44.5 -34t63.5 -12.5t66.5 12.5t53.5 34t38.5 52t20.5 66.5t-1.5 66.5t-24 52t-44.5 34t-63 12.5t-66.5 -12.5t-54 -34t-38.5 -52t-20 -66.5zM78 237q7 52 33 97t65 79t87.5 53.5t101.5 19.5t96 -19.5t72.5 -53.5t42.5 -79t6 -97
q-8 -52 -33.5 -97.5t-64.5 -79t-87.5 -53t-101.5 -19.5t-96.5 19.5t-72.5 53t-42.5 79t-5.5 97.5zM209 576q6 19 17 38t25.5 33.5t33 23.5t40.5 9q23 0 42 -7.5t39 -15.5q14 -6 24.5 -11.5t26.5 -5.5q20 0 34 13t22 31h48q-6 -19 -15.5 -37.5t-23 -33.5t-31 -24t-39.5 -9
q-21 0 -40.5 6.5t-37.5 14.5q-14 6 -30 12.5t-33 6.5q-19 0 -32.5 -13.5t-21.5 -30.5h-48z" />
    <glyph glyph-name="odieresis" unicode="&#xf6;" horiz-adv-x="594" 
d="M174 237q-5 -36 1.5 -66.5t23.5 -52t44.5 -34t63.5 -12.5t66.5 12.5t53.5 34t38.5 52t20.5 66.5t-1.5 66.5t-24 52t-44.5 34t-63 12.5t-66.5 -12.5t-54 -34t-38.5 -52t-20 -66.5zM78 237q7 52 33 97t65 79t87.5 53.5t101.5 19.5t96 -19.5t72.5 -53.5t42.5 -79t6 -97
q-8 -52 -33.5 -97.5t-64.5 -79t-87.5 -53t-101.5 -19.5t-96.5 19.5t-72.5 53t-42.5 79t-5.5 97.5zM295 714q23 0 40 -16t14 -41q-4 -27 -24 -45t-47 -18t-42 18t-11 45q3 25 25 41t45 16zM499 714q23 0 40 -16t14 -41q-4 -27 -24 -45t-47 -18t-42 18t-11 45q3 25 25 41
t45 16z" />
    <glyph glyph-name="divide" unicode="&#xf7;" horiz-adv-x="666" 
d="M647 341l-11 -78h-534l11 78h534zM333 470q4 27 26 46.5t49 19.5t44 -19.5t13 -46.5q-5 -27 -27 -46.5t-49 -19.5t-44 19.5t-12 46.5zM285 134q4 27 26.5 46.5t49.5 19.5t43.5 -19.5t12.5 -46.5t-26 -46.5t-49 -19.5t-44 19.5t-13 46.5z" />
    <glyph glyph-name="oslash" unicode="&#xf8;" horiz-adv-x="594" 
d="M450 367q-17 17 -41 26t-56 9q-36 0 -66.5 -12.5t-54 -34t-38.5 -52t-20 -66.5q-9 -61 15 -102zM41 4l77 68q-25 32 -36 74.5t-4 90.5q7 52 33 97t65 79t87.5 53.5t101.5 19.5q48 0 87 -15.5t67 -42.5l85 75l31 -36l-86 -76q45 -65 33 -154q-8 -52 -33.5 -97.5t-64.5 -79
t-87.5 -53t-101.5 -19.5q-42 0 -78.5 13t-64.5 36l-79 -69zM221 99q33 -27 86 -27q36 0 66.5 12.5t53.5 34t38.5 52t20.5 66.5q3 25 1 47.5t-11 41.5z" />
    <glyph glyph-name="ugrave" unicode="&#xf9;" 
d="M488 0h-90l10 73h-2q-23 -38 -68 -61.5t-100 -23.5q-35 0 -64.5 10.5t-50 32.5t-29.5 56.5t-3 81.5l43 305h90l-39 -280q-5 -33 0.5 -56.5t18.5 -38t32 -21t40 -6.5q56 0 99 37.5t55 120.5l34 244h90zM423 564h-83l-129 144h128z" />
    <glyph glyph-name="uacute" unicode="&#xfa;" 
d="M488 0h-90l10 73h-2q-23 -38 -68 -61.5t-100 -23.5q-35 0 -64.5 10.5t-50 32.5t-29.5 56.5t-3 81.5l43 305h90l-39 -280q-5 -33 0.5 -56.5t18.5 -38t32 -21t40 -6.5q56 0 99 37.5t55 120.5l34 244h90zM415 708h128l-169 -144h-83z" />
    <glyph glyph-name="ucircumflex" unicode="&#xfb;" 
d="M488 0h-90l10 73h-2q-23 -38 -68 -61.5t-100 -23.5q-35 0 -64.5 10.5t-50 32.5t-29.5 56.5t-3 81.5l43 305h90l-39 -280q-5 -33 0.5 -56.5t18.5 -38t32 -21t40 -6.5q56 0 99 37.5t55 120.5l34 244h90zM431 564l-61 96l-87 -96h-91l132 144h106l92 -144h-91z" />
    <glyph glyph-name="udieresis" unicode="&#xfc;" 
d="M488 0h-90l10 73h-2q-23 -38 -68 -61.5t-100 -23.5q-35 0 -64.5 10.5t-50 32.5t-29.5 56.5t-3 81.5l43 305h90l-39 -280q-5 -33 0.5 -56.5t18.5 -38t32 -21t40 -6.5q56 0 99 37.5t55 120.5l34 244h90zM276 714q23 0 40 -16t14 -41q-4 -27 -24 -45t-47 -18t-42 18t-11 45
q3 25 25 41t45 16zM480 714q23 0 40 -16t14 -41q-4 -27 -24 -45t-47 -18t-42 18t-11 45q3 25 25 41t45 16z" />
    <glyph glyph-name="yacute" unicode="&#xfd;" horiz-adv-x="500" 
d="M77 474h104l89 -370h2l186 370h97l-306 -576q-16 -31 -32.5 -56.5t-37 -43.5t-47.5 -28t-64 -10q-20 0 -40 2.5t-37 10.5l21 82q25 -11 53 -11q21 0 36.5 5.5t27 16t21 24.5t18.5 32l39 75zM387 708h128l-169 -144h-83z" />
    <glyph glyph-name="thorn" unicode="&#xfe;" horiz-adv-x="611" 
d="M174 756h90l-49 -350h2q29 37 77 58.5t99 21.5q55 0 96.5 -19t68.5 -52.5t37.5 -79t3.5 -98.5q-8 -53 -31 -98t-59 -79t-83.5 -53t-102.5 -19q-48 0 -90.5 21t-63.5 59h-2l-42 -296h-90zM324 72q36 0 66.5 12.5t53.5 34t38.5 52t20.5 66.5t-1.5 66.5t-24 52t-44.5 34
t-63 12.5t-66.5 -12.5t-54 -34t-38.5 -52t-20 -66.5t1.5 -66.5t23.5 -52t44.5 -34t63.5 -12.5z" />
    <glyph glyph-name="ydieresis" unicode="&#xff;" horiz-adv-x="500" 
d="M77 474h104l89 -370h2l186 370h97l-306 -576q-16 -31 -32.5 -56.5t-37 -43.5t-47.5 -28t-64 -10q-20 0 -40 2.5t-37 10.5l21 82q25 -11 53 -11q21 0 36.5 5.5t27 16t21 24.5t18.5 32l39 75zM248 714q23 0 40 -16t14 -41q-4 -27 -24 -45t-47 -18t-42 18t-11 45q3 25 25 41
t45 16zM452 714q23 0 40 -16t14 -41q-4 -27 -24 -45t-47 -18t-42 18t-11 45q3 25 25 41t45 16z" />
    <glyph glyph-name="Amacron" unicode="&#x100;" horiz-adv-x="704" 
d="M412 708h87l204 -708h-112l-47 175h-337l-94 -175h-112zM521 259l-86 325h-2l-180 -325h268zM606 788h-288l9 66h288z" />
    <glyph glyph-name="amacron" unicode="&#x101;" horiz-adv-x="519" 
d="M128 416q43 35 95.5 52.5t102.5 17.5q52 0 88 -13t57 -35t28 -50.5t3 -59.5l-34 -242q-4 -25 -6 -46t-2 -40h-80q1 18 2.5 36t4.5 36h-2q-37 -46 -80.5 -65t-97.5 -19q-33 0 -61.5 9t-48.5 27t-29.5 44.5t-4.5 61.5q6 46 31 77t63.5 50.5t87 28t102.5 8.5h66l3 20
q3 18 -1.5 36t-16.5 32.5t-32 23t-49 8.5q-26 0 -46.5 -5t-37 -12.5t-31 -17.5t-28.5 -19zM356 228q-32 0 -66 -3.5t-63 -13.5t-49 -28t-24 -46q-6 -41 19 -59t72 -18q37 0 64.5 12.5t46.5 32.5t29.5 44.5t13.5 48.5l5 30h-48zM488 600h-288l9 66h288z" />
    <glyph glyph-name="Abreve" unicode="&#x102;" horiz-adv-x="704" 
d="M412 708h87l204 -708h-112l-47 175h-337l-94 -175h-112zM521 259l-86 325h-2l-180 -325h268zM370 906q2 -38 29 -55t64 -17t69 17t44 55h53q-14 -69 -62 -103.5t-114 -34.5t-104.5 34.5t-33.5 103.5h55z" />
    <glyph glyph-name="abreve" unicode="&#x103;" horiz-adv-x="519" 
d="M128 416q43 35 95.5 52.5t102.5 17.5q52 0 88 -13t57 -35t28 -50.5t3 -59.5l-34 -242q-4 -25 -6 -46t-2 -40h-80q1 18 2.5 36t4.5 36h-2q-37 -46 -80.5 -65t-97.5 -19q-33 0 -61.5 9t-48.5 27t-29.5 44.5t-4.5 61.5q6 46 31 77t63.5 50.5t87 28t102.5 8.5h66l3 20
q3 18 -1.5 36t-16.5 32.5t-32 23t-49 8.5q-26 0 -46.5 -5t-37 -12.5t-31 -17.5t-28.5 -19zM356 228q-32 0 -66 -3.5t-63 -13.5t-49 -28t-24 -46q-6 -41 19 -59t72 -18q37 0 64.5 12.5t46.5 32.5t29.5 44.5t13.5 48.5l5 30h-48zM238 702q2 -38 29 -55t64 -17t69 17t44 55h53
q-14 -69 -62 -103.5t-114 -34.5t-104.5 34.5t-33.5 103.5h55z" />
    <glyph glyph-name="Aogonek" unicode="&#x104;" horiz-adv-x="704" 
d="M675 -186q-23 -18 -48 -26.5t-48 -8.5q-39 0 -65 21.5t-22 63.5q3 21 14.5 41.5t27.5 39t35 34.5q13 12 26 21h-4l-47 175h-337l-94 -175h-112l411 708h87l204 -708h-52q-9 -8 -19 -18q-15 -15 -28.5 -32t-24 -34.5t-12.5 -33.5q-2 -24 11.5 -33.5t31.5 -9.5q13 0 26 5.5
t24 13.5zM521 259l-86 325h-2l-180 -325h268z" />
    <glyph glyph-name="aogonek" unicode="&#x105;" horiz-adv-x="519" 
d="M468 -186q-23 -18 -48 -26.5t-48 -8.5q-39 0 -65 21.5t-22 63.5q3 21 14.5 41.5t27.5 39t35 34.5q13 12 26 21h-8q1 18 2.5 36t4.5 36h-2q-37 -46 -80.5 -65t-97.5 -19q-33 0 -61.5 9t-48.5 27t-29.5 44.5t-4.5 61.5q6 46 31 77t63.5 50.5t87 28t102.5 8.5h66l3 20
q3 18 -1.5 36t-16.5 32.5t-32 23t-49 8.5q-26 0 -46.5 -5t-37 -12.5t-31 -17.5t-28.5 -19l-46 56q43 35 95.5 52.5t102.5 17.5q52 0 88 -13t57 -35t28 -50.5t3 -59.5l-34 -242q-4 -25 -6 -46t-2 -40h-16q-9 -8 -19 -18q-15 -15 -28.5 -32t-24 -34.5t-12.5 -33.5
q-2 -24 11.5 -33.5t31.5 -9.5q13 0 26 5.5t24 13.5zM356 228q-32 0 -66 -3.5t-63 -13.5t-49 -28t-24 -46q-6 -41 19 -59t72 -18q37 0 64.5 12.5t46.5 32.5t29.5 44.5t13.5 48.5l5 30h-48z" />
    <glyph glyph-name="Cacute" unicode="&#x106;" horiz-adv-x="704" 
d="M662 555q-25 39 -68 60t-92 21q-60 0 -111.5 -22.5t-92 -61.5t-66.5 -91.5t-35 -112.5q-8 -56 3 -106t40 -88t75 -60t108 -22q61 0 110.5 25t87.5 70l72 -61q-9 -11 -32 -31.5t-59 -41t-84.5 -36t-109.5 -15.5q-84 0 -147 32t-103 84t-56 117.5t-7 132.5
q12 82 48.5 151.5t92.5 120t128 78.5t154 28q70 0 133.5 -26.5t98.5 -83.5zM580 904h128l-169 -144h-83z" />
    <glyph glyph-name="cacute" unicode="&#x107;" horiz-adv-x="482" 
d="M455 348q-21 26 -46.5 39.5t-63.5 13.5q-37 0 -66.5 -13.5t-51.5 -37t-35.5 -54t-18.5 -63.5t2 -62.5t24 -51.5t43.5 -34.5t61.5 -12.5q38 0 67 13.5t55 39.5l55 -64q-41 -39 -89.5 -56t-100.5 -17q-55 0 -98 18t-71 50.5t-40 78t-4 100.5q7 55 31.5 101t62 79t85.5 51.5
t104 18.5q52 0 96.5 -18.5t74.5 -56.5zM418 708h128l-169 -144h-83z" />
    <glyph glyph-name="Ccircumflex" unicode="&#x108;" horiz-adv-x="704" 
d="M662 555q-25 39 -68 60t-92 21q-60 0 -111.5 -22.5t-92 -61.5t-66.5 -91.5t-35 -112.5q-8 -56 3 -106t40 -88t75 -60t108 -22q61 0 110.5 25t87.5 70l72 -61q-9 -11 -32 -31.5t-59 -41t-84.5 -36t-109.5 -15.5q-84 0 -147 32t-103 84t-56 117.5t-7 132.5
q12 82 48.5 151.5t92.5 120t128 78.5t154 28q70 0 133.5 -26.5t98.5 -83.5zM594 760l-61 96l-87 -96h-91l132 144h106l92 -144h-91z" />
    <glyph glyph-name="ccircumflex" unicode="&#x109;" horiz-adv-x="482" 
d="M455 348q-21 26 -46.5 39.5t-63.5 13.5q-37 0 -66.5 -13.5t-51.5 -37t-35.5 -54t-18.5 -63.5t2 -62.5t24 -51.5t43.5 -34.5t61.5 -12.5q38 0 67 13.5t55 39.5l55 -64q-41 -39 -89.5 -56t-100.5 -17q-55 0 -98 18t-71 50.5t-40 78t-4 100.5q7 55 31.5 101t62 79t85.5 51.5
t104 18.5q52 0 96.5 -18.5t74.5 -56.5zM431 564l-61 96l-87 -96h-91l132 144h106l92 -144h-91z" />
    <glyph glyph-name="Cdotaccent" unicode="&#x10a;" horiz-adv-x="704" 
d="M662 555q-25 39 -68 60t-92 21q-60 0 -111.5 -22.5t-92 -61.5t-66.5 -91.5t-35 -112.5q-8 -56 3 -106t40 -88t75 -60t108 -22q61 0 110.5 25t87.5 70l72 -61q-9 -11 -32 -31.5t-59 -41t-84.5 -36t-109.5 -15.5q-84 0 -147 32t-103 84t-56 117.5t-7 132.5
q12 82 48.5 151.5t92.5 120t128 78.5t154 28q70 0 133.5 -26.5t98.5 -83.5zM522 778q-27 0 -42 18t-11 45q3 25 25 41t45 16t40 -16t14 -41q-4 -27 -24 -45t-47 -18z" />
    <glyph glyph-name="cdotaccent" unicode="&#x10b;" horiz-adv-x="482" 
d="M455 348q-21 26 -46.5 39.5t-63.5 13.5q-37 0 -66.5 -13.5t-51.5 -37t-35.5 -54t-18.5 -63.5t2 -62.5t24 -51.5t43.5 -34.5t61.5 -12.5q38 0 67 13.5t55 39.5l55 -64q-41 -39 -89.5 -56t-100.5 -17q-55 0 -98 18t-71 50.5t-40 78t-4 100.5q7 55 31.5 101t62 79t85.5 51.5
t104 18.5q52 0 96.5 -18.5t74.5 -56.5zM347 594q-27 0 -42 18t-11 45q3 25 25 41t45 16t40 -16t14 -41q-4 -27 -24 -45t-47 -18z" />
    <glyph glyph-name="Ccaron" unicode="&#x10c;" horiz-adv-x="704" 
d="M662 555q-25 39 -68 60t-92 21q-60 0 -111.5 -22.5t-92 -61.5t-66.5 -91.5t-35 -112.5q-8 -56 3 -106t40 -88t75 -60t108 -22q61 0 110.5 25t87.5 70l72 -61q-9 -11 -32 -31.5t-59 -41t-84.5 -36t-109.5 -15.5q-84 0 -147 32t-103 84t-56 117.5t-7 132.5
q12 82 48.5 151.5t92.5 120t128 78.5t154 28q70 0 133.5 -26.5t98.5 -83.5zM365 904h87l65 -96l87 96h91l-132 -144h-106z" />
    <glyph glyph-name="ccaron" unicode="&#x10d;" horiz-adv-x="482" 
d="M455 348q-21 26 -46.5 39.5t-63.5 13.5q-37 0 -66.5 -13.5t-51.5 -37t-35.5 -54t-18.5 -63.5t2 -62.5t24 -51.5t43.5 -34.5t61.5 -12.5q38 0 67 13.5t55 39.5l55 -64q-41 -39 -89.5 -56t-100.5 -17q-55 0 -98 18t-71 50.5t-40 78t-4 100.5q7 55 31.5 101t62 79t85.5 51.5
t104 18.5q52 0 96.5 -18.5t74.5 -56.5zM207 708h87l65 -96l87 96h91l-132 -144h-106z" />
    <glyph glyph-name="Dcaron" unicode="&#x10e;" horiz-adv-x="741" 
d="M174 708h93h154q75 0 129 -17t91.5 -45.5t60 -65.5t33 -76t12 -78t-3.5 -72q-9 -68 -43 -131.5t-90 -113t-132.5 -79.5t-171.5 -30h-137h-94zM183 90h121q61 0 117.5 16.5t102.5 49.5t77 82.5t40 115.5q3 23 2.5 51t-8 57.5t-23.5 57.5t-43.5 49.5t-69 35t-98.5 13.5
h-144zM278 904h87l65 -96l87 96h91l-132 -144h-106z" />
    <glyph glyph-name="dcaron" unicode="&#x10f;" horiz-adv-x="611" 
d="M543 0h-90l9 68h-2q-32 -38 -80 -59t-96 -21q-55 0 -97 19t-68.5 53t-37.5 79t-3 98q7 53 31 98.5t60 79t83 52.5t102 19q51 0 92.5 -21.5t61.5 -58.5h2l49 350h90zM307 72q36 0 66.5 12.5t53.5 34t38.5 52t20.5 66.5t-1.5 66.5t-24 52t-44.5 34t-63 12.5t-66.5 -12.5
t-54 -34t-38.5 -52t-20 -66.5t1.5 -66.5t23.5 -52t44.5 -34t63.5 -12.5zM735 518h-77l104 190h93z" />
    <glyph glyph-name="Dcroat" unicode="&#x110;" horiz-adv-x="741" 
d="M122 336h-72l9 66h72l43 306h96h151q75 0 129 -17t91.5 -45.5t60 -65.5t33 -76t12 -78t-3.5 -72q-9 -68 -43 -131.5t-90 -113t-132.5 -79.5t-171.5 -30h-136h-95zM183 90h121q61 0 117.5 16.5t102.5 49.5t77 82.5t40 115.5q3 23 2.5 51t-8 57.5t-23.5 57.5t-43.5 49.5
t-69 35t-98.5 13.5h-144l-30 -216h234l-9 -66h-234z" />
    <glyph glyph-name="dcroat" unicode="&#x111;" horiz-adv-x="611" 
d="M543 0h-90l9 68h-2q-32 -38 -80 -59t-96 -21q-55 0 -97 19t-68.5 53t-37.5 79t-3 98q7 53 31 98.5t60 79t83 52.5t102 19q51 0 92.5 -21.5t61.5 -58.5h2l21 154h-164l8 62h165l19 134h90l-19 -134h64l-8 -62h-65zM307 72q36 0 66.5 12.5t53.5 34t38.5 52t20.5 66.5
t-1.5 66.5t-24 52t-44.5 34t-63 12.5t-66.5 -12.5t-54 -34t-38.5 -52t-20 -66.5t1.5 -66.5t23.5 -52t44.5 -34t63.5 -12.5z" />
    <glyph glyph-name="Emacron" unicode="&#x112;" horiz-adv-x="611" 
d="M190 708h95h362l-13 -90h-361l-29 -211h336l-13 -90h-336l-32 -227h379l-12 -90h-382h-93zM578 788h-288l9 66h288z" />
    <glyph glyph-name="emacron" unicode="&#x113;" 
d="M164 204q-4 -31 6 -56.5t29.5 -43.5t47 -28t58.5 -10q42 0 75.5 19.5t64.5 51.5l60 -52q-88 -97 -223 -97q-56 0 -98.5 19t-69.5 52.5t-38 79t-3 98.5q7 53 32 98.5t62.5 79t85 52.5t100.5 19q63 0 103.5 -22t63.5 -57.5t29 -80t0 -90.5l-5 -32h-380zM458 276q3 30 -2 55
t-19 43.5t-38 29t-58 10.5q-33 0 -62 -12.5t-51.5 -32.5t-36.5 -44.5t-17 -48.5h284zM509 600h-288l9 66h288z" />
    <glyph glyph-name="Ebreve" unicode="&#x114;" horiz-adv-x="611" 
d="M190 708h95h362l-13 -90h-361l-29 -211h336l-13 -90h-336l-32 -227h379l-12 -90h-382h-93zM338 906q2 -38 29 -55t64 -17t69 17t44 55h53q-14 -69 -62 -103.5t-114 -34.5t-104.5 34.5t-33.5 103.5h55z" />
    <glyph glyph-name="ebreve" unicode="&#x115;" 
d="M164 204q-4 -31 6 -56.5t29.5 -43.5t47 -28t58.5 -10q42 0 75.5 19.5t64.5 51.5l60 -52q-88 -97 -223 -97q-56 0 -98.5 19t-69.5 52.5t-38 79t-3 98.5q7 53 32 98.5t62.5 79t85 52.5t100.5 19q63 0 103.5 -22t63.5 -57.5t29 -80t0 -90.5l-5 -32h-380zM458 276q3 30 -2 55
t-19 43.5t-38 29t-58 10.5q-33 0 -62 -12.5t-51.5 -32.5t-36.5 -44.5t-17 -48.5h284zM283 702q2 -38 29 -55t64 -17t69 17t44 55h53q-14 -69 -62 -103.5t-114 -34.5t-104.5 34.5t-33.5 103.5h55z" />
    <glyph glyph-name="Edotaccent" unicode="&#x116;" horiz-adv-x="611" 
d="M190 708h95h362l-13 -90h-361l-29 -211h336l-13 -90h-336l-32 -227h379l-12 -90h-382h-93zM423 778q-27 0 -42 18t-11 45q3 25 25 41t45 16t40 -16t14 -41q-4 -27 -24 -45t-47 -18z" />
    <glyph glyph-name="edotaccent" unicode="&#x117;" 
d="M164 204q-4 -31 6 -56.5t29.5 -43.5t47 -28t58.5 -10q42 0 75.5 19.5t64.5 51.5l60 -52q-88 -97 -223 -97q-56 0 -98.5 19t-69.5 52.5t-38 79t-3 98.5q7 53 32 98.5t62.5 79t85 52.5t100.5 19q63 0 103.5 -22t63.5 -57.5t29 -80t0 -90.5l-5 -32h-380zM458 276q3 30 -2 55
t-19 43.5t-38 29t-58 10.5q-33 0 -62 -12.5t-51.5 -32.5t-36.5 -44.5t-17 -48.5h284zM362 594q-27 0 -42 18t-11 45q3 25 25 41t45 16t40 -16t14 -41q-4 -27 -24 -45t-47 -18z" />
    <glyph glyph-name="Eogonek" unicode="&#x118;" horiz-adv-x="611" 
d="M572 -186q-23 -18 -48 -26.5t-48 -8.5q-39 0 -65 21.5t-22 63.5q3 21 14.5 41.5t27.5 39t35 34.5q13 12 26 21h-401l99 708h457l-13 -90h-361l-29 -211h336l-13 -90h-336l-32 -227h379l-12 -90h-18q-9 -8 -19 -18q-15 -15 -28.5 -32t-24 -34.5t-12.5 -33.5
q-2 -24 11.5 -33.5t31.5 -9.5q13 0 26 5.5t24 13.5z" />
    <glyph glyph-name="eogonek" unicode="&#x119;" 
d="M387 -186q-23 -18 -48 -26.5t-48 -8.5q-39 0 -65 21.5t-22 63.5q3 21 14.5 41.5t27.5 39t35 34.5q5 5 10 9h-9q-56 0 -98.5 19t-69.5 52.5t-38 79t-3 98.5q7 53 32 98.5t62.5 79t85 52.5t100.5 19q63 0 103.5 -22t63.5 -57.5t29 -80t0 -90.5l-5 -32h-380q-4 -31 6 -56.5
t29.5 -43.5t47 -28t58.5 -10q42 0 75.5 19.5t64.5 51.5l60 -52q-61 -68 -146 -88l-15 -15q-15 -15 -28.5 -32t-24 -34.5t-12.5 -33.5q-2 -24 11.5 -33.5t31.5 -9.5q13 0 26 5.5t24 13.5zM458 276q3 30 -2 55t-19 43.5t-38 29t-58 10.5q-33 0 -62 -12.5t-51.5 -32.5
t-36.5 -44.5t-17 -48.5h284z" />
    <glyph glyph-name="Ecaron" unicode="&#x11a;" horiz-adv-x="611" 
d="M190 708h95h362l-13 -90h-361l-29 -211h336l-13 -90h-336l-32 -227h379l-12 -90h-382h-93zM287 904h87l65 -96l87 96h91l-132 -144h-106z" />
    <glyph glyph-name="ecaron" unicode="&#x11b;" 
d="M164 204q-4 -31 6 -56.5t29.5 -43.5t47 -28t58.5 -10q42 0 75.5 19.5t64.5 51.5l60 -52q-88 -97 -223 -97q-56 0 -98.5 19t-69.5 52.5t-38 79t-3 98.5q7 53 32 98.5t62.5 79t85 52.5t100.5 19q63 0 103.5 -22t63.5 -57.5t29 -80t0 -90.5l-5 -32h-380zM458 276q3 30 -2 55
t-19 43.5t-38 29t-58 10.5q-33 0 -62 -12.5t-51.5 -32.5t-36.5 -44.5t-17 -48.5h284zM215 708h87l65 -96l87 96h91l-132 -144h-106z" />
    <glyph glyph-name="Gcircumflex" unicode="&#x11c;" horiz-adv-x="778" 
d="M654 396h95l-49 -349q-28 -16 -63 -28t-71.5 -20.5t-73.5 -12.5t-69 -4q-90 0 -156.5 30t-107.5 81t-57.5 118.5t-5.5 142.5q11 79 48 147t93 118t128 78.5t153 28.5q97 0 156.5 -24.5t94.5 -67.5l-79 -73q-38 42 -84.5 58.5t-100.5 16.5q-61 0 -113.5 -22.5t-92.5 -60.5
t-66.5 -89.5t-34.5 -109.5q-8 -60 6 -111.5t45.5 -89.5t78.5 -59.5t106 -21.5q51 0 97.5 9.5t81.5 27.5l28 197h-157l12 90h158zM592 760l-61 96l-87 -96h-91l132 144h106l92 -144h-91z" />
    <glyph glyph-name="gcircumflex" unicode="&#x11d;" horiz-adv-x="611" 
d="M543 4q-8 -54 -32.5 -98.5t-63 -77t-89 -50.5t-108.5 -18q-68 0 -122 19t-98 66l71 76q30 -38 68.5 -57.5t90.5 -19.5q50 0 85 14.5t57.5 37.5t34.5 52.5t17 59.5l9 70h-3q-32 -43 -79 -63.5t-96 -20.5q-52 0 -94 18.5t-69.5 51t-39.5 77t-4 96.5q7 52 30.5 97.5
t59.5 79.5t83.5 53t102.5 19q48 0 90.5 -21t63.5 -59h2l9 68h90zM353 402q-36 0 -66.5 -12.5t-54 -34t-38.5 -52t-20 -66.5q-11 -72 25 -115.5t108 -43.5t120 43.5t59 115.5q5 36 -1.5 66.5t-24 52t-44.5 34t-63 12.5zM455 564l-61 96l-87 -96h-91l132 144h106l92 -144h-91z
" />
    <glyph glyph-name="Gbreve" unicode="&#x11e;" horiz-adv-x="778" 
d="M654 396h95l-49 -349q-28 -16 -63 -28t-71.5 -20.5t-73.5 -12.5t-69 -4q-90 0 -156.5 30t-107.5 81t-57.5 118.5t-5.5 142.5q11 79 48 147t93 118t128 78.5t153 28.5q97 0 156.5 -24.5t94.5 -67.5l-79 -73q-38 42 -84.5 58.5t-100.5 16.5q-61 0 -113.5 -22.5t-92.5 -60.5
t-66.5 -89.5t-34.5 -109.5q-8 -60 6 -111.5t45.5 -89.5t78.5 -59.5t106 -21.5q51 0 97.5 9.5t81.5 27.5l28 197h-157l12 90h158zM436 906q2 -38 29 -55t64 -17t69 17t44 55h53q-14 -69 -62 -103.5t-114 -34.5t-104.5 34.5t-33.5 103.5h55z" />
    <glyph glyph-name="gbreve" unicode="&#x11f;" horiz-adv-x="611" 
d="M543 4q-8 -54 -32.5 -98.5t-63 -77t-89 -50.5t-108.5 -18q-68 0 -122 19t-98 66l71 76q30 -38 68.5 -57.5t90.5 -19.5q50 0 85 14.5t57.5 37.5t34.5 52.5t17 59.5l9 70h-3q-32 -43 -79 -63.5t-96 -20.5q-52 0 -94 18.5t-69.5 51t-39.5 77t-4 96.5q7 52 30.5 97.5
t59.5 79.5t83.5 53t102.5 19q48 0 90.5 -21t63.5 -59h2l9 68h90zM353 402q-36 0 -66.5 -12.5t-54 -34t-38.5 -52t-20 -66.5q-11 -72 25 -115.5t108 -43.5t120 43.5t59 115.5q5 36 -1.5 66.5t-24 52t-44.5 34t-63 12.5zM302 702q2 -38 29 -55t64 -17t69 17t44 55h53
q-14 -69 -62 -103.5t-114 -34.5t-104.5 34.5t-33.5 103.5h55z" />
    <glyph glyph-name="Gdotaccent" unicode="&#x120;" horiz-adv-x="778" 
d="M654 396h95l-49 -349q-28 -16 -63 -28t-71.5 -20.5t-73.5 -12.5t-69 -4q-90 0 -156.5 30t-107.5 81t-57.5 118.5t-5.5 142.5q11 79 48 147t93 118t128 78.5t153 28.5q97 0 156.5 -24.5t94.5 -67.5l-79 -73q-38 42 -84.5 58.5t-100.5 16.5q-61 0 -113.5 -22.5t-92.5 -60.5
t-66.5 -89.5t-34.5 -109.5q-8 -60 6 -111.5t45.5 -89.5t78.5 -59.5t106 -21.5q51 0 97.5 9.5t81.5 27.5l28 197h-157l12 90h158zM516 778q-27 0 -42 18t-11 45q3 25 25 41t45 16t40 -16t14 -41q-4 -27 -24 -45t-47 -18z" />
    <glyph glyph-name="gdotaccent" unicode="&#x121;" horiz-adv-x="611" 
d="M543 4q-8 -54 -32.5 -98.5t-63 -77t-89 -50.5t-108.5 -18q-68 0 -122 19t-98 66l71 76q30 -38 68.5 -57.5t90.5 -19.5q50 0 85 14.5t57.5 37.5t34.5 52.5t17 59.5l9 70h-3q-32 -43 -79 -63.5t-96 -20.5q-52 0 -94 18.5t-69.5 51t-39.5 77t-4 96.5q7 52 30.5 97.5
t59.5 79.5t83.5 53t102.5 19q48 0 90.5 -21t63.5 -59h2l9 68h90zM353 402q-36 0 -66.5 -12.5t-54 -34t-38.5 -52t-20 -66.5q-11 -72 25 -115.5t108 -43.5t120 43.5t59 115.5q5 36 -1.5 66.5t-24 52t-44.5 34t-63 12.5zM390 594q-27 0 -42 18t-11 45q3 25 25 41t45 16t40 -16
t14 -41q-4 -27 -24 -45t-47 -18z" />
    <glyph glyph-name="Gcommaaccent" unicode="&#x122;" horiz-adv-x="778" 
d="M654 396h95l-49 -349q-28 -16 -63 -28t-71.5 -20.5t-73.5 -12.5t-69 -4q-90 0 -156.5 30t-107.5 81t-57.5 118.5t-5.5 142.5q11 79 48 147t93 118t128 78.5t153 28.5q97 0 156.5 -24.5t94.5 -67.5l-79 -73q-38 42 -84.5 58.5t-100.5 16.5q-61 0 -113.5 -22.5t-92.5 -60.5
t-66.5 -89.5t-34.5 -109.5q-8 -60 6 -111.5t45.5 -89.5t78.5 -59.5t106 -21.5q51 0 97.5 9.5t81.5 27.5l28 197h-157l12 90h158zM367 -235h-77l104 190h93z" />
    <glyph glyph-name="gcommaaccent" unicode="&#x123;" horiz-adv-x="611" 
d="M543 4q-8 -54 -32.5 -98.5t-63 -77t-89 -50.5t-108.5 -18q-68 0 -122 19t-98 66l71 76q30 -38 68.5 -57.5t90.5 -19.5q50 0 85 14.5t57.5 37.5t34.5 52.5t17 59.5l9 70h-3q-32 -43 -79 -63.5t-96 -20.5q-52 0 -94 18.5t-69.5 51t-39.5 77t-4 96.5q7 52 30.5 97.5
t59.5 79.5t83.5 53t102.5 19q48 0 90.5 -21t63.5 -59h2l9 68h90zM353 402q-36 0 -66.5 -12.5t-54 -34t-38.5 -52t-20 -66.5q-11 -72 25 -115.5t108 -43.5t120 43.5t59 115.5q5 36 -1.5 66.5t-24 52t-44.5 34t-63 12.5zM436 759h77l-104 -195h-93z" />
    <glyph glyph-name="Hcircumflex" unicode="&#x124;" horiz-adv-x="722" 
d="M190 708h96l-41 -294h367l41 294h96l-99 -708h-96l45 324h-367l-45 -324h-96zM538 760l-61 96l-87 -96h-91l132 144h106l92 -144h-91z" />
    <glyph glyph-name="hcircumflex" unicode="&#x125;" 
d="M174 756h90l-50 -355h2q23 38 68 61.5t100 23.5q34 0 64 -10.5t50.5 -32.5t29.5 -56.5t2 -81.5l-42 -305h-90l39 280q4 33 -1.5 56.5t-18 38t-31.5 21t-40 6.5q-28 0 -53.5 -9t-46 -28.5t-34.5 -49.5t-20 -71l-34 -244h-90zM387 796l-61 96l-87 -96h-91l132 144h106
l92 -144h-91z" />
    <glyph glyph-name="Hbar" unicode="&#x126;" horiz-adv-x="741" 
d="M190 708h96l-18 -126h367l18 126h96l-99 -708h-96l45 324h-367l-45 -324h-96zM612 414l12 90h-367l-12 -90h367z" />
    <glyph glyph-name="hbar" unicode="&#x127;" 
d="M174 756h90l-19 -134h168l-8 -62h-169l-22 -159h2q23 38 68 61.5t100 23.5q34 0 64 -10.5t50.5 -32.5t29.5 -56.5t2 -81.5l-42 -305h-90l39 280q4 33 -1.5 56.5t-18 38t-31.5 21t-40 6.5q-28 0 -53.5 -9t-46 -28.5t-34.5 -49.5t-20 -71l-34 -244h-90l78 560h-60l8 62h61z
" />
    <glyph glyph-name="Itilde" unicode="&#x128;" horiz-adv-x="278" 
d="M190 708h96l-99 -708h-96zM75 770q6 19 17 38t25.5 33.5t33 23.5t40.5 9q23 0 42 -7.5t39 -15.5q14 -6 24.5 -11.5t26.5 -5.5q20 0 34 13t22 31h48q-6 -19 -15.5 -37.5t-23 -33.5t-31 -24t-39.5 -9q-21 0 -40.5 6.5t-37.5 14.5q-14 6 -30 12.5t-33 6.5q-19 0 -32.5 -13.5
t-21.5 -30.5h-48z" />
    <glyph glyph-name="itilde" unicode="&#x129;" horiz-adv-x="240" 
d="M141 474h90l-66 -474h-90zM30 576q6 19 17 38t25.5 33.5t33 23.5t40.5 9q23 0 42 -7.5t39 -15.5q14 -6 24.5 -11.5t26.5 -5.5q20 0 34 13t22 31h48q-6 -19 -15.5 -37.5t-23 -33.5t-31 -24t-39.5 -9q-21 0 -40.5 6.5t-37.5 14.5q-14 6 -30 12.5t-33 6.5q-19 0 -32.5 -13.5
t-21.5 -30.5h-48z" />
    <glyph glyph-name="Imacron" unicode="&#x12a;" horiz-adv-x="278" 
d="M190 708h96l-99 -708h-96zM389 788h-288l9 66h288z" />
    <glyph glyph-name="imacron" unicode="&#x12b;" horiz-adv-x="240" 
d="M141 474h90l-66 -474h-90zM346 600h-288l9 66h288z" />
    <glyph glyph-name="Iogonek" unicode="&#x12e;" horiz-adv-x="278" 
d="M173 -186q-23 -18 -48 -26.5t-48 -8.5q-39 0 -65 21.5t-22 63.5q3 21 14.5 41.5t27.5 39t35 34.5q13 12 26 21h-2l99 708h96l-99 -708h-38q-9 -8 -19 -18q-15 -15 -28.5 -32t-24 -34.5t-12.5 -33.5q-2 -24 11.5 -33.5t31.5 -9.5q13 0 26 5.5t24 13.5z" />
    <glyph glyph-name="iogonek" unicode="&#x12f;" horiz-adv-x="240" 
d="M162 -186q-23 -18 -48 -26.5t-48 -8.5q-39 0 -65 21.5t-22 63.5q3 21 14.5 41.5t27.5 39t35 34.5q13 12 26 21h-7l66 474h90l-66 -474h-27q-9 -8 -19 -18q-15 -15 -28.5 -32t-24 -34.5t-12.5 -33.5q-2 -24 11.5 -33.5t31.5 -9.5q13 0 26 5.5t24 13.5zM144 644
q4 27 26 46.5t49 19.5t44 -19.5t13 -46.5t-26 -46.5t-49 -19.5t-44 19.5t-13 46.5z" />
    <glyph glyph-name="Idotaccent" unicode="&#x130;" horiz-adv-x="278" 
d="M190 708h96l-99 -708h-96zM246 778q-27 0 -42 18t-11 45q3 25 25 41t45 16t40 -16t14 -41q-4 -27 -24 -45t-47 -18z" />
    <glyph glyph-name="dotlessi" unicode="&#x131;" horiz-adv-x="240" 
d="M141 474h90l-66 -474h-90z" />
    <glyph glyph-name="IJ" unicode="&#x132;" horiz-adv-x="730" 
d="M190 708h96l-99 -708h-96zM659 708h96l-71 -506q-9 -67 -36.5 -109.5t-62.5 -67t-72 -34t-67 -9.5q-75 0 -121 38.5t-49 116.5l97 21q2 -40 24 -63t62 -23q36 0 59.5 14t38.5 36.5t23 51.5t12 59z" />
    <glyph glyph-name="ij" unicode="&#x133;" horiz-adv-x="477" 
d="M141 474h90l-66 -474h-90zM144 644q4 27 26 46.5t49 19.5t44 -19.5t13 -46.5t-26 -46.5t-49 -19.5t-44 19.5t-13 46.5zM468 474l-76 -542q-3 -18 -9.5 -47.5t-23.5 -57t-49 -47.5t-86 -20q-15 0 -29 2t-28 7l22 83q8 -3 17.5 -5.5t18.5 -2.5q36 0 53.5 23.5t24.5 68.5
l75 538h90zM381 644q4 27 26 46.5t49 19.5t44 -19.5t13 -46.5t-26 -46.5t-49 -19.5t-44 19.5t-13 46.5z" />
    <glyph glyph-name="Jcircumflex" unicode="&#x134;" horiz-adv-x="482" 
d="M411 708h96l-71 -506q-9 -67 -36.5 -109.5t-62.5 -67t-72 -34t-67 -9.5q-75 0 -121 38.5t-49 116.5l97 21q2 -40 24 -63t62 -23q36 0 59.5 14t38.5 36.5t23 51.5t12 59zM541 760l-61 96l-87 -96h-91l132 144h106l92 -144h-91z" />
    <glyph glyph-name="jcircumflex" unicode="&#x135;" horiz-adv-x="240" 
d="M231 474l-76 -542q-3 -18 -9.5 -47.5t-23.5 -57t-49 -47.5t-86 -20q-15 0 -29 2t-28 7l22 83q8 -3 17.5 -5.5t18.5 -2.5q36 0 53.5 23.5t24.5 68.5l75 538h90zM273 564l-61 96l-87 -96h-91l132 144h106l92 -144h-91z" />
    <glyph glyph-name="Kcommaaccent" unicode="&#x136;" horiz-adv-x="648" 
d="M190 708h96l-43 -306h8l356 306h134l-388 -327l312 -381h-140l-281 354h-8l-49 -354h-96zM263 -235h-77l104 190h93z" />
    <glyph glyph-name="kcommaaccent" unicode="&#x137;" horiz-adv-x="519" 
d="M174 756h90l-69 -488l233 205h125l-251 -215l204 -258h-128l-186 246l-34 -246h-90zM185 -235h-77l104 190h93z" />
    <glyph glyph-name="Lacute" unicode="&#x139;" horiz-adv-x="519" 
d="M190 708h96l-87 -618h325l-12 -90h-325h-96zM307 904h128l-169 -144h-83z" />
    <glyph glyph-name="lacute" unicode="&#x13a;" horiz-adv-x="240" 
d="M181 756h90l-106 -756h-90zM314 936h128l-169 -144h-83z" />
    <glyph glyph-name="Lcommaaccent" unicode="&#x13b;" horiz-adv-x="519" 
d="M190 708h96l-87 -618h325l-12 -90h-325h-96zM242 -235h-77l104 190h93z" />
    <glyph glyph-name="lcommaaccent" unicode="&#x13c;" horiz-adv-x="240" 
d="M181 756h90l-106 -756h-90zM38 -235h-77l104 190h93z" />
    <glyph glyph-name="Lcaron" unicode="&#x13d;" horiz-adv-x="519" 
d="M190 708h96l-87 -618h325l-12 -90h-325h-96zM391 518h-77l104 190h93z" />
    <glyph glyph-name="lcaron" unicode="&#x13e;" horiz-adv-x="240" 
d="M181 756h90l-106 -756h-90zM347 518h-77l104 190h93z" />
    <glyph glyph-name="Ldot" unicode="&#x13f;" horiz-adv-x="519" 
d="M190 708h96l-87 -618h325l-12 -90h-325h-96zM426 343q-27 0 -42 18t-11 45q3 25 25 41t45 16t40 -16t14 -41q-4 -27 -24 -45t-47 -18z" />
    <glyph glyph-name="ldot" unicode="&#x140;" horiz-adv-x="300" 
d="M181 756h90l-106 -756h-90zM319 347q-27 0 -42 18t-11 45q3 25 25 41t45 16t40 -16t14 -41q-4 -27 -24 -45t-47 -18z" />
    <glyph glyph-name="Lslash" unicode="&#x141;" horiz-adv-x="519" 
d="M120 209l-81 -63l13 89l80 62l58 411h96l-46 -328l242 188l-12 -89l-242 -187l-29 -202h325l-12 -90h-326h-95z" />
    <glyph glyph-name="lslash" unicode="&#x142;" horiz-adv-x="240" 
d="M116 298l-89 -78l13 90l89 78l52 368h90l-39 -278l89 77l-13 -90l-89 -77l-54 -388h-90z" />
    <glyph glyph-name="Nacute" unicode="&#x143;" horiz-adv-x="796" 
d="M190 708h94h32l308 -582h2l82 582h96l-99 -708h-98h-24l-313 582h-2l-81 -582h-96zM559 904h128l-169 -144h-83z" />
    <glyph glyph-name="nacute" unicode="&#x144;" 
d="M134 474h90l-10 -73h2q23 38 68 61.5t100 23.5q34 0 64 -10.5t50.5 -32.5t29.5 -56.5t2 -81.5l-42 -305h-90l39 280q4 33 -1.5 56.5t-18 38t-31.5 21t-40 6.5q-28 0 -53.5 -9t-46 -28.5t-34.5 -49.5t-20 -71l-34 -244h-90zM416 708h128l-169 -144h-83z" />
    <glyph glyph-name="Ncommaaccent" unicode="&#x145;" horiz-adv-x="796" 
d="M190 708h94h32l308 -582h2l82 582h96l-99 -708h-98h-24l-313 582h-2l-81 -582h-96zM322 -235h-77l104 190h93z" />
    <glyph glyph-name="ncommaaccent" unicode="&#x146;" 
d="M134 474h90l-10 -73h2q23 38 68 61.5t100 23.5q34 0 64 -10.5t50.5 -32.5t29.5 -56.5t2 -81.5l-42 -305h-90l39 280q4 33 -1.5 56.5t-18 38t-31.5 21t-40 6.5q-28 0 -53.5 -9t-46 -28.5t-34.5 -49.5t-20 -71l-34 -244h-90zM203 -235h-77l104 190h93z" />
    <glyph glyph-name="Ncaron" unicode="&#x147;" horiz-adv-x="796" 
d="M190 708h94h32l308 -582h2l82 582h96l-99 -708h-98h-24l-313 582h-2l-81 -582h-96zM345 904h87l65 -96l87 96h91l-132 -144h-106z" />
    <glyph glyph-name="ncaron" unicode="&#x148;" 
d="M134 474h90l-10 -73h2q23 38 68 61.5t100 23.5q34 0 64 -10.5t50.5 -32.5t29.5 -56.5t2 -81.5l-42 -305h-90l39 280q4 33 -1.5 56.5t-18 38t-31.5 21t-40 6.5q-28 0 -53.5 -9t-46 -28.5t-34.5 -49.5t-20 -71l-34 -244h-90zM204 708h87l65 -96l87 96h91l-132 -144h-106z
" />
    <glyph glyph-name="napostrophe" unicode="&#x149;" 
d="M134 474h90l-10 -73h2q23 38 68 61.5t100 23.5q34 0 64 -10.5t50.5 -32.5t29.5 -56.5t2 -81.5l-42 -305h-90l39 280q4 33 -1.5 56.5t-18 38t-31.5 21t-40 6.5q-28 0 -53.5 -9t-46 -28.5t-34.5 -49.5t-20 -71l-34 -244h-90zM128 518h-77l104 190h93z" />
    <glyph glyph-name="Omacron" unicode="&#x14c;" horiz-adv-x="832" 
d="M413 -18q-81 0 -144.5 28.5t-105.5 78.5t-60 118t-7 147t48 147t93 118t128 78.5t153 28.5t144.5 -28.5t105.5 -78.5t59.5 -118t6.5 -147t-47.5 -147t-92.5 -118t-128 -78.5t-153 -28.5zM426 72q61 0 113 22.5t92.5 60.5t66.5 89.5t34 109.5t-3.5 109.5t-41 89.5
t-75.5 60.5t-107 22.5t-113.5 -22.5t-92.5 -60.5t-66.5 -89.5t-34.5 -109.5t3.5 -109.5t41.5 -89.5t76 -60.5t107 -22.5zM666 788h-288l9 66h288z" />
    <glyph glyph-name="omacron" unicode="&#x14d;" horiz-adv-x="594" 
d="M174 237q-5 -36 1.5 -66.5t23.5 -52t44.5 -34t63.5 -12.5t66.5 12.5t53.5 34t38.5 52t20.5 66.5t-1.5 66.5t-24 52t-44.5 34t-63 12.5t-66.5 -12.5t-54 -34t-38.5 -52t-20 -66.5zM78 237q7 52 33 97t65 79t87.5 53.5t101.5 19.5t96 -19.5t72.5 -53.5t42.5 -79t6 -97
q-8 -52 -33.5 -97.5t-64.5 -79t-87.5 -53t-101.5 -19.5t-96.5 19.5t-72.5 53t-42.5 79t-5.5 97.5zM529 600h-288l9 66h288z" />
    <glyph glyph-name="Obreve" unicode="&#x14e;" horiz-adv-x="832" 
d="M413 -18q-81 0 -144.5 28.5t-105.5 78.5t-60 118t-7 147t48 147t93 118t128 78.5t153 28.5t144.5 -28.5t105.5 -78.5t59.5 -118t6.5 -147t-47.5 -147t-92.5 -118t-128 -78.5t-153 -28.5zM426 72q61 0 113 22.5t92.5 60.5t66.5 89.5t34 109.5t-3.5 109.5t-41 89.5
t-75.5 60.5t-107 22.5t-113.5 -22.5t-92.5 -60.5t-66.5 -89.5t-34.5 -109.5t3.5 -109.5t41.5 -89.5t76 -60.5t107 -22.5zM422 906q2 -38 29 -55t64 -17t69 17t44 55h53q-14 -69 -62 -103.5t-114 -34.5t-104.5 34.5t-33.5 103.5h55z" />
    <glyph glyph-name="obreve" unicode="&#x14f;" horiz-adv-x="594" 
d="M174 237q-5 -36 1.5 -66.5t23.5 -52t44.5 -34t63.5 -12.5t66.5 12.5t53.5 34t38.5 52t20.5 66.5t-1.5 66.5t-24 52t-44.5 34t-63 12.5t-66.5 -12.5t-54 -34t-38.5 -52t-20 -66.5zM78 237q7 52 33 97t65 79t87.5 53.5t101.5 19.5t96 -19.5t72.5 -53.5t42.5 -79t6 -97
q-8 -52 -33.5 -97.5t-64.5 -79t-87.5 -53t-101.5 -19.5t-96.5 19.5t-72.5 53t-42.5 79t-5.5 97.5zM281 702q2 -38 29 -55t64 -17t69 17t44 55h53q-14 -69 -62 -103.5t-114 -34.5t-104.5 34.5t-33.5 103.5h55z" />
    <glyph glyph-name="Ohungarumlaut" unicode="&#x150;" horiz-adv-x="832" 
d="M413 -18q-81 0 -144.5 28.5t-105.5 78.5t-60 118t-7 147t48 147t93 118t128 78.5t153 28.5t144.5 -28.5t105.5 -78.5t59.5 -118t6.5 -147t-47.5 -147t-92.5 -118t-128 -78.5t-153 -28.5zM426 72q61 0 113 22.5t92.5 60.5t66.5 89.5t34 109.5t-3.5 109.5t-41 89.5
t-75.5 60.5t-107 22.5t-113.5 -22.5t-92.5 -60.5t-66.5 -89.5t-34.5 -109.5t3.5 -109.5t41.5 -89.5t76 -60.5t107 -22.5zM518 904h127l-169 -144h-82zM687 904h127l-169 -144h-82z" />
    <glyph glyph-name="ohungarumlaut" unicode="&#x151;" horiz-adv-x="593" 
d="M174 237q-5 -36 1.5 -66.5t23.5 -52t44.5 -34t63.5 -12.5t66.5 12.5t53.5 34t38.5 52t20.5 66.5t-1.5 66.5t-24 52t-44.5 34t-63 12.5t-66.5 -12.5t-54 -34t-38.5 -52t-20 -66.5zM78 237q7 52 33 97t65 79t87.5 53.5t101.5 19.5t96 -19.5t72.5 -53.5t42.5 -79t6 -97
q-8 -52 -33.5 -97.5t-64.5 -79t-87.5 -53t-101.5 -19.5t-96.5 19.5t-72.5 53t-42.5 79t-5.5 97.5zM360 708h127l-169 -144h-82zM529 708h127l-169 -144h-82z" />
    <glyph glyph-name="OE" unicode="&#x152;" horiz-adv-x="981" 
d="M923 0h-307h-97h-52q-98 0 -170.5 26.5t-118.5 73.5t-64 112t-7 142q11 80 48.5 145.5t96.5 112t138.5 71.5t175.5 25h53h96h295l-13 -90h-294l-29 -211h276l-13 -90h-276l-32 -227h306zM607 618h-61q-74 0 -133 -21.5t-101.5 -57.5t-69 -84t-33.5 -101
q-8 -56 4.5 -104.5t45.5 -84t86 -55.5t127 -20h61z" />
    <glyph glyph-name="oe" unicode="&#x153;" horiz-adv-x="926" 
d="M880 86q-83 -98 -213 -98q-29 0 -56.5 5t-51.5 16.5t-42.5 29t-30.5 41.5q-11 -13 -27.5 -29t-41.5 -30t-59 -23.5t-80 -9.5q-57 0 -99.5 19t-68.5 52.5t-36 79t-2 98.5q7 54 31.5 99.5t61.5 78.5t85 52t103 19q122 0 179 -91q14 16 33 32t44 29t55.5 21.5t67.5 8.5
q51 0 89.5 -17.5t63 -49t34 -75t2.5 -96.5l-6 -44h-359q-4 -26 1 -51t19.5 -44.5t40 -31t63.5 -11.5q43 0 76 18.5t56 50.5zM829 276q3 25 -1.5 50t-18 44.5t-35.5 31.5t-54 12t-58.5 -13.5t-47 -33.5t-33 -44.5t-15.5 -46.5h263zM471 237q4 32 0 63t-19 55t-41 38.5
t-66 14.5q-38 0 -68.5 -13.5t-53 -36.5t-36.5 -54t-19 -67q-5 -35 0 -66t20 -54.5t40.5 -37t60.5 -13.5q46 0 78.5 14.5t54 38.5t33 55t16.5 63z" />
    <glyph glyph-name="Racute" unicode="&#x154;" horiz-adv-x="611" 
d="M190 708h92h157q68 0 109.5 -18.5t63 -47t26.5 -64t0 -68.5q-5 -34 -21 -65.5t-42.5 -57t-61 -43t-75.5 -21.5l156 -323h-120l-137 312h-107l-43 -312h-96zM242 396h126q28 0 56 4.5t51.5 16.5t39.5 34.5t21 58.5t-5 58.5t-29.5 34.5t-46.5 16.5t-55 4.5h-126zM461 904
h128l-169 -144h-83z" />
    <glyph glyph-name="racute" unicode="&#x155;" horiz-adv-x="370" 
d="M134 474h90l-10 -73h2q23 38 66 61.5t88 23.5q22 0 39 -6l-18 -97q-11 3 -21.5 5t-21.5 2q-66 0 -106 -37t-51 -115l-33 -238h-90zM296 708h128l-169 -144h-83z" />
    <glyph glyph-name="Rcommaaccent" unicode="&#x156;" horiz-adv-x="611" 
d="M190 708h92h157q68 0 109.5 -18.5t63 -47t26.5 -64t0 -68.5q-5 -34 -21 -65.5t-42.5 -57t-61 -43t-75.5 -21.5l156 -323h-120l-137 312h-107l-43 -312h-96zM242 396h126q28 0 56 4.5t51.5 16.5t39.5 34.5t21 58.5t-5 58.5t-29.5 34.5t-46.5 16.5t-55 4.5h-126zM251 -235
h-77l104 190h93z" />
    <glyph glyph-name="rcommaaccent" unicode="&#x157;" horiz-adv-x="370" 
d="M134 474h90l-10 -73h2q23 38 66 61.5t88 23.5q22 0 39 -6l-18 -97q-11 3 -21.5 5t-21.5 2q-66 0 -106 -37t-51 -115l-33 -238h-90zM48 -235h-77l104 190h93z" />
    <glyph glyph-name="Rcaron" unicode="&#x158;" horiz-adv-x="611" 
d="M190 708h92h157q68 0 109.5 -18.5t63 -47t26.5 -64t0 -68.5q-5 -34 -21 -65.5t-42.5 -57t-61 -43t-75.5 -21.5l156 -323h-120l-137 312h-107l-43 -312h-96zM242 396h126q28 0 56 4.5t51.5 16.5t39.5 34.5t21 58.5t-5 58.5t-29.5 34.5t-46.5 16.5t-55 4.5h-126zM248 904
h87l65 -96l87 96h91l-132 -144h-106z" />
    <glyph glyph-name="rcaron" unicode="&#x159;" horiz-adv-x="370" 
d="M134 474h90l-10 -73h2q23 38 66 61.5t88 23.5q22 0 39 -6l-18 -97q-11 3 -21.5 5t-21.5 2q-66 0 -106 -37t-51 -115l-33 -238h-90zM110 708h87l65 -96l87 96h91l-132 -144h-106z" />
    <glyph glyph-name="Sacute" unicode="&#x15a;" 
d="M132 148q20 -39 58.5 -57.5t81.5 -18.5q24 0 49.5 7.5t48 22.5t39 37t20.5 51q6 41 -17 62.5t-59.5 36t-80 28t-79 37.5t-55.5 64.5t-10 109.5q4 31 22.5 66t52 64t81.5 48.5t112 19.5q29 0 56.5 -3.5t52 -12.5t45.5 -25t38 -40l-88 -71q-14 28 -44.5 45t-72.5 17
q-40 0 -68 -10.5t-46 -27t-27.5 -35.5t-11.5 -35q-6 -45 16.5 -69t59 -39t80 -27t79.5 -33.5t56.5 -58t11.5 -100.5q-8 -51 -33 -92t-62 -69t-84 -43t-98 -15q-69 0 -126 23.5t-86 74.5zM449 904h128l-169 -144h-83z" />
    <glyph glyph-name="sacute" unicode="&#x15b;" horiz-adv-x="444" 
d="M369 355q-13 20 -34.5 33.5t-55.5 13.5q-32 0 -57.5 -13.5t-28.5 -39.5q-3 -21 8.5 -34t29 -21t37.5 -12l35 -7q28 -7 52 -17t40.5 -26t23.5 -39t3 -56q-6 -40 -26.5 -68.5t-50.5 -46.5t-65.5 -26t-70.5 -8q-59 0 -100.5 18t-70.5 66l75 56q19 -22 44 -39t64 -17
q35 0 67 14.5t37 45.5q3 20 -7.5 33t-27 20.5t-36 12t-33.5 7.5q-28 7 -53 16t-43 24t-26.5 38t-3.5 57q5 37 24.5 64.5t47.5 45.5t62 27t67 9q48 0 89.5 -18t61.5 -60zM336 708h128l-169 -144h-83z" />
    <glyph glyph-name="Scircumflex" unicode="&#x15c;" 
d="M132 148q20 -39 58.5 -57.5t81.5 -18.5q24 0 49.5 7.5t48 22.5t39 37t20.5 51q6 41 -17 62.5t-59.5 36t-80 28t-79 37.5t-55.5 64.5t-10 109.5q4 31 22.5 66t52 64t81.5 48.5t112 19.5q29 0 56.5 -3.5t52 -12.5t45.5 -25t38 -40l-88 -71q-14 28 -44.5 45t-72.5 17
q-40 0 -68 -10.5t-46 -27t-27.5 -35.5t-11.5 -35q-6 -45 16.5 -69t59 -39t80 -27t79.5 -33.5t56.5 -58t11.5 -100.5q-8 -51 -33 -92t-62 -69t-84 -43t-98 -15q-69 0 -126 23.5t-86 74.5zM462 760l-61 96l-87 -96h-91l132 144h106l92 -144h-91z" />
    <glyph glyph-name="scircumflex" unicode="&#x15d;" horiz-adv-x="444" 
d="M369 355q-13 20 -34.5 33.5t-55.5 13.5q-32 0 -57.5 -13.5t-28.5 -39.5q-3 -21 8.5 -34t29 -21t37.5 -12l35 -7q28 -7 52 -17t40.5 -26t23.5 -39t3 -56q-6 -40 -26.5 -68.5t-50.5 -46.5t-65.5 -26t-70.5 -8q-59 0 -100.5 18t-70.5 66l75 56q19 -22 44 -39t64 -17
q35 0 67 14.5t37 45.5q3 20 -7.5 33t-27 20.5t-36 12t-33.5 7.5q-28 7 -53 16t-43 24t-26.5 38t-3.5 57q5 37 24.5 64.5t47.5 45.5t62 27t67 9q48 0 89.5 -18t61.5 -60zM359 564l-61 96l-87 -96h-91l132 144h106l92 -144h-91z" />
    <glyph glyph-name="Scedilla" unicode="&#x15e;" 
d="M149 -165q36 -15 76 -15q9 0 20 2t20.5 6.5t17 12.5t9.5 21q3 19 -5.5 28t-22 11.5t-30.5 0t-31 -6.5l-19 18l58 69q-61 3 -112 23q-57 24 -86 75l88 68q20 -39 58.5 -57.5t81.5 -18.5q24 0 49.5 7.5t48 22.5t39 37t20.5 51q6 41 -17 62.5t-59.5 36t-80 28t-79 37.5
t-55.5 64.5t-10 109.5q4 31 22.5 66t52 64t81.5 48.5t112 19.5q29 0 56.5 -3.5t52 -12.5t45.5 -25t38 -40l-88 -71q-14 28 -44.5 45t-72.5 17q-40 0 -68 -10.5t-46 -27t-27.5 -35.5t-11.5 -35q-6 -45 16.5 -69t59 -39t80 -27t79.5 -33.5t56.5 -58t11.5 -100.5
q-8 -51 -33 -92t-62 -69t-84 -43q-30 -9 -61 -13l-39 -45h29q17 0 33 -4t27.5 -13t18 -22.5t3.5 -32.5q-4 -27 -18 -45t-34 -29t-43 -16t-44 -5q-27 0 -52.5 5.5t-47.5 17.5z" />
    <glyph glyph-name="scedilla" unicode="&#x15f;" horiz-adv-x="444" 
d="M107 -165q36 -15 76 -15q9 0 20 2t20.5 6.5t17 12.5t9.5 21q3 19 -5.5 28t-22 11.5t-30.5 0t-31 -6.5l-19 18l64 75q-57 1 -98 18q-41 18 -70 66l75 56q19 -22 44 -39t64 -17q35 0 67 14.5t37 45.5q3 20 -7.5 33t-27 20.5t-36 12t-33.5 7.5q-28 7 -53 16t-43 24t-26.5 38
t-3.5 57q5 37 24.5 64.5t47.5 45.5t62 27t67 9q48 0 89.5 -18t61.5 -60l-78 -53q-13 20 -34.5 33.5t-55.5 13.5q-32 0 -57.5 -13.5t-28.5 -39.5q-3 -21 8.5 -34t29 -21t37.5 -12l35 -7q28 -7 52 -17t40.5 -26t23.5 -39t3 -56q-6 -40 -26.5 -68.5t-50.5 -46.5t-66 -26
q-10 -2 -21 -4l-46 -53h29q17 0 33 -4t27.5 -13t18 -22.5t3.5 -32.5q-4 -27 -18 -45t-34 -29t-43 -16t-44 -5q-27 0 -52.5 5.5t-47.5 17.5z" />
    <glyph glyph-name="Scaron" unicode="&#x160;" 
d="M132 148q20 -39 58.5 -57.5t81.5 -18.5q24 0 49.5 7.5t48 22.5t39 37t20.5 51q6 41 -17 62.5t-59.5 36t-80 28t-79 37.5t-55.5 64.5t-10 109.5q4 31 22.5 66t52 64t81.5 48.5t112 19.5q29 0 56.5 -3.5t52 -12.5t45.5 -25t38 -40l-88 -71q-14 28 -44.5 45t-72.5 17
q-40 0 -68 -10.5t-46 -27t-27.5 -35.5t-11.5 -35q-6 -45 16.5 -69t59 -39t80 -27t79.5 -33.5t56.5 -58t11.5 -100.5q-8 -51 -33 -92t-62 -69t-84 -43t-98 -15q-69 0 -126 23.5t-86 74.5zM237 892h87l65 -96l87 96h91l-132 -144h-106z" />
    <glyph glyph-name="scaron" unicode="&#x161;" horiz-adv-x="444" 
d="M369 355q-13 20 -34.5 33.5t-55.5 13.5q-32 0 -57.5 -13.5t-28.5 -39.5q-3 -21 8.5 -34t29 -21t37.5 -12l35 -7q28 -7 52 -17t40.5 -26t23.5 -39t3 -56q-6 -40 -26.5 -68.5t-50.5 -46.5t-65.5 -26t-70.5 -8q-59 0 -100.5 18t-70.5 66l75 56q19 -22 44 -39t64 -17
q35 0 67 14.5t37 45.5q3 20 -7.5 33t-27 20.5t-36 12t-33.5 7.5q-28 7 -53 16t-43 24t-26.5 38t-3.5 57q5 37 24.5 64.5t47.5 45.5t62 27t67 9q48 0 89.5 -18t61.5 -60zM136 708h87l65 -96l87 96h91l-132 -144h-106z" />
    <glyph glyph-name="Tcommaaccent" unicode="&#x162;" horiz-adv-x="574" 
d="M325 618h-228l13 90h229h96h227l-13 -90h-228l-86 -618h-96zM211 -235h-77l104 190h93z" />
    <glyph glyph-name="tcommaaccent" unicode="&#x163;" horiz-adv-x="370" 
d="M377 396h-129l-30 -215q-3 -20 -4.5 -39.5t2.5 -35t16.5 -25t38.5 -9.5q16 0 33.5 3t32.5 11l-12 -82q-9 -5 -20.5 -8t-23 -4.5t-22 -2.5t-17.5 -1q-52 0 -78.5 14.5t-37 37.5t-9 51.5t5.5 57.5l35 247h-104l11 78h104l19 133h90l-19 -133h129zM166 -235h-77l104 190h93z
" />
    <glyph glyph-name="Tcaron" unicode="&#x164;" horiz-adv-x="574" 
d="M325 618h-228l13 90h229h96h227l-13 -90h-228l-86 -618h-96zM239 904h87l65 -96l87 96h91l-132 -144h-106z" />
    <glyph glyph-name="tcaron" unicode="&#x165;" horiz-adv-x="370" 
d="M377 396h-129l-30 -215q-3 -20 -4.5 -39.5t2.5 -35t16.5 -25t38.5 -9.5q16 0 33.5 3t32.5 11l-12 -82q-9 -5 -20.5 -8t-23 -4.5t-22 -2.5t-17.5 -1q-52 0 -78.5 14.5t-37 37.5t-9 51.5t5.5 57.5l35 247h-104l11 78h104l19 133h90l-19 -133h129zM397 518h-77l104 190h93z
" />
    <glyph glyph-name="Tbar" unicode="&#x166;" horiz-adv-x="574" 
d="M593 482l-11 -68h-190l-57 -414h-96l57 414h-178l11 68h177l19 136h-228l13 90h552l-13 -90h-228l-19 -136h191z" />
    <glyph glyph-name="tbar" unicode="&#x167;" horiz-adv-x="370" 
d="M377 396h-129l-12 -85h112l-8 -63h-113l-9 -67q-3 -20 -4.5 -39.5t2.5 -35t16.5 -25t38.5 -9.5q16 0 33.5 3t32.5 11l-12 -82q-9 -5 -20.5 -8t-23 -4.5t-22 -2.5t-17.5 -1q-52 0 -78.5 14.5t-37 37.5t-9 51.5t5.5 57.5l14 99h-76l8 63h77l12 85h-104l11 78h104l19 133h90
l-19 -133h129z" />
    <glyph glyph-name="Utilde" unicode="&#x168;" horiz-adv-x="704" 
d="M273 708l-61 -434q-5 -33 -0.5 -68.5t21 -65.5t48 -49t81.5 -19t87 19t62 49t38.5 65.5t18.5 68.5l61 434h96l-63 -449q-9 -62 -37 -112.5t-70 -87.5t-95 -57t-111 -20t-105.5 20t-79 57t-45.5 87.5t-5 112.5l63 449h96zM284 770q6 19 17 38t25.5 33.5t33 23.5t40.5 9
q23 0 42 -7.5t39 -15.5q14 -6 24.5 -11.5t26.5 -5.5q20 0 34 13t22 31h48q-6 -19 -15.5 -37.5t-23 -33.5t-31 -24t-39.5 -9q-21 0 -40.5 6.5t-37.5 14.5q-14 6 -30 12.5t-33 6.5q-19 0 -32.5 -13.5t-21.5 -30.5h-48z" />
    <glyph glyph-name="utilde" unicode="&#x169;" 
d="M488 0h-90l10 73h-2q-23 -38 -68 -61.5t-100 -23.5q-35 0 -64.5 10.5t-50 32.5t-29.5 56.5t-3 81.5l43 305h90l-39 -280q-5 -33 0.5 -56.5t18.5 -38t32 -21t40 -6.5q56 0 99 37.5t55 120.5l34 244h90zM177 576q6 19 17 38t25.5 33.5t33 23.5t40.5 9q23 0 42 -7.5
t39 -15.5q14 -6 24.5 -11.5t26.5 -5.5q20 0 34 13t22 31h48q-6 -19 -15.5 -37.5t-23 -33.5t-31 -24t-39.5 -9q-21 0 -40.5 6.5t-37.5 14.5q-14 6 -30 12.5t-33 6.5q-19 0 -32.5 -13.5t-21.5 -30.5h-48z" />
    <glyph glyph-name="Umacron" unicode="&#x16a;" horiz-adv-x="704" 
d="M273 708l-61 -434q-5 -33 -0.5 -68.5t21 -65.5t48 -49t81.5 -19t87 19t62 49t38.5 65.5t18.5 68.5l61 434h96l-63 -449q-9 -62 -37 -112.5t-70 -87.5t-95 -57t-111 -20t-105.5 20t-79 57t-45.5 87.5t-5 112.5l63 449h96zM593 788h-288l9 66h288z" />
    <glyph glyph-name="umacron" unicode="&#x16b;" 
d="M488 0h-90l10 73h-2q-23 -38 -68 -61.5t-100 -23.5q-35 0 -64.5 10.5t-50 32.5t-29.5 56.5t-3 81.5l43 305h90l-39 -280q-5 -33 0.5 -56.5t18.5 -38t32 -21t40 -6.5q56 0 99 37.5t55 120.5l34 244h90zM488 600h-288l9 66h288z" />
    <glyph glyph-name="Ubreve" unicode="&#x16c;" horiz-adv-x="704" 
d="M273 708l-61 -434q-5 -33 -0.5 -68.5t21 -65.5t48 -49t81.5 -19t87 19t62 49t38.5 65.5t18.5 68.5l61 434h96l-63 -449q-9 -62 -37 -112.5t-70 -87.5t-95 -57t-111 -20t-105.5 20t-79 57t-45.5 87.5t-5 112.5l63 449h96zM361 906q2 -38 29 -55t64 -17t69 17t44 55h53
q-14 -69 -62 -103.5t-114 -34.5t-104.5 34.5t-33.5 103.5h55z" />
    <glyph glyph-name="ubreve" unicode="&#x16d;" 
d="M488 0h-90l10 73h-2q-23 -38 -68 -61.5t-100 -23.5q-35 0 -64.5 10.5t-50 32.5t-29.5 56.5t-3 81.5l43 305h90l-39 -280q-5 -33 0.5 -56.5t18.5 -38t32 -21t40 -6.5q56 0 99 37.5t55 120.5l34 244h90zM252 702q2 -38 29 -55t64 -17t69 17t44 55h53q-14 -69 -62 -103.5
t-114 -34.5t-104.5 34.5t-33.5 103.5h55z" />
    <glyph glyph-name="Uring" unicode="&#x16e;" horiz-adv-x="704" 
d="M273 708l-61 -434q-5 -33 -0.5 -68.5t21 -65.5t48 -49t81.5 -19t87 19t62 49t38.5 65.5t18.5 68.5l61 434h96l-63 -449q-9 -62 -37 -112.5t-70 -87.5t-95 -57t-111 -20t-105.5 20t-79 57t-45.5 87.5t-5 112.5l63 449h96zM353 845q3 21 14 39t27 31.5t35.5 21t39.5 7.5
q21 0 38.5 -7.5t29.5 -21t17.5 -31t2.5 -38.5t-13.5 -39t-26 -31.5t-35.5 -21t-41 -7.5q-41 0 -67.5 28t-20.5 70zM515 845q4 25 -12 41t-40 16t-44 -16t-24 -41q-4 -24 12.5 -40t39.5 -16t43.5 16t24.5 40z" />
    <glyph glyph-name="uring" unicode="&#x16f;" 
d="M488 0h-90l10 73h-2q-23 -38 -68 -61.5t-100 -23.5q-35 0 -64.5 10.5t-50 32.5t-29.5 56.5t-3 81.5l43 305h90l-39 -280q-5 -33 0.5 -56.5t18.5 -38t32 -21t40 -6.5q56 0 99 37.5t55 120.5l34 244h90zM256 651q3 21 14 39t27 31.5t35.5 21t39.5 7.5q21 0 38.5 -7.5
t29.5 -21t17.5 -31t2.5 -38.5t-13.5 -39t-26 -31.5t-35.5 -21t-41 -7.5q-41 0 -67.5 28t-20.5 70zM418 651q4 25 -12 41t-40 16t-44 -16t-24 -41q-4 -24 12.5 -40t39.5 -16t43.5 16t24.5 40z" />
    <glyph glyph-name="Uhungarumlaut" unicode="&#x170;" horiz-adv-x="704" 
d="M273 708l-61 -434q-5 -33 -0.5 -68.5t21 -65.5t48 -49t81.5 -19t87 19t62 49t38.5 65.5t18.5 68.5l61 434h96l-63 -449q-9 -62 -37 -112.5t-70 -87.5t-95 -57t-111 -20t-105.5 20t-79 57t-45.5 87.5t-5 112.5l63 449h96zM432 904h127l-169 -144h-82zM601 904h127
l-169 -144h-82z" />
    <glyph glyph-name="uhungarumlaut" unicode="&#x171;" 
d="M488 0h-90l10 73h-2q-23 -38 -68 -61.5t-100 -23.5q-35 0 -64.5 10.5t-50 32.5t-29.5 56.5t-3 81.5l43 305h90l-39 -280q-5 -33 0.5 -56.5t18.5 -38t32 -21t40 -6.5q56 0 99 37.5t55 120.5l34 244h90zM337 708h127l-169 -144h-82zM506 708h127l-169 -144h-82z" />
    <glyph glyph-name="Uogonek" unicode="&#x172;" horiz-adv-x="704" 
d="M440 -186q-23 -18 -48 -26.5t-48 -8.5q-39 0 -65 21.5t-22 63.5q3 21 14.5 41.5t27.5 39t35 34.5q1 2 3 3q-51 2 -94 20q-47 20 -78.5 57t-45.5 87.5t-5 112.5l63 449h96l-61 -434q-5 -33 -0.5 -68.5t21 -65.5t48 -49t81.5 -19t87 19t62 49t38.5 65.5t18.5 68.5l61 434
h96l-63 -449q-9 -62 -37 -112.5t-70 -87.5t-95 -57q-29 -10 -58 -15l-5 -5q-15 -15 -28.5 -32t-24 -34.5t-12.5 -33.5q-2 -24 11.5 -33.5t31.5 -9.5q13 0 26 5.5t24 13.5z" />
    <glyph glyph-name="uogonek" unicode="&#x173;" 
d="M485 -186q-23 -18 -48 -26.5t-48 -8.5q-39 0 -65 21.5t-22 63.5q3 21 14.5 41.5t27.5 39t35 34.5q13 12 26 21h-7l10 73h-2q-23 -38 -68 -61.5t-100 -23.5q-35 0 -64.5 10.5t-50 32.5t-29.5 56.5t-3 81.5l43 305h90l-39 -280q-5 -33 0.5 -56.5t18.5 -38t32 -21t40 -6.5
q56 0 99 37.5t55 120.5l34 244h90l-66 -474h-27q-9 -8 -19 -18q-15 -15 -28.5 -32t-24 -34.5t-12.5 -33.5q-2 -24 11.5 -33.5t31.5 -9.5q13 0 26 5.5t24 13.5z" />
    <glyph glyph-name="Wcircumflex" unicode="&#x174;" horiz-adv-x="962" 
d="M100 708h100l76 -566h2l247 566h110l87 -566h2l236 566h100l-305 -708h-101l-91 578h-2l-252 -578h-101zM656 760l-61 96l-87 -96h-91l132 144h106l92 -144h-91z" />
    <glyph glyph-name="wcircumflex" unicode="&#x175;" horiz-adv-x="759" 
d="M77 474h101l57 -354h2l163 354h95l70 -354h2l152 354h95l-219 -474h-91l-76 354h-2l-162 -354h-97zM532 564l-61 96l-87 -96h-91l132 144h106l92 -144h-91z" />
    <glyph glyph-name="Ycircumflex" unicode="&#x176;" horiz-adv-x="612" 
d="M300 302l-211 406h123l149 -311l243 311h117l-325 -406l-42 -302h-96zM470 760l-61 96l-87 -96h-91l132 144h106l92 -144h-91z" />
    <glyph glyph-name="ycircumflex" unicode="&#x177;" horiz-adv-x="500" 
d="M77 474h104l89 -370h2l186 370h97l-306 -576q-16 -31 -32.5 -56.5t-37 -43.5t-47.5 -28t-64 -10q-20 0 -40 2.5t-37 10.5l21 82q25 -11 53 -11q21 0 36.5 5.5t27 16t21 24.5t18.5 32l39 75zM405 564l-61 96l-87 -96h-91l132 144h106l92 -144h-91z" />
    <glyph glyph-name="Ydieresis" unicode="&#x178;" horiz-adv-x="612" 
d="M300 302l-211 406h123l149 -311l243 311h117l-325 -406l-42 -302h-96zM329 898q23 0 40 -16t14 -41q-4 -27 -24 -45t-47 -18t-42 18t-11 45q3 25 25 41t45 16zM533 898q23 0 40 -16t14 -41q-4 -27 -24 -45t-47 -18t-42 18t-11 45q3 25 25 41t45 16z" />
    <glyph glyph-name="Zacute" unicode="&#x179;" horiz-adv-x="593" 
d="M44 90l477 528h-391l13 90h511l-13 -90l-475 -528h407l-12 -90h-529zM443 904h128l-169 -144h-83z" />
    <glyph glyph-name="zacute" unicode="&#x17a;" horiz-adv-x="463" 
d="M46 81l313 315h-260l11 78h370l-11 -80l-316 -316h285l-10 -78h-393zM357 708h128l-169 -144h-83z" />
    <glyph glyph-name="Zdotaccent" unicode="&#x17b;" horiz-adv-x="593" 
d="M44 90l477 528h-391l13 90h511l-13 -90l-475 -528h407l-12 -90h-529zM381 778q-27 0 -42 18t-11 45q3 25 25 41t45 16t40 -16t14 -41q-4 -27 -24 -45t-47 -18z" />
    <glyph glyph-name="zdotaccent" unicode="&#x17c;" horiz-adv-x="463" 
d="M46 81l313 315h-260l11 78h370l-11 -80l-316 -316h285l-10 -78h-393zM308 594q-27 0 -42 18t-11 45q3 25 25 41t45 16t40 -16t14 -41q-4 -27 -24 -45t-47 -18z" />
    <glyph glyph-name="Zcaron" unicode="&#x17d;" horiz-adv-x="593" 
d="M44 90l477 528h-391l13 90h511l-13 -90l-475 -528h407l-12 -90h-529zM256 892h87l65 -96l87 96h91l-132 -144h-106z" />
    <glyph glyph-name="zcaron" unicode="&#x17e;" horiz-adv-x="463" 
d="M46 81l313 315h-260l11 78h370l-11 -80l-316 -316h285l-10 -78h-393zM166 708h87l65 -96l87 96h91l-132 -144h-106z" />
    <glyph glyph-name="florin" unicode="&#x192;" 
d="M498 353h-134l-125 -368q-20 -59 -67 -94t-108 -35q-29 0 -50.5 7t-41.5 18l47 71q30 -12 52 -12t37 8.5t25 21.5t16.5 29t11.5 30l108 324h-108l10 72h122l47 141q12 34 30 62.5t41 49t49.5 31.5t54.5 11q32 0 62 -5.5t51 -18.5l-50 -75q-11 8 -22.5 11.5t-33.5 3.5
q-26 0 -54 -22t-45 -78l-35 -111h120z" />
    <glyph glyph-name="Scommaaccent" unicode="&#x218;" 
d="M132 148q20 -39 58.5 -57.5t81.5 -18.5q24 0 49.5 7.5t48 22.5t39 37t20.5 51q6 41 -17 62.5t-59.5 36t-80 28t-79 37.5t-55.5 64.5t-10 109.5q4 31 22.5 66t52 64t81.5 48.5t112 19.5q29 0 56.5 -3.5t52 -12.5t45.5 -25t38 -40l-88 -71q-14 28 -44.5 45t-72.5 17
q-40 0 -68 -10.5t-46 -27t-27.5 -35.5t-11.5 -35q-6 -45 16.5 -69t59 -39t80 -27t79.5 -33.5t56.5 -58t11.5 -100.5q-8 -51 -33 -92t-62 -69t-84 -43t-98 -15q-69 0 -126 23.5t-86 74.5zM210 -235h-77l104 190h93z" />
    <glyph glyph-name="scommaaccent" unicode="&#x219;" horiz-adv-x="444" 
d="M369 355q-13 20 -34.5 33.5t-55.5 13.5q-32 0 -57.5 -13.5t-28.5 -39.5q-3 -21 8.5 -34t29 -21t37.5 -12l35 -7q28 -7 52 -17t40.5 -26t23.5 -39t3 -56q-6 -40 -26.5 -68.5t-50.5 -46.5t-65.5 -26t-70.5 -8q-59 0 -100.5 18t-70.5 66l75 56q19 -22 44 -39t64 -17
q35 0 67 14.5t37 45.5q3 20 -7.5 33t-27 20.5t-36 12t-33.5 7.5q-28 7 -53 16t-43 24t-26.5 38t-3.5 57q5 37 24.5 64.5t47.5 45.5t62 27t67 9q48 0 89.5 -18t61.5 -60zM167 -235h-77l104 190h93z" />
    <glyph glyph-name="uni021A" unicode="&#x21a;" horiz-adv-x="574" 
d="M325 618h-228l13 90h229h96h227l-13 -90h-228l-86 -618h-96zM211 -235h-77l104 190h93z" />
    <glyph glyph-name="uni021B" unicode="&#x21b;" horiz-adv-x="370" 
d="M377 396h-129l-30 -215q-3 -20 -4.5 -39.5t2.5 -35t16.5 -25t38.5 -9.5q16 0 33.5 3t32.5 11l-12 -82q-9 -5 -20.5 -8t-23 -4.5t-22 -2.5t-17.5 -1q-52 0 -78.5 14.5t-37 37.5t-9 51.5t5.5 57.5l35 247h-104l11 78h104l19 133h90l-19 -133h129zM166 -235h-77l104 190h93z
" />
    <glyph glyph-name="circumflex" unicode="&#x2c6;" horiz-adv-x="240" 
d="M273 564l-61 96l-87 -96h-91l132 144h106l92 -144h-91z" />
    <glyph glyph-name="caron" unicode="&#x2c7;" horiz-adv-x="240" 
d="M54 708h87l65 -96l87 96h91l-132 -144h-106z" />
    <glyph glyph-name="uni02C9" unicode="&#x2c9;" horiz-adv-x="240" 
d="M348 600h-288l9 66h288z" />
    <glyph glyph-name="breve" unicode="&#x2d8;" horiz-adv-x="240" 
d="M116 702q2 -38 29 -55t64 -17t69 17t44 55h53q-14 -69 -62 -103.5t-114 -34.5t-104.5 34.5t-33.5 103.5h55z" />
    <glyph glyph-name="dotaccent" unicode="&#x2d9;" horiz-adv-x="240" 
d="M203 594q-27 0 -42 18t-11 45q3 25 25 41t45 16t40 -16t14 -41q-4 -27 -24 -45t-47 -18z" />
    <glyph glyph-name="ring" unicode="&#x2da;" horiz-adv-x="240" 
d="M109 651q3 21 14 39t27 31.5t35.5 21t39.5 7.5q21 0 38.5 -7.5t29.5 -21t17.5 -31t2.5 -38.5t-13.5 -39t-26 -31.5t-35.5 -21t-41 -7.5q-41 0 -67.5 28t-20.5 70zM271 651q4 25 -12 41t-40 16t-44 -16t-24 -41q-4 -24 12.5 -40t39.5 -16t43.5 16t24.5 40z" />
    <glyph glyph-name="ogonek" unicode="&#x2db;" horiz-adv-x="240" 
d="M188 -186q-23 -18 -48 -26.5t-48 -8.5q-39 0 -65 21.5t-22 63.5q3 21 14.5 41.5t27.5 39t35 34.5t36 28h54q-12 -11 -27 -25.5t-28.5 -31.5t-24 -34.5t-12.5 -33.5q-2 -24 11.5 -33.5t31.5 -9.5q13 0 26 5.5t24 13.5z" />
    <glyph glyph-name="tilde" unicode="&#x2dc;" horiz-adv-x="240" 
d="M32 576q6 19 17 38t25.5 33.5t33 23.5t40.5 9q23 0 42 -7.5t39 -15.5q14 -6 24.5 -11.5t26.5 -5.5q20 0 34 13t22 31h48q-6 -19 -15.5 -37.5t-23 -33.5t-31 -24t-39.5 -9q-21 0 -40.5 6.5t-37.5 14.5q-14 6 -30 12.5t-33 6.5q-19 0 -32.5 -13.5t-21.5 -30.5h-48z" />
    <glyph glyph-name="hungarumlaut" unicode="&#x2dd;" horiz-adv-x="240" 
d="M153 708h127l-169 -144h-82zM322 708h127l-169 -144h-82z" />
    <glyph glyph-name="uni0394" unicode="&#x394;" horiz-adv-x="678" 
d="M11 0l276 712h95l285 -712h-656zM333 613l-199 -530h406z" />
    <glyph glyph-name="uni03A9" unicode="&#x3a9;" horiz-adv-x="752" 
d="M429 0v185q42 8 74 28t53.5 49.5t32.5 66t11 77.5q0 49 -17 91.5t-48 73.5t-73 49t-91 18q-50 0 -92.5 -18t-73 -49t-48 -74t-17.5 -92q0 -83 43 -143t126 -77v-185h-263v77h190v62q-46 13 -81.5 39.5t-59.5 62.5t-36.5 79t-12.5 90q0 68 25.5 125t70 98.5t103.5 64.5
t125 23q67 0 125.5 -22.5t102.5 -63.5t69.5 -98t25.5 -125q0 -48 -12 -91.5t-36 -79.5t-59.5 -62.5t-82.5 -39.5v-62h190v-77h-264z" />
    <glyph glyph-name="uni03BC" unicode="&#x3bc;" 
d="M134 474h90l-39 -280q-5 -33 0.5 -56.5t18.5 -38t32 -21t40 -6.5q56 0 99 37.5t55 120.5l34 244h90l-66 -474h-90l10 73h-2q-23 -38 -68 -61.5t-100 -23.5q-46 0 -80 18l-33 -234h-90z" />
    <glyph glyph-name="pi" unicode="&#x3c0;" horiz-adv-x="578" 
d="M545 12q-19 -9 -36.5 -14t-37.5 -5q-32 0 -50 10t-28 27t-12.5 39.5t-2.5 48.5v275h-191v-393h-86v393h-70v81h511v-81h-78v-270q0 -22 5.5 -39t32.5 -17q21 0 43 10v-65v0z" />
    <glyph glyph-name="endash" unicode="&#x2013;" horiz-adv-x="500" 
d="M528 204h-500l11 78h500z" />
    <glyph glyph-name="emdash" unicode="&#x2014;" horiz-adv-x="1000" 
d="M1028 204h-1000l11 78h1000z" />
    <glyph glyph-name="quoteleft" unicode="&#x2018;" horiz-adv-x="278" 
d="M239 708h82l-104 -246h-97z" />
    <glyph glyph-name="quoteright" unicode="&#x2019;" horiz-adv-x="278" 
d="M202 462h-82l104 246h97z" />
    <glyph glyph-name="quotesinglbase" unicode="&#x201a;" horiz-adv-x="278" 
d="M119 -132h-82l104 246h97z" />
    <glyph glyph-name="quotedblleft" unicode="&#x201c;" horiz-adv-x="519" 
d="M249 462h-97l119 246h82zM426 462h-97l119 246h82z" />
    <glyph glyph-name="quotedblright" unicode="&#x201d;" horiz-adv-x="519" 
d="M234 462h-82l104 246h97zM411 462h-82l104 246h97z" />
    <glyph glyph-name="quotedblbase" unicode="&#x201e;" horiz-adv-x="519" 
d="M151 -132h-82l104 246h97zM328 -132h-82l104 246h97z" />
    <glyph glyph-name="dagger" unicode="&#x2020;" 
d="M293 427h-198l10 78h198l29 203h90l-29 -203h198l-10 -78h-198l-78 -553h-90z" />
    <glyph glyph-name="daggerdbl" unicode="&#x2021;" 
d="M242 66h-192l11 78h192l43 306h-192l11 78h192l25 180h90l-25 -180h192l-11 -78h-192l-43 -306h192l-11 -78h-192l-27 -192h-90z" />
    <glyph glyph-name="bullet" unicode="&#x2022;" horiz-adv-x="500" 
d="M122 354q5 37 23.5 69t46 56t61.5 38t71 14t67 -14t51 -38t30 -56t4 -69t-23.5 -69t-46 -56t-61.5 -38t-71 -14t-67 14t-51 38t-30 56t-4 69z" />
    <glyph glyph-name="ellipsis" unicode="&#x2026;" horiz-adv-x="1000" 
d="M166 -6q-27 0 -44 19.5t-13 46.5t26 46.5t49 19.5t44 -19.5t13 -46.5t-26 -46.5t-49 -19.5zM499 -6q-27 0 -44 19.5t-13 46.5t26 46.5t49 19.5t44 -19.5t13 -46.5t-26 -46.5t-49 -19.5zM832 -6q-27 0 -44 19.5t-13 46.5t26 46.5t49 19.5t44 -19.5t13 -46.5t-26 -46.5
t-49 -19.5z" />
    <glyph glyph-name="perthousand" unicode="&#x2030;" horiz-adv-x="1056" 
d="M504 -18q-34 0 -61.5 13t-46.5 35t-27.5 51.5t-3.5 63.5t22 63.5t42 51.5t56 34.5t65 12.5t62 -12.5t47 -34.5t27.5 -51.5t3.5 -63.5t-22 -63.5t-42 -51.5t-56.5 -35t-65.5 -13zM514 54q19 0 36.5 7t31.5 19.5t23.5 29t12.5 35.5q5 38 -17.5 64t-60.5 26q-19 0 -36.5 -7
t-31.5 -19t-23 -28.5t-12 -35.5q-5 -38 17 -64.5t60 -26.5zM731 145q5 34 22 63.5t42 51.5t56 34.5t65 12.5t62 -12.5t47 -34.5t27.5 -51.5t3.5 -63.5t-22 -63.5t-42 -51.5t-56.5 -35t-65.5 -13t-61.5 13t-46.5 35t-27.5 51.5t-3.5 63.5zM880 54q19 0 36.5 7t31.5 19.5
t23.5 29t12.5 35.5q5 38 -17.5 64t-60.5 26q-19 0 -36.5 -7t-31.5 -19t-23 -28.5t-12 -35.5q-5 -38 17 -64.5t60 -26.5zM150 -31l-57 31l549 740l55 -30zM98 558q5 34 22 63.5t42 51.5t56 34.5t65 12.5t62 -12.5t47 -34.5t27.5 -51.5t3.5 -63.5t-22 -63.5t-42 -51.5
t-56.5 -35t-65.5 -13t-61.5 13t-46.5 35t-27.5 51.5t-3.5 63.5zM170 558q-5 -38 17 -64.5t60 -26.5q19 0 36.5 7t31.5 19.5t23.5 29t12.5 35.5q5 38 -17.5 64t-60.5 26q-19 0 -36.5 -7t-31.5 -19t-23 -28.5t-12 -35.5z" />
    <glyph glyph-name="guilsinglleft" unicode="&#x2039;" horiz-adv-x="315" 
d="M88 243l175 216l56 -41l-141 -175l93 -175l-68 -41z" />
    <glyph glyph-name="guilsinglright" unicode="&#x203a;" horiz-adv-x="315" 
d="M63 68l142 175l-94 175l68 41l116 -216l-176 -216z" />
    <glyph glyph-name="fraction" unicode="&#x2044;" horiz-adv-x="167" 
d="M-110 -32l-56 32l543 740l55 -32z" />
    <glyph glyph-name="Euro" unicode="&#x20ac;" 
d="M589 609q-21 17 -53 25.5t-73 8.5q-65 0 -118 -39.5t-87 -120.5h276l-26 -67h-271q-4 -17 -7.5 -35t-6.5 -38q-2 -13 -4 -25q-1 -12 -2 -23h242l-26 -65h-219q1 -84 34.5 -126t108.5 -42q42 0 75 16.5t59 42.5l42 -49q-31 -35 -81.5 -59.5t-108.5 -24.5
q-107 0 -160.5 61.5t-55.5 180.5h-72l28 65h46l2 24q2 13 4 27q5 37 13 70h-66l30 67h57q23 60 55 104.5t72.5 74t86 44t95.5 14.5q42 0 80.5 -10t62.5 -26z" />
    <glyph glyph-name="afii61289" unicode="&#x2113;" horiz-adv-x="500" 
d="M473 612q0 -44 -19 -88t-52 -86.5t-78.5 -84.5t-98.5 -81q-12 -50 -18.5 -80t-9.5 -47.5t-4 -25.5t-1 -13q0 -30 16 -41.5t35 -11.5q21 0 43.5 9t55.5 32h2l23 -53q-39 -29 -74.5 -42t-74.5 -13q-54 0 -85 27t-31 77q0 5 1 12t3 20t6.5 34t11.5 55l-67 -54h-2l-25 51
l110 83l54 254q19 88 65 132t108 44q47 0 76.5 -31t29.5 -78zM397 608q0 22 -11 37t-28 15q-22 0 -40.5 -20.5t-29.5 -74.5l-46 -211q25 23 52.5 53t50.5 64t37.5 69t14.5 68z" />
    <glyph glyph-name="trademark" unicode="&#x2122;" horiz-adv-x="1000" 
d="M248 642h-124l9 66h125h76h125l-9 -66h-124l-49 -346h-78zM538 708h76h43l67 -316h3l155 316h40h79l-58 -412h-78l48 344h-2l-168 -344h-63l-72 344h-2l-48 -344h-78z" />
    <glyph glyph-name="Omega" unicode="&#x2126;" horiz-adv-x="752" 
d="M429 0v185q42 8 74 28t53.5 49.5t32.5 66t11 77.5q0 49 -17 91.5t-48 73.5t-73 49t-91 18q-50 0 -92.5 -18t-73 -49t-48 -74t-17.5 -92q0 -83 43 -143t126 -77v-185h-263v77h190v62q-46 13 -81.5 39.5t-59.5 62.5t-36.5 79t-12.5 90q0 68 25.5 125t70 98.5t103.5 64.5
t125 23q67 0 125.5 -22.5t102.5 -63.5t69.5 -98t25.5 -125q0 -48 -12 -91.5t-36 -79.5t-59.5 -62.5t-82.5 -39.5v-62h190v-77h-264z" />
    <glyph glyph-name="estimated" unicode="&#x212e;" horiz-adv-x="604" 
d="M157 259v-181q59 -59 145 -59q63 0 109 28.5t84 91.5l35 -21q-23 -36 -46.5 -61.5t-51 -42t-59.5 -24t-71 -7.5q-59 0 -106.5 21.5t-81.5 59t-52 87.5t-18 108t18 108.5t52 87.5t81.5 58.5t106.5 21.5q58 0 105.5 -20.5t81.5 -57t53 -87t19 -111.5h-404zM448 295v145
q-63 60 -147 60t-144 -60v-145h291z" />
    <glyph glyph-name="partialdiff" unicode="&#x2202;" horiz-adv-x="523" 
d="M481 360q0 -59 -9 -124.5t-35 -120.5t-72.5 -91t-121.5 -36q-48 0 -86.5 18t-65.5 48.5t-41.5 71.5t-14.5 87q0 45 14 84.5t40.5 69t64 46t84.5 16.5q46 0 85.5 -19t70.5 -51q0 10 0.5 20t0.5 21q0 39 -8 83t-27 81.5t-51 62t-81 24.5q-35 0 -62.5 -13t-53.5 -34
q-12 14 -23.5 27.5t-23.5 27.5q37 29 74 45.5t85 16.5q75 0 124.5 -33t79 -85.5t41.5 -116.5t12 -126zM391 271q-23 42 -60 66t-82 24q-33 0 -57.5 -12.5t-41 -33.5t-24.5 -48.5t-8 -57.5q0 -29 7.5 -56.5t23.5 -49.5t40 -35.5t56 -13.5q40 0 67.5 22t44.5 54.5t25 70.5
t9 70z" />
    <glyph glyph-name="Delta" unicode="&#x2206;" horiz-adv-x="678" 
d="M11 0l276 712h95l285 -712h-656zM333 613l-199 -530h406z" />
    <glyph glyph-name="product" unicode="&#x220f;" horiz-adv-x="726" 
d="M570 -214v917h-413v-917h-91v1000h594v-1000h-90z" />
    <glyph glyph-name="summation" unicode="&#x2211;" horiz-adv-x="626" 
d="M25 -214v72l316 433l-303 422v73h551v-83h-432l292 -412l-311 -423h463v-82h-576z" />
    <glyph glyph-name="minus" unicode="&#x2212;" horiz-adv-x="666" 
d="M648 342l-11 -78h-534l11 78h534z" />
    <glyph glyph-name="uni2215" unicode="&#x2215;" horiz-adv-x="167" 
d="M-110 -32l-56 32l543 740l55 -32z" />
    <glyph glyph-name="uni2219" unicode="&#x2219;" horiz-adv-x="278" 
d="M115 303q4 27 26 46.5t49 19.5t44 -19.5t13 -46.5t-26 -46.5t-49 -19.5t-44 19.5t-13 46.5z" />
    <glyph glyph-name="radical" unicode="&#x221a;" horiz-adv-x="515" 
d="M315 -214h-86l-158 328l-48 -23l-33 70l124 58l144 -302l178 869h90z" />
    <glyph glyph-name="infinity" unicode="&#x221e;" horiz-adv-x="778" 
d="M681 260q0 37 -21 63t-61 26q-20 0 -40 -9t-38.5 -22.5t-35 -29.5t-29.5 -29q15 -14 31.5 -29t34.5 -27t38 -20t42 -8q38 0 58.5 24.5t20.5 60.5zM361 259q-14 13 -31 28.5t-36 29t-39.5 22.5t-40.5 9q-37 0 -57.5 -26.5t-20.5 -61.5q0 -38 22 -61.5t60 -23.5q19 0 39 8
t39 20.5t35.5 27.5t29.5 28zM754 263q0 -36 -11 -68t-31.5 -55.5t-50.5 -37t-68 -13.5q-30 0 -55.5 9t-48 23.5t-42.5 34t-39 40.5q-20 -21 -39.5 -40t-41 -34t-46.5 -23.5t-56 -8.5q-38 0 -68.5 13t-51.5 36t-32.5 54.5t-11.5 68.5q0 36 11 67t31.5 54t50 36.5t67.5 13.5
q31 0 57 -9.5t48.5 -25.5t42.5 -36.5t39 -42.5q18 22 38 42.5t42.5 36.5t48.5 26t57 10q37 0 66.5 -13.5t50.5 -36.5t32 -54t11 -67z" />
    <glyph glyph-name="integral" unicode="&#x222b;" horiz-adv-x="574" 
d="M442 723q0 -19 -12.5 -30.5t-31.5 -11.5q-18 0 -27 8.5t-14 19t-9 19t-13 8.5t-14.5 -8.5t-8 -21t-3 -28t-0.5 -28.5q0 -26 1 -49t1 -37v-568q0 -35 -4.5 -72t-18.5 -67.5t-40 -50t-69 -19.5q-13 0 -27.5 3t-27 10t-20.5 18.5t-8 28.5t12.5 29t29.5 12q18 0 26.5 -8.5
t13.5 -18.5t9 -18.5t12 -8.5q9 0 14.5 10.5t7.5 25t2.5 29.5t0.5 24q0 20 -1 37t-1 28q0 3 0.5 6t0.5 6v499q0 17 -0.5 36t-0.5 39q0 37 4 74.5t17.5 68t39.5 50t71 19.5q12 0 27 -3.5t28.5 -11t23 -19.5t9.5 -29z" />
    <glyph glyph-name="approxequal" unicode="&#x2248;" horiz-adv-x="666" 
d="M599 440q-3 -30 -12 -57.5t-25.5 -49.5t-41 -35t-58.5 -13q-31 0 -67.5 11t-72.5 25q-36 13 -68.5 24t-56.5 11q-31 0 -48.5 -23.5t-22.5 -50.5h-59q3 29 12.5 57t25.5 50t40.5 35.5t57.5 13.5q32 0 66.5 -10.5t69.5 -24.5q35 -13 69 -24t63 -11q32 0 48.5 21.5
t21.5 50.5h58v0zM599 240q-3 -30 -12 -57.5t-25.5 -49.5t-41 -35t-58.5 -13q-31 0 -67.5 11t-72.5 25q-36 13 -68.5 24t-56.5 11q-31 0 -48.5 -23.5t-22.5 -50.5h-59q3 29 12.5 57t25.5 50t40.5 35.5t57.5 13.5q32 0 66.5 -10.5t69.5 -24.5q35 -13 69 -24t63 -11
q32 0 48.5 21.5t21.5 50.5h58v0z" />
    <glyph glyph-name="notequal" unicode="&#x2260;" horiz-adv-x="666" 
d="M266 108l-77 -149l-73 38l58 111h-134v84h177l63 123h-240v84h284l77 149l74 -37l-59 -112h136v-84h-179l-64 -123h243v-84h-286z" />
    <glyph glyph-name="lessequal" unicode="&#x2264;" horiz-adv-x="666" 
d="M77 309v86l512 183v-89l-397 -137l397 -134v-88zM77 8v84h512v-84h-512z" />
    <glyph glyph-name="greaterequal" unicode="&#x2265;" horiz-adv-x="666" 
d="M77 130v88l397 134l-397 137v89l512 -183v-86zM77 8v84h512v-84h-512z" />
    <glyph glyph-name="lozenge" unicode="&#x25ca;" horiz-adv-x="593" 
d="M337 -35h-82l-173 391l173 391h82l174 -391zM296 661l-127 -305l127 -305l128 305z" />
    <glyph glyph-name="dotlessj" unicode="&#xe0d6;" horiz-adv-x="240" 
d="M231 474l-76 -542q-3 -18 -9.5 -47.5t-23.5 -57t-49 -47.5t-86 -20q-15 0 -29 2t-28 7l22 83q8 -3 17.5 -5.5t18.5 -2.5q36 0 53.5 23.5t24.5 68.5l75 538h90z" />
    <glyph glyph-name="grave.cap" unicode="&#xe300;" horiz-adv-x="240" 
d="M265 760h-83l-129 144h128z" />
    <glyph glyph-name="acute.cap" unicode="&#xe301;" horiz-adv-x="240" 
d="M257 904h128l-169 -144h-83z" />
    <glyph glyph-name="circumflex.cap" unicode="&#xe302;" horiz-adv-x="240" 
d="M273 760l-61 96l-87 -96h-91l132 144h106l92 -144h-91z" />
    <glyph glyph-name="caron.cap" unicode="&#xe303;" horiz-adv-x="240" 
d="M54 904h87l65 -96l87 96h91l-132 -144h-106z" />
    <glyph glyph-name="tilde.cap" unicode="&#xe304;" horiz-adv-x="240" 
d="M32 770q6 19 17 38t25.5 33.5t33 23.5t40.5 9q23 0 42 -7.5t39 -15.5q14 -6 24.5 -11.5t26.5 -5.5q20 0 34 13t22 31h48q-6 -19 -15.5 -37.5t-23 -33.5t-31 -24t-39.5 -9q-21 0 -40.5 6.5t-37.5 14.5q-14 6 -30 12.5t-33 6.5q-19 0 -32.5 -13.5t-21.5 -30.5h-48z" />
    <glyph glyph-name="dieresis.cap" unicode="&#xe305;" horiz-adv-x="240" 
d="M118 898q23 0 40 -16t14 -41q-4 -27 -24 -45t-47 -18t-42 18t-11 45q3 25 25 41t45 16zM322 898q23 0 40 -16t14 -41q-4 -27 -24 -45t-47 -18t-42 18t-11 45q3 25 25 41t45 16z" />
    <glyph glyph-name="macron.cap" unicode="&#xe306;" horiz-adv-x="240" 
d="M348 788h-288l9 66h288z" />
    <glyph glyph-name="breve.cap" unicode="&#xe307;" horiz-adv-x="240" 
d="M116 906q2 -38 29 -55t64 -17t69 17t44 55h53q-14 -69 -62 -103.5t-114 -34.5t-104.5 34.5t-33.5 103.5h55z" />
    <glyph glyph-name="ring.cap" unicode="&#xe308;" horiz-adv-x="240" 
d="M109 845q3 21 14 39t27 31.5t35.5 21t39.5 7.5q21 0 38.5 -7.5t29.5 -21t17.5 -31t2.5 -38.5t-13.5 -39t-26 -31.5t-35.5 -21t-41 -7.5q-41 0 -67.5 28t-20.5 70zM271 845q4 25 -12 41t-40 16t-44 -16t-24 -41q-4 -24 12.5 -40t39.5 -16t43.5 16t24.5 40z" />
    <glyph glyph-name="hungarumlaut.cap" unicode="&#xe309;" horiz-adv-x="240" 
d="M153 904h127l-169 -144h-82zM322 904h127l-169 -144h-82z" />
    <glyph glyph-name="dotaccent.cap" unicode="&#xe30a;" horiz-adv-x="240" 
d="M203 778q-27 0 -42 18t-11 45q3 25 25 41t45 16t40 -16t14 -41q-4 -27 -24 -45t-47 -18z" />
    <glyph glyph-name="caron.alt" unicode="&#xe30b;" horiz-adv-x="250" 
d="M132 518h-77l104 190h93z" />
    <glyph glyph-name="commaaccent" unicode="&#xe30c;" horiz-adv-x="250" 
d="M80 -235h-77l104 190h93z" />
    <glyph glyph-name="commaaccent.alt" unicode="&#xe30d;" horiz-adv-x="250" 
d="M220 759h77l-104 -195h-93z" />
    <glyph glyph-name="uniF8FF" unicode="&#xf8ff;" horiz-adv-x="512" 
d="M222 117v67h56v-67h-56zM225 234l-2 17q0 56 13 81q7 13 18 27.5t28 31.5q16 15 26 26.5t15 21t7 18t2 17.5q0 36 -22.5 60.5t-53.5 24.5t-53.5 -22t-28.5 -73l-50 8q7 72 44 104.5t91 32.5t89 -35.5t35 -95.5q0 -32 -12.5 -58.5t-50.5 -61.5q-37 -33 -43 -52
q-6 -20 -6 -72h-46zM462 50v617h-412v-617h412zM512 718v-718h-512v718h512z" />
    <glyph glyph-name="fi" unicode="&#xfb01;" 
d="M456 474h90l-66 -474h-90zM460 643q4 27 26 46.5t49 19.5t44 -19.5t13 -46.5t-26 -46.5t-49 -19.5t-44 19.5t-13 46.5zM158 396h-102l11 78h102l15 106q14 95 56.5 141.5t131.5 46.5q15 0 31.5 -1t34.5 -6l-21 -80q-12 5 -24 7t-26 2q-25 0 -41 -7.5t-26 -21.5
t-15.5 -33.5t-9.5 -44.5l-15 -109h107l-11 -78h-108l-55 -396h-90z" />
    <glyph glyph-name="fl" unicode="&#xfb02;" 
d="M497 756h90l-106 -756h-90zM158 396h-102l11 78h102l15 106q14 95 56.5 141.5t131.5 46.5q15 0 31.5 -1t34.5 -6l-21 -80q-12 5 -24 7t-26 2q-25 0 -41 -7.5t-26 -21.5t-15.5 -33.5t-9.5 -44.5l-15 -109h107l-11 -78h-108l-55 -396h-90z" />
    </font>
</defs>
</svg>
