<?xml version="1.0" standalone="no"?>
<!DOCTYPE svg PUBLIC "-//W3C//DTD SVG 1.1//EN" "http://www.w3.org/Graphics/SVG/1.1/DTD/svg11.dtd" >
<svg xmlns="http://www.w3.org/2000/svg" xmlns:xlink="http://www.w3.org/1999/xlink" version="1.1">
<metadata>
Created by FontForge 20161003 at Thu Aug 23 13:52:20 2018
 By www-data
Copyright(c) 2007 Linotype GmbH, www.linotype.com. All rights reserved.
</metadata>
<defs>
<font id="AvenirOblique" horiz-adv-x="556" >
  <font-face 
    font-family="AvenirOblique"
    font-weight="400"
    font-style="oblique"
    font-stretch="normal"
    units-per-em="1000"
    panose-1="2 11 5 3 2 2 3 9 2 4"
    ascent="800"
    descent="-200"
    x-height="468"
    cap-height="708"
    bbox="-166 -250 1056 959"
    underline-thickness="50"
    underline-position="-150"
    slope="-8"
    unicode-range="U+000D-FB02"
  />
<missing-glyph horiz-adv-x="512" 
d="M222 117v67h56v-67h-56zM225 234l-2 17q0 56 13 81q7 13 18 27.5t28 31.5q32 30 41 47.5t9 35.5q0 36 -22.5 60.5t-53.5 24.5t-53.5 -22t-28.5 -73l-50 8q7 72 44 104.5t91 32.5t89 -35.5t35 -95.5q0 -32 -12.5 -58.5t-50.5 -61.5q-37 -33 -43 -52q-6 -20 -6 -72h-46z
M462 50v617h-412v-617h412zM512 718v-718h-512v718h512z" />
    <glyph glyph-name=".notdef" horiz-adv-x="512" 
d="M222 117v67h56v-67h-56zM225 234l-2 17q0 56 13 81q7 13 18 27.5t28 31.5q32 30 41 47.5t9 35.5q0 36 -22.5 60.5t-53.5 24.5t-53.5 -22t-28.5 -73l-50 8q7 72 44 104.5t91 32.5t89 -35.5t35 -95.5q0 -32 -12.5 -58.5t-50.5 -61.5q-37 -33 -43 -52q-6 -20 -6 -72h-46z
M462 50v617h-412v-617h412zM512 718v-718h-512v718h512z" />
    <glyph glyph-name=".null" horiz-adv-x="0" 
 />
    <glyph glyph-name="nonmarkingreturn" unicode="&#xd;" horiz-adv-x="0" 
 />
    <glyph glyph-name="space" unicode=" " horiz-adv-x="278" 
 />
    <glyph glyph-name="exclam" unicode="!" horiz-adv-x="278" 
d="M208 198h-84l72 510h84zM155 114q25 0 40 -17.5t11 -42.5t-24.5 -42.5t-43.5 -17.5t-39.5 17.5t-12.5 42.5t24 42.5t45 17.5z" />
    <glyph glyph-name="quotedbl" unicode="&#x22;" horiz-adv-x="519" 
d="M249 708h72l-34 -240h-72zM396 708h72l-34 -240h-72z" />
    <glyph glyph-name="numbersign" unicode="#" 
d="M157 213h-98l10 66h108l41 152h-98l9 66h108l60 211h67l-60 -211h126l60 211h67l-60 -211h98l-9 -66h-107l-42 -152h98l-10 -66h-108l-59 -213h-67l59 213h-126l-59 -213h-67zM412 431h-126l-42 -152h126z" />
    <glyph glyph-name="dollar" unicode="$" 
d="M254 -12q-62 0 -116.5 21.5t-84.5 71.5l78 61q17 -34 54 -54t80 -22l35 254q-38 10 -71.5 26.5t-57.5 40.5t-35 57.5t-5 78.5q6 42 27 77t52 60.5t69 41t78 18.5l9 66h48l-9 -66q54 0 103.5 -20t78.5 -61l-74 -60q-19 30 -49.5 46.5t-69.5 16.5l-35 -249q39 -13 74.5 -28
t61.5 -37.5t39 -55.5t6 -82q-6 -45 -28 -81t-54.5 -62t-72.5 -41t-83 -18l-10 -71h-48zM346 642q-51 -9 -84.5 -40.5t-40.5 -79.5q-4 -26 2 -44t19 -31t31.5 -22.5t39.5 -18.5zM313 66q52 6 91 39t46 81q4 27 -3.5 47t-22.5 34t-35 23.5t-42 16.5z" />
    <glyph glyph-name="percent" unicode="%" horiz-adv-x="833" 
d="M114 545q5 37 23 69t45 55.5t61 37t71 13.5t67 -13.5t50 -37t29 -55.5t4 -69t-23 -69t-45 -55.5t-60.5 -37t-70.5 -13.5t-67 13.5t-50.5 37t-29.5 55.5t-4 69zM186 545q-3 -21 3 -39.5t18 -33t29.5 -22.5t38.5 -8t40.5 8t35.5 22.5t27 33t14 39.5t-2.5 39.5t-17.5 33
t-29.5 22.5t-38.5 8t-40.5 -8t-36 -22.5t-27.5 -33t-14 -39.5zM467 163q5 37 23 69t45 55.5t61 37t71 13.5t67 -13.5t50 -37t29 -55.5t4 -69t-23 -69t-45 -55.5t-60.5 -37t-70.5 -13.5t-67 13.5t-50 37t-29.5 55.5t-4.5 69zM539 163q-3 -21 3 -39.5t18 -33t29.5 -22.5
t38.5 -8t40.5 8t36 22.5t27 33t13.5 39.5t-2.5 39.5t-17.5 33t-29.5 22.5t-38.5 8t-40.5 -8t-36 -22.5t-27.5 -33t-14 -39.5zM718 740l50 -32l-548 -740l-50 32z" />
    <glyph glyph-name="ampersand" unicode="&#x26;" horiz-adv-x="722" 
d="M511 102q-51 -54 -104 -84t-124 -30q-45 0 -84 13.5t-66.5 39.5t-40.5 63.5t-6 85.5q5 37 22 68.5t42.5 57t56.5 45t65 34.5q-29 35 -49 74t-13 90q6 39 25 69.5t47 51t62.5 31t71.5 10.5q36 0 66.5 -10t52 -29.5t31.5 -49t5 -68.5q-5 -33 -22 -60.5t-42 -49t-54 -39
t-58 -31.5l128 -159l117 159h95l-166 -218l139 -166h-115zM351 435q21 11 43.5 23t42 27t33 35t17.5 46q5 39 -18 61t-60 22q-42 0 -75.5 -25.5t-40.5 -69.5q-4 -29 8.5 -51.5t27.5 -41.5zM317 344q-24 -12 -48.5 -26.5t-45 -32.5t-34.5 -41t-18 -51q-4 -29 3.5 -53t24 -42
t40 -28t51.5 -10q27 0 51 8t45.5 21.5t41.5 31t40 37.5z" />
    <glyph glyph-name="quotesingle" unicode="'" horiz-adv-x="278" 
d="M202 708h72l-34 -240h-72z" />
    <glyph glyph-name="parenleft" unicode="(" horiz-adv-x="278" 
d="M179 -156q-58 99 -79.5 214t-4.5 230q17 124 71.5 237t136.5 207l49 -40q-77 -88 -123.5 -191t-61.5 -213q-9 -60 -8 -112t10 -100.5t26.5 -95.5t42.5 -98z" />
    <glyph glyph-name="parenright" unicode=")" horiz-adv-x="278" 
d="M179 732q58 -99 79 -214t5 -230q-17 -124 -71.5 -237t-136.5 -207l-49 40q77 88 123 191t62 213q9 60 8 112t-10 100.5t-26.5 95.5t-42.5 98z" />
    <glyph glyph-name="asterisk" unicode="*" horiz-adv-x="444" 
d="M330 559l149 48l11 -58l-148 -48l72 -119l-54 -38l-73 123l-104 -123l-45 38l104 119l-134 48l27 58l135 -48l21 149h60z" />
    <glyph glyph-name="plus" unicode="+" horiz-adv-x="666" 
d="M119 336h228l32 228h66l-32 -228h228l-10 -66h-228l-32 -228h-66l32 228h-228z" />
    <glyph glyph-name="comma" unicode="," horiz-adv-x="278" 
d="M109 -138h-77l102 240h91z" />
    <glyph glyph-name="hyphen" unicode="-" horiz-adv-x="333" 
d="M82 276h245l-10 -72h-245z" />
    <glyph glyph-name="period" unicode="." horiz-adv-x="278" 
d="M155 114q25 0 40 -17.5t11 -42.5t-24.5 -42.5t-43.5 -17.5t-39.5 17.5t-12.5 42.5t24 42.5t45 17.5z" />
    <glyph glyph-name="slash" unicode="/" horiz-adv-x="370" 
d="M59 -43l-59 25l409 768l60 -24z" />
    <glyph glyph-name="zero" unicode="0" 
d="M87 354q9 60 28 125t53.5 118.5t86 88t124.5 34.5t115 -34.5t61 -88t20 -118.5t-8 -125q-8 -60 -27 -125t-53.5 -118.5t-86 -88t-124.5 -34.5q-49 0 -83.5 16t-57 43t-35 63.5t-17.5 77t-3.5 83.5t7.5 83zM171 354q-4 -26 -6.5 -58t-1 -64.5t7.5 -63.5t20 -55t37 -38.5
t58 -14.5t62 14.5t48 38.5t36 55t25 63.5t16 64.5t10 58t6.5 58t1.5 64.5t-7 63.5t-20 55t-37 38.5t-58 14.5q-53 0 -88 -31.5t-57.5 -76.5t-34.5 -96t-18 -90z" />
    <glyph glyph-name="one" unicode="1" 
d="M360 0h-84l84 600h-2l-142 -107l-42 61l212 154h73z" />
    <glyph glyph-name="two" unicode="2" 
d="M63 96l304 260q28 24 50 44.5t37 40t24 40.5t13 47q4 28 -3 50t-22.5 37.5t-37.5 24t-49 8.5q-54 0 -93.5 -31t-56.5 -82l-90 8q13 43 37.5 76.5t56.5 55.5t71 33.5t82 11.5q44 0 81.5 -12.5t63.5 -36.5t38 -60t6 -83q-6 -42 -22.5 -76t-39.5 -62.5t-51.5 -54
t-58.5 -50.5l-247 -205l-1 -2h361l-10 -78h-456z" />
    <glyph glyph-name="three" unicode="3" 
d="M261 408h26q26 0 55 4t54.5 17t44 37.5t24.5 64.5q7 54 -22 85.5t-82 31.5q-45 0 -81 -20t-61 -59l-76 31q34 60 94 90t128 30q42 0 79 -12t62.5 -35t37.5 -57.5t6 -80.5q-4 -28 -16.5 -53.5t-31.5 -47t-43.5 -37.5t-52.5 -24v-2q33 -6 57.5 -22t40 -39.5t21 -53.5
t1.5 -63q-7 -51 -31.5 -89t-60 -64t-80 -39t-91.5 -13q-81 0 -136 35t-71 114l89 28q10 -57 39.5 -81t88.5 -24q30 0 57.5 10t49.5 28.5t37 44t19 56.5q6 39 -6 65.5t-35 42t-54 22.5t-64 7h-26z" />
    <glyph glyph-name="four" unicode="4" 
d="M452 240h102l-11 -78h-102l-22 -162h-84l22 162h-300l13 93l345 453h103zM420 610h-2l-278 -370h228z" />
    <glyph glyph-name="five" unicode="5" 
d="M562 630h-289l-30 -191q22 10 47 13.5t47 3.5q51 0 90 -17.5t64.5 -49t35.5 -74t3 -92.5q-8 -53 -32.5 -96.5t-61.5 -74t-83.5 -47.5t-98.5 -17q-80 0 -125.5 35t-65.5 94l88 32q13 -40 44 -64.5t76 -24.5q32 0 61.5 11.5t53 33t39.5 51.5t21 67q5 39 -4 69t-30 50.5
t-51.5 31t-67.5 10.5q-36 0 -75.5 -12.5t-74.5 -31.5l59 368h371z" />
    <glyph glyph-name="six" unicode="6" 
d="M262 413l1 -2q21 11 48.5 16t49.5 5q46 0 83 -16t61.5 -45.5t35 -70.5t3.5 -90q-7 -52 -31 -93t-60 -69.5t-81.5 -44t-95.5 -15.5t-91.5 15.5t-69 44t-40 69.5t-5.5 93q9 62 34.5 107.5t60.5 91.5l230 299h98zM328 360q-32 0 -61.5 -10.5t-52.5 -30t-39 -47.5t-21 -62
q-5 -35 3 -62.5t26 -47t44.5 -30t58.5 -10.5t61.5 10.5t52.5 30t39 47t21 62.5q5 34 -3 62t-26 47.5t-44.5 30t-58.5 10.5z" />
    <glyph glyph-name="seven" unicode="7" 
d="M568 630l-371 -630h-95l376 630h-342l11 78h432z" />
    <glyph glyph-name="eight" unicode="8" 
d="M151 535q6 42 26 76t51 58t69.5 37.5t81.5 13.5t78 -13.5t58.5 -37.5t34.5 -58t5 -76q-4 -25 -15.5 -50t-29.5 -46t-41.5 -37t-51.5 -23l-1 -2q62 -14 93 -64.5t22 -117.5q-7 -48 -30 -86.5t-57 -65.5t-77.5 -41t-90.5 -14t-86.5 14t-66 41t-39 65.5t-5.5 86.5
q4 33 18.5 63.5t36 54.5t49.5 40.5t61 23.5l1 2q-26 7 -45.5 23t-31.5 37t-16.5 46t-0.5 50zM234 531q-7 -51 21 -84t81 -33t90 33t44 84q8 51 -20 84t-81 33t-90 -33t-45 -84zM164 201q-5 -31 2.5 -57t24 -44.5t41 -29t54.5 -10.5t57 10.5t49 29t36.5 44.5t19.5 57
q4 31 -3.5 57t-24 44.5t-40.5 29t-54 10.5t-57.5 -10.5t-49 -29t-36.5 -44.5t-19 -57z" />
    <glyph glyph-name="nine" unicode="9" 
d="M393 295l-2 2q-21 -11 -48.5 -16t-49.5 -5q-46 0 -83 16t-61.5 45.5t-35 70t-3.5 90.5q7 52 31.5 93t60.5 69.5t81.5 44t95.5 15.5t91 -15.5t69 -44t40 -69.5t5 -93q-8 -62 -34 -107.5t-60 -91.5l-230 -299h-98zM326 348q32 0 61.5 10.5t53 30t39 47t20.5 62.5
q5 34 -3 62t-26 47.5t-44 30t-58 10.5t-61.5 -10.5t-53 -30t-39.5 -47.5t-21 -62q-5 -35 3.5 -62.5t26.5 -47t44 -30t58 -10.5z" />
    <glyph glyph-name="colon" unicode=":" horiz-adv-x="278" 
d="M206 480q25 0 40 -17.5t12 -42.5q-4 -25 -25 -42.5t-44 -17.5t-39 17.5t-12 42.5q3 25 23 42.5t45 17.5zM155 114q25 0 40 -17.5t11 -42.5t-24.5 -42.5t-43.5 -17.5t-39.5 17.5t-12.5 42.5t24 42.5t45 17.5z" />
    <glyph glyph-name="semicolon" unicode=";" horiz-adv-x="278" 
d="M109 -138h-77l102 240h91zM206 480q25 0 40 -17.5t12 -42.5q-4 -25 -25 -42.5t-44 -17.5t-39 17.5t-12 42.5q3 25 23 42.5t45 17.5z" />
    <glyph glyph-name="less" unicode="&#x3c;" horiz-adv-x="666" 
d="M663 498l-468 -195l414 -195l-10 -66l-489 232l8 58l555 232z" />
    <glyph glyph-name="equal" unicode="=" horiz-adv-x="666" 
d="M130 414h522l-10 -66h-522zM108 258h522l-10 -66h-522z" />
    <glyph glyph-name="greater" unicode="&#x3e;" horiz-adv-x="666" 
d="M87 108l468 195l-414 195l10 66l489 -232l-8 -58l-555 -232z" />
    <glyph glyph-name="question" unicode="?" horiz-adv-x="482" 
d="M225 261q4 28 10 46t16.5 32.5t25.5 28.5t37 34q18 16 35.5 31.5t32.5 32.5t25.5 36t13.5 43q7 48 -17 78.5t-74 30.5q-51 0 -87 -30t-50 -79l-88 10q12 41 35.5 73t54.5 53.5t68.5 33t78.5 11.5t75 -11.5t57 -34t33.5 -56t4.5 -76.5q-5 -33 -18 -59.5t-32 -49t-43 -43
t-49 -41.5q-18 -15 -28.5 -26t-17.5 -23t-10.5 -26.5t-6.5 -35.5l-7 -46h-84zM247 114q25 0 40 -17.5t11 -42.5t-24.5 -42.5t-43.5 -17.5t-39.5 17.5t-12.5 42.5t24 42.5t45 17.5z" />
    <glyph glyph-name="at" unicode="@" horiz-adv-x="800" 
d="M303 293q-6 -42 14.5 -69t58.5 -27q33 0 64 21.5t56.5 53.5t42.5 69t22 68q3 19 -1.5 36t-14 30t-23 20.5t-29.5 7.5q-35 0 -67.5 -20.5t-58 -52t-43 -68t-21.5 -69.5zM572 267q-5 -12 -9.5 -25.5t-6.5 -24.5q-3 -20 21 -20t51.5 18.5t52 49t43 69.5t24.5 81
q8 59 -8 106.5t-49.5 81t-80 51.5t-98.5 18q-65 0 -125 -25.5t-107.5 -69t-79.5 -101.5t-41 -122q-9 -67 7.5 -125t53 -101t89 -67.5t114.5 -24.5q37 0 74.5 8.5t72.5 24.5t66.5 38.5t55.5 49.5h63q-30 -41 -68.5 -73.5t-82.5 -55t-92 -34.5t-97 -12q-79 0 -143 29
t-107.5 79.5t-63 118t-8.5 145.5t50 146t97 118t130.5 79t149.5 29q69 0 127 -22.5t98.5 -63t59.5 -97t10 -123.5q-9 -65 -40 -118t-71.5 -91t-84.5 -59t-79 -21q-26 0 -42 16t-13 50h-2q-27 -27 -58 -46.5t-76 -19.5q-32 0 -56.5 12t-40 33t-21.5 49t-1 61q7 52 30.5 103
t59.5 91t82.5 64.5t99.5 24.5q35 0 62 -18.5t38 -63.5h2l27 63h65z" />
    <glyph glyph-name="A" unicode="A" horiz-adv-x="704" 
d="M417 708h79l202 -708h-98l-48 174h-354l-97 -174h-95zM440 600h-2l-196 -348h289z" />
    <glyph glyph-name="B" unicode="B" horiz-adv-x="630" 
d="M187 708h216q44 0 85 -9t71 -29.5t46 -53.5t9 -82q-9 -62 -48 -102.5t-99 -57.5v-2q34 -3 61 -17.5t45 -37.5t26 -53.5t3 -65.5q-8 -59 -38 -97t-72.5 -60.5t-93 -31.5t-99.5 -9h-211zM229 408h116q30 0 59 4t53.5 16.5t42 35t22.5 59.5q4 33 -6 53.5t-29.5 32.5
t-46.5 16.5t-55 4.5h-125zM182 78h142q31 0 62.5 6.5t58 21t45 38t23.5 57.5q5 37 -6 62t-32.5 40t-51 21t-61.5 6h-144z" />
    <glyph glyph-name="C" unicode="C" horiz-adv-x="704" 
d="M662 562q-26 43 -69.5 64.5t-94.5 21.5q-59 0 -112 -24t-95 -64.5t-69.5 -94t-35.5 -111.5q-9 -62 3.5 -115.5t42.5 -93t76.5 -62.5t106.5 -23q65 0 119.5 25.5t99.5 73.5l55 -53q-57 -64 -128.5 -94t-156.5 -30q-76 0 -138 28t-103.5 77.5t-59.5 117.5t-7 149
q11 78 47.5 146t91.5 118t125 79t149 29q72 0 134.5 -26t99.5 -85z" />
    <glyph glyph-name="D" unicode="D" horiz-adv-x="741" 
d="M174 708h272q52 0 110 -18.5t104.5 -60.5t71.5 -109.5t11 -165.5q-9 -65 -32 -116.5t-55.5 -91t-72 -67.5t-80.5 -45.5t-81 -25.5t-75 -8h-272zM169 78h160q61 0 115.5 16t97.5 49.5t72 85.5t39 125t-4 125t-47.5 85.5t-83.5 49.5t-111 16h-160z" />
    <glyph glyph-name="E" unicode="E" horiz-adv-x="593" 
d="M187 708h445l-11 -78h-361l-31 -222h337l-11 -78h-337l-36 -252h379l-10 -78h-463z" />
    <glyph glyph-name="F" unicode="F" 
d="M187 708h439l-11 -78h-355l-33 -234h330l-11 -78h-330l-44 -318h-84z" />
    <glyph glyph-name="G" unicode="G" horiz-adv-x="778" 
d="M696 48q-66 -34 -135.5 -50t-138.5 -16q-83 0 -148.5 27t-109 76t-62 117.5t-6.5 151.5q12 84 51.5 152.5t98 117t131.5 75.5t153 27q70 0 131.5 -21t104.5 -72l-72 -66q-31 39 -79 60t-102 21q-61 0 -116 -22t-99 -61t-73.5 -93t-38.5 -118q-9 -63 5 -117t47 -93.5
t84 -61.5t116 -22q43 0 91.5 10.5t90.5 30.5l30 217h-163l11 78h247z" />
    <glyph glyph-name="H" unicode="H" horiz-adv-x="722" 
d="M187 708h84l-42 -300h378l42 300h84l-99 -708h-84l46 330h-378l-46 -330h-84z" />
    <glyph glyph-name="I" unicode="I" horiz-adv-x="260" 
d="M187 708h84l-99 -708h-84z" />
    <glyph glyph-name="J" unicode="J" horiz-adv-x="482" 
d="M419 183q-5 -36 -20.5 -71.5t-43 -64.5t-68.5 -47t-98 -18q-75 0 -120 38t-48 114l87 17q2 -42 25 -66.5t68 -24.5q36 0 60.5 13t40.5 34t24.5 48.5t12.5 56.5l70 496h84z" />
    <glyph glyph-name="K" unicode="K" horiz-adv-x="630" 
d="M187 708h84l-43 -306h12l365 306h121l-395 -323l313 -385h-123l-287 360h-12l-50 -360h-84z" />
    <glyph glyph-name="L" unicode="L" horiz-adv-x="500" 
d="M187 708h84l-89 -630h324l-10 -78h-408z" />
    <glyph glyph-name="M" unicode="M" horiz-adv-x="907" 
d="M187 708h125l162 -555h2l320 555h122l-99 -708h-84l83 594h-2l-337 -594h-51l-171 594h-2l-83 -594h-84z" />
    <glyph glyph-name="N" unicode="N" horiz-adv-x="778" 
d="M187 708h106l327 -588h2l83 588h84l-99 -708h-106l-328 588h-2l-82 -588h-84z" />
    <glyph glyph-name="O" unicode="O" horiz-adv-x="834" 
d="M414 -18q-81 0 -145 28t-106 77.5t-60 118t-7 148.5t48.5 148.5t93.5 118t128 77.5t153 28t144.5 -28t105.5 -77.5t60 -118t7 -148.5t-48 -148.5t-93.5 -118t-128 -77.5t-152.5 -28zM425 60q62 0 117 23t97.5 63t70 93.5t36.5 114.5t-4 114.5t-44 93.5t-79.5 63
t-110.5 23t-117 -23t-97.5 -63t-70.5 -93.5t-37 -114.5t4 -114.5t44.5 -93.5t80 -63t110.5 -23z" />
    <glyph glyph-name="P" unicode="P" horiz-adv-x="593" 
d="M187 708h210q49 0 92.5 -9.5t74.5 -32t46.5 -60t7.5 -92.5q-8 -58 -35.5 -96t-65 -60t-80 -31t-79.5 -9h-142l-44 -318h-84zM227 396h142q63 0 106.5 28.5t52.5 88.5q8 60 -27.5 88.5t-98.5 28.5h-142z" />
    <glyph glyph-name="Q" unicode="Q" horiz-adv-x="834" 
d="M822 0h-411q-78 0 -140.5 28t-104.5 76.5t-60.5 115t-7.5 143.5q10 77 47.5 143.5t93 115t126 76.5t148.5 28t140.5 -28t104.5 -76.5t60 -115t8 -143.5q-6 -45 -24.5 -89.5t-46.5 -83t-64 -69t-78 -47.5v-2h219zM188 363q-9 -60 4.5 -112t45 -90.5t78 -60.5t105.5 -22
q58 0 111.5 22t96 60.5t70.5 90.5t37 112q8 59 -5 111t-44 90.5t-78 61t-107 22.5t-113 -22.5t-95 -61t-70 -90.5t-36 -111z" />
    <glyph glyph-name="R" unicode="R" horiz-adv-x="611" 
d="M187 708h181q51 0 101 -6t87 -26t56.5 -58.5t10.5 -104.5q-11 -78 -65 -126t-139 -61l156 -326h-103l-148 318h-108l-44 -318h-84zM227 396h75q35 0 73 2t71 13t57 34.5t30 67.5q5 38 -7 61t-34.5 35.5t-52.5 16.5t-61 4h-118z" />
    <glyph glyph-name="S" unicode="S" 
d="M505 583q-16 34 -48.5 49.5t-70.5 15.5q-28 0 -56 -7t-51.5 -21t-40 -37t-20.5 -54q-3 -24 1.5 -42.5t20 -33.5t42 -28t67.5 -26q39 -13 75.5 -28t62.5 -38t38.5 -57.5t5.5 -86.5q-8 -53 -34 -92t-64.5 -64.5t-85 -38t-94.5 -12.5q-31 0 -61.5 5.5t-57.5 17t-49 30
t-36 45.5l80 59q17 -39 55.5 -59t84.5 -20q27 0 55.5 8t53 23.5t41.5 38.5t21 53q4 33 -4 53.5t-28.5 35.5t-54 27t-78.5 28q-36 12 -66 27.5t-50 38t-29 54t-3 75.5q7 51 32.5 89t63 63.5t82.5 38.5t92 13q60 0 106.5 -18.5t79.5 -64.5z" />
    <glyph glyph-name="T" unicode="T" horiz-adv-x="574" 
d="M651 630h-234l-88 -630h-84l88 630h-234l11 78h552z" />
    <glyph glyph-name="U" unicode="U" horiz-adv-x="704" 
d="M656 270q-8 -58 -29.5 -110t-59 -91.5t-91.5 -63t-127 -23.5t-120.5 23.5t-74 63t-33.5 91.5t1 110l62 438h84l-60 -426q-6 -43 -3 -83t20 -71t49.5 -49.5t85.5 -18.5t90.5 18.5t63 49.5t40 71t20.5 83l60 426h84z" />
    <glyph glyph-name="V" unicode="V" horiz-adv-x="611" 
d="M90 708h95l136 -582h2l307 582h89l-376 -708h-81z" />
    <glyph glyph-name="W" unicode="W" horiz-adv-x="963" 
d="M105 708h93l78 -588h2l257 588h94l90 -588h2l247 588h88l-307 -708h-91l-91 600h-2l-260 -600h-92z" />
    <glyph glyph-name="X" unicode="X" horiz-adv-x="630" 
d="M307 373l-191 335h108l152 -277l228 277h105l-285 -335l209 -373h-111l-166 314l-255 -314h-104z" />
    <glyph glyph-name="Y" unicode="Y" horiz-adv-x="594" 
d="M297 305l-207 403h107l154 -320l250 320h101l-321 -403l-42 -305h-84z" />
    <glyph glyph-name="Z" unicode="Z" horiz-adv-x="574" 
d="M39 75l487 555h-403l11 78h505l-10 -72l-488 -558h414l-10 -78h-516z" />
    <glyph glyph-name="bracketleft" unicode="[" horiz-adv-x="259" 
d="M287 672h-93l-108 -768h93l-8 -60h-165l124 888h165z" />
    <glyph glyph-name="backslash" unicode="\" horiz-adv-x="370" 
d="M105 726l66 24l193 -768l-67 -25z" />
    <glyph glyph-name="bracketright" unicode="]" horiz-adv-x="259" 
d="M168 732h165l-124 -888h-165l8 60h93l108 768h-93z" />
    <glyph glyph-name="asciicircum" unicode="^" horiz-adv-x="666" 
d="M402 708h60l162 -433h-74l-130 349l-228 -349h-74z" />
    <glyph glyph-name="underscore" unicode="_" horiz-adv-x="500" 
d="M-10 -75h499l-7 -50h-499z" />
    <glyph glyph-name="grave" unicode="`" horiz-adv-x="240" 
d="M268 564h-71l-123 144h110z" />
    <glyph glyph-name="a" unicode="a" horiz-adv-x="519" 
d="M125 408q42 37 93.5 54.5t102.5 17.5q104 0 143 -49t25 -149l-28 -201q-3 -20 -4 -41.5t0 -39.5h-75q-2 16 0 35.5t4 34.5h-2q-28 -36 -69.5 -59t-95.5 -23q-36 0 -66 9t-51.5 26.5t-32 43.5t-5.5 60q8 58 42.5 91t81.5 49t99 20t95 4h30l2 14q8 51 -19 77t-82 26
q-38 0 -76.5 -12.5t-69.5 -38.5zM325 225q-75 0 -122 -21t-54 -69q-6 -44 21 -62.5t71 -18.5q34 0 61 11.5t47 30.5t32.5 44.5t17.5 54.5l4 30h-78z" />
    <glyph glyph-name="b" unicode="b" horiz-adv-x="611" 
d="M176 756h78l-50 -356h2q38 38 83 59t96 21q55 0 97.5 -18.5t70.5 -51.5t39 -78t4 -98t-31.5 -98t-60.5 -78t-81.5 -51.5t-94.5 -18.5q-63 0 -106.5 27.5t-60.5 67.5h-2l-11 -83h-78zM180 234q-5 -37 2.5 -68.5t26 -55t47 -37t66.5 -13.5t70.5 13.5t57.5 37t41 55t21 68.5
t-2 68.5t-25.5 55t-47 37t-66.5 13.5t-70.5 -13.5t-57.5 -37t-41.5 -55t-21.5 -68.5z" />
    <glyph glyph-name="c" unicode="c" horiz-adv-x="482" 
d="M456 351q-21 30 -48 43.5t-62 13.5q-39 0 -70.5 -13.5t-55 -37.5t-38 -55.5t-19.5 -67.5t2 -67.5t24.5 -55.5t44.5 -37.5t63 -13.5q76 0 127 58l50 -55q-39 -39 -87.5 -57t-99.5 -18q-54 0 -96.5 18t-69.5 51t-38.5 78t-3.5 99q7 53 31 98t61 78t84 51.5t101 18.5
q52 0 96 -18t74 -56z" />
    <glyph glyph-name="d" unicode="d" horiz-adv-x="611" 
d="M474 83h-2q-27 -40 -78.5 -67.5t-114.5 -27.5q-49 0 -89 18.5t-67 51.5t-39 78t-5 98t31.5 98t61.5 78t85 51.5t103 18.5q51 0 90.5 -21t66.5 -59h2l50 356h78l-106 -756h-78zM495 234q5 37 -2 68.5t-25.5 55t-47 37t-66.5 13.5t-70.5 -13.5t-57.5 -37t-41.5 -55
t-21.5 -68.5t2.5 -68.5t26 -55t47 -37t66.5 -13.5t70.5 13.5t57.5 37t41 55t21 68.5z" />
    <glyph glyph-name="e" unicode="e" 
d="M503 85q-49 -54 -102 -75.5t-119 -21.5q-55 0 -96.5 19.5t-67.5 52.5t-36 78t-3 96q8 54 32.5 99.5t61 78t83 50.5t98.5 18q49 0 88 -16.5t63.5 -48t34.5 -77t2 -103.5l-4 -25h-378q-2 -30 6.5 -57.5t25.5 -48t42.5 -32.5t57.5 -12q51 0 88.5 18t70.5 53zM463 276
q6 60 -25.5 96t-96.5 36t-110.5 -36t-61.5 -96h294z" />
    <glyph glyph-name="f" unicode="f" horiz-adv-x="315" 
d="M170 402h-102l9 66h102l15 105q6 43 19 78.5t36 61.5t57 40.5t81 14.5q15 0 31.5 -3t27.5 -9l-21 -70q-12 5 -25 7.5t-27 2.5q-30 0 -48.5 -10.5t-29 -29t-16 -44.5t-9.5 -56l-13 -88h114l-9 -66h-114l-56 -402h-78z" />
    <glyph glyph-name="g" unicode="g" horiz-adv-x="611" 
d="M543 21q-17 -128 -92 -194.5t-199 -66.5q-69 0 -122 20t-96 69l65 64q32 -40 70.5 -60.5t92.5 -20.5q52 0 88.5 15.5t60.5 42t36.5 60.5t17.5 71l9 60h-2q-35 -45 -82.5 -66t-94.5 -21q-55 0 -98.5 18t-72 50t-40.5 76t-5 96q8 57 32.5 103t62 77.5t85.5 48.5t104 17
q48 0 91.5 -22.5t60.5 -69.5h2l11 80h78zM163 234q-5 -36 4 -66.5t28 -53t47.5 -35.5t62.5 -13q40 0 73 14t57.5 37.5t40 54t20.5 64.5q5 38 -2.5 69.5t-26.5 54.5t-48 35.5t-66 12.5t-69 -13.5t-57.5 -37t-42 -55t-21.5 -68.5z" />
    <glyph glyph-name="h" unicode="h" 
d="M180 756h78l-50 -353h2q10 14 26 27.5t37 24.5t46 18t52 7q46 0 77.5 -14t50 -39t24 -60.5t-0.5 -77.5l-40 -289h-78l39 281q8 59 -13 93t-76 34q-76 0 -117.5 -50t-52.5 -130l-32 -228h-78z" />
    <glyph glyph-name="i" unicode="i" horiz-adv-x="240" 
d="M146 468h78l-65 -468h-78zM154 651q3 23 22 40t43 17t38 -17t11 -40q-4 -25 -22 -41t-43 -16t-39 16t-10 41z" />
    <glyph glyph-name="j" unicode="j" horiz-adv-x="240" 
d="M144 -105q-3 -18 -11.5 -41.5t-26.5 -44t-47 -35t-72 -14.5q-14 0 -27.5 2t-25.5 8l19 68q18 -6 37 -6q22 0 36 8t23 21.5t14 31.5t8 38l75 537h78zM154 651q3 23 22 40t43 17t38 -17t11 -40q-4 -25 -22 -41t-43 -16t-39 16t-10 41z" />
    <glyph glyph-name="k" unicode="k" horiz-adv-x="500" 
d="M180 756h78l-70 -494l242 206h111l-256 -213l214 -255h-115l-198 246l-34 -246h-78z" />
    <glyph glyph-name="l" unicode="l" horiz-adv-x="240" 
d="M187 756h78l-106 -756h-78z" />
    <glyph glyph-name="m" unicode="m" horiz-adv-x="852" 
d="M124 357q5 32 6.5 60t4.5 51h74l-4 -38t-5 -39h2q10 17 27 33t39 28.5t48 20t55 7.5q38 0 62.5 -9.5t39.5 -23t22 -29t11 -27.5q32 42 69.5 65.5t91.5 23.5q50 0 82 -13.5t49.5 -39t21 -62t-2.5 -81.5l-39 -284h-78l39 280q3 24 1.5 47t-12 41t-31 29t-54.5 11
q-25 0 -48.5 -10t-42.5 -28t-32.5 -43.5t-17.5 -56.5l-37 -270h-78l37 265q11 78 -5.5 110.5t-64.5 32.5q-76 0 -117.5 -50t-52.5 -130l-32 -228h-78z" />
    <glyph glyph-name="n" unicode="n" 
d="M124 357q5 32 6.5 60t4.5 51h74l-4 -38t-5 -39h2q10 17 27 33t39 28.5t48 20t55 7.5q46 0 77.5 -14t50 -39t24 -60.5t-0.5 -77.5l-40 -289h-78l39 281q8 59 -13 93t-76 34q-76 0 -117.5 -50t-52.5 -130l-32 -228h-78z" />
    <glyph glyph-name="o" unicode="o" horiz-adv-x="594" 
d="M79 234q8 55 33 100t63 77.5t86.5 50.5t102.5 18t97.5 -18t72 -50.5t41 -77.5t4.5 -100t-33 -100t-62.5 -77.5t-86 -50.5t-102.5 -18t-97.5 18t-72 50.5t-41.5 77.5t-5 100zM163 234q-5 -37 2.5 -68.5t26 -55t47 -37t66.5 -13.5t70.5 13.5t57.5 37t41 55t21 68.5t-2 68.5
t-25.5 55t-47 37t-66.5 13.5t-70.5 -13.5t-57.5 -37t-41.5 -55t-21.5 -68.5z" />
    <glyph glyph-name="p" unicode="p" horiz-adv-x="611" 
d="M135 468h78l-9 -68h2q38 38 83 59t96 21q55 0 97.5 -18.5t70.5 -51.5t39 -78t4 -98t-31.5 -98t-60.5 -78t-81.5 -51.5t-94.5 -18.5q-63 0 -106.5 27.5t-60.5 67.5h-2l-44 -311h-78zM180 234q-5 -37 2.5 -68.5t26 -55t47 -37t66.5 -13.5t70.5 13.5t57.5 37t41 55t21 68.5
t-2 68.5t-25.5 55t-47 37t-66.5 13.5t-70.5 -13.5t-57.5 -37t-41.5 -55t-21.5 -68.5z" />
    <glyph glyph-name="q" unicode="q" horiz-adv-x="611" 
d="M508 -228h-78l42 296h-2q-38 -38 -83 -59t-96 -21q-55 0 -98 18.5t-70.5 51.5t-39.5 78t-4 98q7 52 32 97t61 78t81.5 52t94.5 19q63 0 106.5 -27.5t60.5 -67.5h2l11 83h78zM495 234q5 37 -2 68.5t-25.5 55t-47 37t-66.5 13.5t-70.5 -13.5t-57.5 -37t-41.5 -55
t-21.5 -68.5t2.5 -68.5t26 -55t47 -37t66.5 -13.5t70.5 13.5t57.5 37t41 55t21 68.5z" />
    <glyph glyph-name="r" unicode="r" horiz-adv-x="352" 
d="M124 357q5 32 6.5 60t4.5 51h74l-4 -38t-5 -39h2q10 17 27 33t39 28.5t48 20t55 7.5q8 0 15.5 -1t15.5 -4l-16 -79q-18 6 -41 6q-72 0 -111 -46.5t-50 -127.5l-32 -228h-78z" />
    <glyph glyph-name="s" unicode="s" horiz-adv-x="426" 
d="M101 123q19 -29 44 -46t67 -17q18 0 37 4t35 13t27 22.5t14 32.5t-4 31t-20 20.5t-30.5 13.5t-35.5 9q-32 7 -61 16t-49 23.5t-30 37.5t-5 59q4 34 23 60t46 43t59.5 26t65.5 9q50 0 89.5 -20t57.5 -65l-71 -43q-11 25 -33.5 40.5t-57.5 15.5q-16 0 -33 -4t-31.5 -12
t-24.5 -20.5t-12 -28.5q-2 -15 6 -25.5t23 -18.5t35.5 -14t43.5 -10q30 -6 56.5 -15.5t45.5 -25.5t27.5 -40t3.5 -59q-5 -40 -25 -68t-49 -45.5t-63.5 -25.5t-69.5 -8q-60 0 -101 18.5t-69 68.5z" />
    <glyph glyph-name="t" unicode="t" horiz-adv-x="352" 
d="M386 402h-138l-33 -234q-3 -23 -4.5 -42.5t3 -34t17.5 -23t39 -8.5q17 0 35.5 4t35.5 12l-7 -71q-21 -9 -46 -13t-47 -4q-42 0 -65.5 11t-34.5 31t-11.5 49.5t4.5 65.5l36 257h-102l9 66h102l19 133h78l-19 -133h138z" />
    <glyph glyph-name="u" unicode="u" 
d="M497 111q-5 -32 -6.5 -60t-4.5 -51h-74l4 38t4 39h-2q-10 -17 -27 -33t-38.5 -28.5t-47.5 -20t-55 -7.5q-46 0 -77.5 14t-50 39t-24 60.5t0.5 77.5l40 289h78l-39 -281q-8 -59 13 -93t76 -34q76 0 117.5 50t52.5 130l32 228h78z" />
    <glyph glyph-name="v" unicode="v" horiz-adv-x="482" 
d="M287 0h-86l-126 468h91l95 -367h2l190 367h84z" />
    <glyph glyph-name="w" unicode="w" horiz-adv-x="741" 
d="M576 0h-77l-83 360h-2l-168 -360h-80l-87 468h86l57 -360h2l171 360h82l73 -360h2l156 360h84z" />
    <glyph glyph-name="x" unicode="x" horiz-adv-x="500" 
d="M230 252l-138 216h102l101 -168l140 168h95l-191 -216l158 -252h-103l-120 202l-174 -202h-97z" />
    <glyph glyph-name="y" unicode="y" horiz-adv-x="482" 
d="M230 -107q-16 -30 -32 -54.5t-35.5 -42t-45.5 -27t-61 -9.5q-17 0 -35.5 2t-32.5 10l19 68q20 -8 54 -8q38 0 59 21t39 56l44 88l-128 471h91l94 -367h2l190 367h85z" />
    <glyph glyph-name="z" unicode="z" horiz-adv-x="444" 
d="M38 61l323 341h-263l9 66h365l-8 -60l-323 -342h282l-9 -66h-384z" />
    <glyph glyph-name="braceleft" unicode="{" horiz-adv-x="333" 
d="M388 672h-54q-16 0 -26.5 -6.5t-17.5 -18t-10.5 -25.5t-5.5 -29l-25 -176q-5 -34 -18.5 -57.5t-29.5 -38.5t-31.5 -22.5t-24.5 -9.5v-2q8 -1 21.5 -7.5t25.5 -21t19 -39t2 -61.5l-25 -175q-2 -15 -2 -29t3.5 -25t12 -18t24.5 -7h54l-8 -60h-70q-19 0 -36.5 8t-30.5 24
t-19 39.5t-2 53.5l25 175q4 27 -0.5 48t-15 36t-24.5 22.5t-30 7.5l8 60q32 0 63 30.5t39 82.5l25 176q4 30 17 53.5t30.5 39.5t37 24t37.5 8h70z" />
    <glyph glyph-name="bar" unicode="|" horiz-adv-x="222" 
d="M249 750l-141 -1000h-66l141 1000h66z" />
    <glyph glyph-name="braceright" unicode="}" horiz-adv-x="333" 
d="M141 732h70q18 0 35.5 -8t30.5 -24t19.5 -39.5t2.5 -53.5l-25 -176q-4 -26 0.5 -47t15 -35.5t24.5 -22.5t30 -8l-8 -60q-32 0 -63 -30t-39 -84l-25 -175q-4 -30 -16.5 -53.5t-30 -39.5t-37 -24t-38.5 -8h-70l8 60h54q16 0 26.5 7t17.5 18t10.5 25t5.5 29l25 175
q5 37 18.5 61.5t29.5 39t31.5 21t24.5 7.5v2q-8 2 -21.5 9.5t-25.5 22.5t-19 38.5t-2 57.5l25 176q2 15 2 29t-3.5 25.5t-12 18t-24.5 6.5h-54z" />
    <glyph glyph-name="asciitilde" unicode="~" horiz-adv-x="666" 
d="M608 324q-14 -16 -28.5 -31.5t-31 -28t-36 -20.5t-42.5 -8q-27 0 -51 9.5t-47 20.5q-27 13 -52.5 25.5t-57.5 12.5q-33 0 -55.5 -22t-38.5 -48l-26 48q13 16 28 31.5t31.5 28t36 20.5t42.5 8q27 0 50.5 -9.5t46.5 -20.5q27 -13 52.5 -25.5t57.5 -12.5q16 0 30 6t25.5 16
t21.5 22.5t18 25.5z" />
    <glyph glyph-name="uni00A0" unicode="&#xa0;" horiz-adv-x="278" 
 />
    <glyph glyph-name="exclamdown" unicode="&#xa1;" horiz-adv-x="278" 
d="M137 288h84l-72 -510h-84zM191 372q-25 0 -40 17.5t-12 42.5q4 25 25 42.5t44 17.5t39 -17.5t12 -42.5q-3 -25 -23 -42.5t-45 -17.5z" />
    <glyph glyph-name="cent" unicode="&#xa2;" 
d="M334 406q-66 -12 -104 -60t-47 -112t18.5 -111.5t83.5 -61.5zM275 -12q-47 6 -83 26.5t-59 52.5t-32 74.5t-2 92.5q7 49 28 91.5t53.5 74.5t74 52t89.5 25l9 69h48l-9 -66q48 -2 87 -20.5t67 -53.5l-70 -55q-35 51 -94 57l-49 -348q65 4 111 58l50 -55q-35 -36 -79.5 -54
t-91.5 -21l-9 -66h-48z" />
    <glyph glyph-name="sterling" unicode="&#xa3;" 
d="M67 78h108l36 252h-96l9 66h96l11 80q9 65 32 111.5t56 76t74.5 43t86.5 13.5t84.5 -15t67.5 -47l-63 -59q-20 23 -44 36t-57 13q-37 0 -63.5 -12.5t-44.5 -35.5t-28.5 -55t-16.5 -71l-11 -78h162l-9 -66h-162l-36 -252h246l-10 -78h-438z" />
    <glyph glyph-name="currency" unicode="&#xa4;" 
d="M155 354q-5 -35 4 -67t29 -57t49.5 -39.5t64.5 -14.5t68.5 14.5t60.5 39.5t45 57t23 67q5 36 -4 68.5t-29 57t-49.5 38.5t-64.5 14t-68.5 -14t-60 -38.5t-45 -57t-23.5 -68.5zM110 203q-44 66 -33 151q6 43 25.5 81.5t50.5 70.5l-47 54l50 44l47 -53q37 26 77 39.5
t82 13.5t79 -13.5t66 -39.5l61 53l38 -44l-61 -54q44 -64 32 -152q-5 -42 -24.5 -80t-50.5 -71l46 -55l-50 -44l-46 55q-37 -26 -77.5 -40.5t-82.5 -14.5t-78.5 14.5t-65.5 40.5l-62 -55l-38 44z" />
    <glyph glyph-name="yen" unicode="&#xa5;" 
d="M260 174h-159l8 60h159l10 71l-6 16h-150l8 60h114l-145 327h100l132 -327l224 327h100l-237 -327h114l-8 -60h-150l-12 -16l-10 -71h159l-8 -60h-159l-24 -174h-84z" />
    <glyph glyph-name="brokenbar" unicode="&#xa6;" horiz-adv-x="222" 
d="M238 675l-49 -350h-66l49 350h66zM168 175l-49 -350h-66l49 350h66z" />
    <glyph glyph-name="section" unicode="&#xa7;" 
d="M471 591q-8 33 -35.5 48t-59.5 15q-19 0 -38.5 -5t-36 -15.5t-28 -27t-14.5 -38.5q-6 -50 34 -72l91 -49q24 -12 49 -27t44.5 -34.5t30 -44.5t5.5 -59q-6 -46 -35 -79t-70 -54q30 -21 44 -51t8 -72q-6 -43 -28 -75t-53.5 -53t-70 -31.5t-76.5 -10.5q-65 0 -114 29.5
t-65 93.5l82 36q7 -46 37.5 -66.5t75.5 -20.5q21 0 41.5 5t37 16.5t28 29t14.5 41.5q3 21 -4.5 36.5t-20.5 27t-29.5 20t-31.5 16.5l-113 64q-32 18 -46.5 50t-8.5 72q7 53 40 86t80 54q-32 20 -49 48.5t-11 69.5q6 40 26.5 70.5t50.5 50.5t66 30.5t72 10.5q26 0 51.5 -5.5
t47 -16.5t38 -29t24.5 -43zM350 183q26 11 49.5 34.5t27.5 52.5q3 21 -4 37t-19.5 29t-28 22.5t-30.5 17.5l-54 29q-15 -6 -31 -13t-29.5 -17t-23.5 -23.5t-13 -32.5q-3 -20 3 -34t17 -25t25 -19t28 -15z" />
    <glyph glyph-name="dieresis" unicode="&#xa8;" horiz-adv-x="240" 
d="M117 684q23 0 36 -16t10 -38q-3 -23 -21 -38.5t-41 -15.5t-36 15.5t-10 38.5q3 22 21 38t41 16zM315 684q23 0 36 -16t10 -38q-3 -23 -21 -38.5t-41 -15.5t-36 15.5t-10 38.5q3 22 21 38t41 16z" />
    <glyph glyph-name="copyright" unicode="&#xa9;" horiz-adv-x="800" 
d="M639 282q-26 -72 -82 -114t-125 -42q-51 0 -89.5 17.5t-63 48t-34.5 72t-3 90.5t28 91t53.5 72t75.5 47t94 17q35 0 65.5 -9.5t52.5 -28.5t35 -47.5t13 -65.5h-61q-2 42 -31.5 69.5t-79.5 27.5q-37 0 -67.5 -13.5t-53.5 -36.5t-38 -54.5t-20 -68.5q-5 -35 1.5 -66.5
t24 -55.5t44 -38t62.5 -14q50 0 87 29t50 73h62zM77 354q11 79 50.5 147.5t97 118t129.5 78t148 28.5t139.5 -28.5t107 -78t63.5 -118t9 -147.5q-11 -80 -50.5 -148t-97 -117.5t-129 -78t-147.5 -28.5t-140 28.5t-107.5 78t-63.5 117.5t-9 148zM143 354q-9 -68 6.5 -126
t51 -100.5t88 -67t116.5 -24.5t123 24.5t106.5 67t79.5 100.5t41 126q10 67 -6 125.5t-51 101t-87.5 67t-116.5 24.5t-123.5 -24.5t-106.5 -67t-79 -101t-42 -125.5z" />
    <glyph glyph-name="ordfeminine" unicode="&#xaa;" horiz-adv-x="337" 
d="M366 473q-2 -11 -2 -21.5v-21.5h-61q0 22 3 45h-2q-17 -28 -44 -39.5t-63 -11.5q-46 0 -72.5 21.5t-20.5 66.5q5 35 27.5 54t52 28t61.5 11t57 2h23l2 14q2 14 -14 29.5t-53 15.5q-29 0 -55 -10t-38 -21l-25 42q26 22 59.5 32.5t66.5 10.5q72 0 98 -29.5t18 -89.5z
M270 559q-12 0 -28 -0.5t-31 -5t-26.5 -14t-13.5 -26.5t12.5 -26t39.5 -9q41 0 65.5 21t27.5 43l2 17h-48z" />
    <glyph glyph-name="guillemotleft" unicode="&#xab;" horiz-adv-x="500" 
d="M172 240l92 -178l-60 -36l-113 214l173 214l50 -36zM358 240l92 -178l-60 -36l-113 214l173 214l50 -36z" />
    <glyph glyph-name="logicalnot" unicode="&#xac;" horiz-adv-x="666" 
d="M130 414h522l-39 -278h-66l29 212h-456z" />
    <glyph glyph-name="uni00AD" unicode="&#xad;" horiz-adv-x="333" 
d="M82 276h245l-10 -72h-245z" />
    <glyph glyph-name="registered" unicode="&#xae;" horiz-adv-x="800" 
d="M338 572h164q152 0 134 -124q-8 -59 -45 -86.5t-86 -32.5l98 -192h-71l-92 187h-71l-26 -187h-66zM377 378h68q22 0 43 1.5t38.5 8.5t29 22t15.5 41q3 22 -4 35.5t-20 20.5t-30 9t-34 2h-87zM77 354q11 79 50.5 147.5t97 118t129.5 78t148 28.5t139.5 -28.5t107 -78
t63.5 -118t9 -147.5q-11 -80 -50.5 -148t-97 -117.5t-129 -78t-147.5 -28.5t-140 28.5t-107.5 78t-63.5 117.5t-9 148zM143 354q-9 -68 6.5 -126t51 -100.5t88 -67t116.5 -24.5t123 24.5t106.5 67t79.5 100.5t41 126q10 67 -6 125.5t-51 101t-87.5 67t-116.5 24.5
t-123.5 -24.5t-106.5 -67t-79 -101t-42 -125.5z" />
    <glyph glyph-name="macron" unicode="&#xaf;" horiz-adv-x="240" 
d="M342 600h-276l8 60h276z" />
    <glyph glyph-name="degree" unicode="&#xb0;" horiz-adv-x="400" 
d="M138 577q4 30 19 56t37 45.5t49.5 30.5t57.5 11t54.5 -11t41 -30.5t24 -45.5t3.5 -56q-5 -30 -19.5 -56t-37 -45.5t-50 -30.5t-57.5 -11t-54.5 11t-41 30.5t-24 45.5t-2.5 56zM192 577q-2 -15 2 -31t14 -29t25 -21t35 -8t37.5 8t31 21t22.5 29t11 31t-2.5 31t-14.5 29
t-25 21t-35 8t-37.5 -8t-31 -21t-22 -29t-10.5 -31z" />
    <glyph glyph-name="plusminus" unicode="&#xb1;" horiz-adv-x="666" 
d="M127 396h228l24 168h66l-24 -168h228l-9 -66h-228l-24 -168h-66l24 168h-228zM87 108h522l-10 -66h-522z" />
    <glyph glyph-name="twosuperior" unicode="&#xb2;" horiz-adv-x="361" 
d="M80 347l189 151q32 25 50 45t23 52q5 33 -14 52t-48 19q-32 0 -57 -18t-35 -49l-63 5q18 60 61.5 88t99.5 28q28 0 52.5 -7.5t41.5 -23t24.5 -39t3.5 -55.5q-3 -26 -13.5 -46t-25.5 -37.5t-33 -32.5t-37 -30l-135 -104v-2h213l-8 -54h-297z" />
    <glyph glyph-name="threesuperior" unicode="&#xb3;" horiz-adv-x="361" 
d="M215 538h17q12 0 28.5 2.5t31.5 9.5t27 20.5t15 36.5q5 32 -14.5 45.5t-48.5 13.5q-26 0 -48.5 -9t-38.5 -33l-51 25q24 38 62.5 54.5t83.5 16.5q27 0 51 -7t40.5 -21t25 -35t4.5 -48q-5 -33 -31 -60t-62 -37v-2q44 -6 64.5 -36t14.5 -70q-4 -30 -19.5 -52.5t-38.5 -37.5
t-51.5 -23t-59.5 -8q-52 0 -88 20.5t-46 71.5l57 23q3 -10 8.5 -21t16 -20t25 -14.5t35.5 -5.5q16 0 32.5 4.5t29.5 13t22 21.5t12 31q3 24 -5 39t-22.5 23.5t-33 11.5t-36.5 3h-16z" />
    <glyph glyph-name="acute" unicode="&#xb4;" horiz-adv-x="240" 
d="M254 708h110l-163 -144h-71z" />
    <glyph glyph-name="mu" unicode="&#xb5;" 
d="M497 111q-5 -32 -6.5 -60t-4.5 -51h-74l4 38t4 39h-2q-10 -17 -27 -33t-38.5 -28.5t-47.5 -20t-55 -7.5q-32 0 -53.5 5.5t-43.5 19.5l-34 -241h-78l98 696h78l-39 -281q-8 -59 13 -93t76 -34q76 0 117.5 50t52.5 130l32 228h78z" />
    <glyph glyph-name="paragraph" unicode="&#xb6;" horiz-adv-x="600" 
d="M336 316q-46 0 -82.5 14.5t-60.5 39.5t-35 59t-5 73q14 98 82.5 152t174.5 54h243l-117 -834h-72l108 768h-118l-108 -768h-72z" />
    <glyph glyph-name="periodcentered" unicode="&#xb7;" horiz-adv-x="278" 
d="M190 369q25 0 40.5 -17.5t11.5 -42.5t-25 -42.5t-44 -17.5t-39 17.5t-12 42.5t23.5 42.5t44.5 17.5z" />
    <glyph glyph-name="cedilla" unicode="&#xb8;" horiz-adv-x="240" 
d="M104 -64q7 1 15 2.5t20 1.5q13 0 26.5 -4t24 -12.5t16.5 -21.5t3 -31q-3 -24 -16 -41t-31.5 -27.5t-40 -15t-41.5 -4.5q-26 0 -50.5 5t-44.5 16l21 37q34 -16 70 -16q20 0 41.5 8.5t25.5 32.5q3 21 -13.5 29.5t-33.5 8.5q-10 0 -20.5 -2.5t-19.5 -5.5l-17 19l74 85h45z
" />
    <glyph glyph-name="onesuperior" unicode="&#xb9;" horiz-adv-x="361" 
d="M263 641h-2l-91 -66l-26 46l137 93h58l-60 -425h-66z" />
    <glyph glyph-name="ordmasculine" unicode="&#xba;" horiz-adv-x="386" 
d="M110 573q4 33 20.5 60t41 46.5t56 30t66.5 10.5t63.5 -10.5t47.5 -30t27 -46.5t4 -60q-5 -34 -21 -61.5t-40.5 -47t-56 -30t-66.5 -10.5t-63.5 10.5t-47.5 30t-27.5 47t-3.5 61.5zM176 573q-3 -19 1.5 -36t15.5 -30t27.5 -21t39.5 -8q22 0 41.5 8t33.5 21t23 30.5
t12 35.5t-1.5 34.5t-15.5 29.5t-28 21t-39 8q-23 0 -42 -8t-33 -21t-23 -29.5t-12 -34.5z" />
    <glyph glyph-name="guillemotright" unicode="&#xbb;" horiz-adv-x="500" 
d="M208 240l-92 178l60 36l113 -214l-173 -214l-50 36zM394 240l-92 178l60 36l113 -214l-173 -214l-50 36z" />
    <glyph glyph-name="onequarter" unicode="&#xbc;" horiz-adv-x="834" 
d="M697 740l50 -32l-548 -740l-50 32zM245 642h-2l-91 -67l-26 46l137 93h58l-60 -425h-66zM759 144h56l-8 -54h-56l-12 -90h-66l12 90h-195l9 63l221 272h78zM721 347h-2l-161 -203h135z" />
    <glyph glyph-name="onehalf" unicode="&#xbd;" horiz-adv-x="834" 
d="M680 740l50 -32l-548 -740l-50 32zM239 642h-2l-91 -67l-26 46l137 93h58l-60 -425h-66zM512 58l189 151q32 25 50 45t23 52q2 16 -2 29.5t-13 22.5t-21.5 14t-26.5 5q-32 0 -56.5 -18t-35.5 -49l-62 5q17 60 60.5 88t99.5 28q28 0 52.5 -7.5t42 -23t25 -39t3.5 -55.5
q-4 -26 -14 -46t-25 -37.5t-33.5 -32.5t-37.5 -30l-135 -104v-2h213l-7 -54h-297z" />
    <glyph glyph-name="threequarters" unicode="&#xbe;" horiz-adv-x="834" 
d="M736 740l50 -32l-548 -740l-50 32zM210 538h16q13 0 29.5 2.5t31.5 9.5t27 20.5t15 36.5q5 32 -14.5 45.5t-48.5 13.5q-26 0 -48.5 -9t-38.5 -33l-51 25q24 38 62.5 54.5t83.5 16.5q27 0 51 -7t40.5 -21t25 -35t4.5 -48q-5 -33 -31 -60t-62 -37v-2q44 -6 64.5 -36
t14.5 -70q-4 -30 -19.5 -52.5t-38.5 -37.5t-51.5 -23t-59.5 -8q-52 0 -88 20.5t-47 71.5l58 23q3 -10 8.5 -21t16 -20t25 -14.5t35.5 -5.5q16 0 32.5 4.5t29.5 13t22 21.5t12 31q3 24 -5 39t-22.5 23.5t-33 11.5t-36.5 3h-16zM773 144h56l-8 -54h-56l-12 -90h-66l12 90h-195
l9 63l221 272h78zM735 347h-2l-161 -201v-2h135z" />
    <glyph glyph-name="questiondown" unicode="&#xbf;" horiz-adv-x="482" 
d="M445 -69q-13 -41 -36 -73t-54 -53.5t-68.5 -33t-78.5 -11.5t-75 11.5t-57 34t-33.5 56t-4.5 76.5q4 33 17.5 59.5t32 49t42 43t49.5 41.5q18 15 29 26t18 23t10.5 26.5t6.5 35.5l6 46h84l-9 -63q-4 -28 -10 -46t-16 -32.5t-25.5 -29t-37.5 -33.5q-18 -16 -35.5 -31.5
t-32.5 -32.5t-25.5 -36t-13.5 -43q-7 -48 17 -78.5t74 -30.5q51 0 87 30t50 79zM303 372q-25 0 -40 17.5t-12 42.5q4 25 25 42.5t44 17.5t39 -17.5t12 -42.5q-3 -25 -23 -42.5t-45 -17.5z" />
    <glyph glyph-name="Agrave" unicode="&#xc0;" horiz-adv-x="704" 
d="M417 708h79l202 -708h-98l-48 174h-354l-97 -174h-95zM440 600h-2l-196 -348h289zM527 758h-71l-123 144h110z" />
    <glyph glyph-name="Aacute" unicode="&#xc1;" horiz-adv-x="704" 
d="M417 708h79l202 -708h-98l-48 174h-354l-97 -174h-95zM440 600h-2l-196 -348h289zM513 902h110l-163 -144h-71z" />
    <glyph glyph-name="Acircumflex" unicode="&#xc2;" horiz-adv-x="704" 
d="M417 708h79l202 -708h-98l-48 174h-354l-97 -174h-95zM440 600h-2l-196 -348h289zM432 902h91l92 -144h-81l-65 102l-92 -102h-76z" />
    <glyph glyph-name="Atilde" unicode="&#xc3;" horiz-adv-x="704" 
d="M417 708h79l202 -708h-98l-48 174h-354l-97 -174h-95zM440 600h-2l-196 -348h289zM293 770q6 19 16 38t24 33.5t32.5 23.5t41.5 9t42.5 -7.5t38.5 -15.5q14 -6 25 -11.5t27 -5.5q20 0 33 13t21 31h48q-6 -19 -15 -37.5t-22.5 -33.5t-31 -24t-39.5 -9q-21 0 -40.5 6.5
t-37.5 14.5q-14 6 -30 12.5t-33 6.5q-19 0 -31.5 -13.5t-20.5 -30.5h-48z" />
    <glyph glyph-name="Adieresis" unicode="&#xc4;" horiz-adv-x="704" 
d="M417 708h79l202 -708h-98l-48 174h-354l-97 -174h-95zM440 600h-2l-196 -348h289zM376 878q23 0 36 -16t10 -38q-3 -23 -20.5 -38.5t-40.5 -15.5t-36.5 15.5t-10.5 38.5q3 22 21 38t41 16zM574 878q23 0 36 -16t10 -38q-3 -23 -20.5 -38.5t-40.5 -15.5t-36.5 15.5
t-10.5 38.5q3 22 21 38t41 16z" />
    <glyph glyph-name="Aring" unicode="&#xc5;" horiz-adv-x="704" 
d="M417 708h79l202 -708h-98l-48 174h-354l-97 -174h-95zM440 600h-2l-196 -348h289zM369 829q3 20 13 38t25 31.5t34.5 21.5t40.5 8q45 0 67.5 -29.5t17.5 -69.5q-3 -21 -13 -39t-25 -31.5t-34.5 -21t-40.5 -7.5q-43 0 -67 28.5t-18 70.5zM411 829q-4 -25 11.5 -41
t37.5 -16t41.5 16t23.5 41q4 24 -11.5 40.5t-37.5 16.5t-41.5 -16.5t-23.5 -40.5z" />
    <glyph glyph-name="AE" unicode="&#xc6;" horiz-adv-x="944" 
d="M549 708h435l-11 -78h-294l-31 -222h276l-11 -78h-276l-36 -252h306l-10 -78h-390l26 192h-293l-149 -192h-101zM595 630h-12l-282 -360h243z" />
    <glyph glyph-name="Ccedilla" unicode="&#xc7;" horiz-adv-x="704" 
d="M662 562q-26 43 -69.5 64.5t-94.5 21.5q-59 0 -112 -24t-95 -64.5t-69.5 -94t-35.5 -111.5q-9 -62 3.5 -115.5t42.5 -93t76.5 -62.5t106.5 -23q65 0 119.5 25.5t99.5 73.5l55 -53q-57 -64 -128.5 -94t-156.5 -30l-38 -46q7 1 15 2.5t20 1.5q13 0 26.5 -4t24 -12.5
t16.5 -21.5t3 -31q-3 -24 -16 -41t-31.5 -27.5t-40 -15t-41.5 -4.5q-26 0 -50.5 5t-45.5 16l22 37q34 -16 70 -16q20 0 41.5 8.5t25.5 32.5q3 21 -13.5 29.5t-33.5 8.5q-10 0 -20.5 -2.5t-19.5 -5.5l-17 19l60 70q-67 7 -120.5 37.5t-89 79t-51 113t-4.5 139.5
q11 78 47.5 146t91.5 118t125 79t149 29q72 0 134.5 -26t99.5 -85z" />
    <glyph glyph-name="Egrave" unicode="&#xc8;" horiz-adv-x="593" 
d="M187 708h445l-11 -78h-361l-31 -222h337l-11 -78h-337l-36 -252h379l-10 -78h-463zM472 758h-71l-123 144h110z" />
    <glyph glyph-name="Eacute" unicode="&#xc9;" horiz-adv-x="593" 
d="M187 708h445l-11 -78h-361l-31 -222h337l-11 -78h-337l-36 -252h379l-10 -78h-463zM458 902h110l-163 -144h-71z" />
    <glyph glyph-name="Ecircumflex" unicode="&#xca;" horiz-adv-x="593" 
d="M187 708h445l-11 -78h-361l-31 -222h337l-11 -78h-337l-36 -252h379l-10 -78h-463zM377 902h91l92 -144h-81l-65 102l-92 -102h-76z" />
    <glyph glyph-name="Edieresis" unicode="&#xcb;" horiz-adv-x="593" 
d="M187 708h445l-11 -78h-361l-31 -222h337l-11 -78h-337l-36 -252h379l-10 -78h-463zM321 878q23 0 36 -16t10 -38q-3 -23 -20.5 -38.5t-40.5 -15.5t-36.5 15.5t-10.5 38.5q3 22 21 38t41 16zM519 878q23 0 36 -16t10 -38q-3 -23 -20.5 -38.5t-40.5 -15.5t-36.5 15.5
t-10.5 38.5q3 22 21 38t41 16z" />
    <glyph glyph-name="Igrave" unicode="&#xcc;" horiz-adv-x="260" 
d="M187 708h84l-99 -708h-84zM305 758h-71l-123 144h110z" />
    <glyph glyph-name="Iacute" unicode="&#xcd;" horiz-adv-x="260" 
d="M187 708h84l-99 -708h-84zM291 902h110l-163 -144h-71z" />
    <glyph glyph-name="Icircumflex" unicode="&#xce;" horiz-adv-x="260" 
d="M187 708h84l-99 -708h-84zM210 902h91l92 -144h-81l-65 102l-92 -102h-76z" />
    <glyph glyph-name="Idieresis" unicode="&#xcf;" horiz-adv-x="260" 
d="M187 708h84l-99 -708h-84zM154 878q23 0 36 -16t10 -38q-3 -23 -20.5 -38.5t-40.5 -15.5t-36.5 15.5t-10.5 38.5q3 22 21 38t41 16zM352 878q23 0 36 -16t10 -38q-3 -23 -20.5 -38.5t-40.5 -15.5t-36.5 15.5t-10.5 38.5q3 22 21 38t41 16z" />
    <glyph glyph-name="Eth" unicode="&#xd0;" horiz-adv-x="741" 
d="M174 708h272q52 0 110 -18.5t104.5 -60.5t71.5 -109.5t11 -165.5q-9 -65 -32 -116.5t-55.5 -91t-72 -67.5t-80.5 -45.5t-81 -25.5t-75 -8h-272l47 336h-72l9 66h72zM215 402h252l-9 -66h-252l-37 -258h160q61 0 115.5 16t97.5 49.5t72 85.5t39 125t-4 125t-47.5 85.5
t-83.5 49.5t-111 16h-160z" />
    <glyph glyph-name="Ntilde" unicode="&#xd1;" horiz-adv-x="778" 
d="M187 708h106l327 -588h2l83 588h84l-99 -708h-106l-328 588h-2l-82 -588h-84zM330 770q6 19 16 38t24 33.5t32.5 23.5t41.5 9t42.5 -7.5t38.5 -15.5q14 -6 25 -11.5t27 -5.5q20 0 33 13t21 31h48q-6 -19 -15 -37.5t-22.5 -33.5t-31 -24t-39.5 -9q-21 0 -40.5 6.5
t-37.5 14.5q-14 6 -30 12.5t-33 6.5q-19 0 -31.5 -13.5t-20.5 -30.5h-48z" />
    <glyph glyph-name="Ograve" unicode="&#xd2;" horiz-adv-x="834" 
d="M414 -18q-81 0 -145 28t-106 77.5t-60 118t-7 148.5t48.5 148.5t93.5 118t128 77.5t153 28t144.5 -28t105.5 -77.5t60 -118t7 -148.5t-48 -148.5t-93.5 -118t-128 -77.5t-152.5 -28zM425 60q62 0 117 23t97.5 63t70 93.5t36.5 114.5t-4 114.5t-44 93.5t-79.5 63
t-110.5 23t-117 -23t-97.5 -63t-70.5 -93.5t-37 -114.5t4 -114.5t44.5 -93.5t80 -63t110.5 -23zM592 758h-71l-123 144h110z" />
    <glyph glyph-name="Oacute" unicode="&#xd3;" horiz-adv-x="834" 
d="M414 -18q-81 0 -145 28t-106 77.5t-60 118t-7 148.5t48.5 148.5t93.5 118t128 77.5t153 28t144.5 -28t105.5 -77.5t60 -118t7 -148.5t-48 -148.5t-93.5 -118t-128 -77.5t-152.5 -28zM425 60q62 0 117 23t97.5 63t70 93.5t36.5 114.5t-4 114.5t-44 93.5t-79.5 63
t-110.5 23t-117 -23t-97.5 -63t-70.5 -93.5t-37 -114.5t4 -114.5t44.5 -93.5t80 -63t110.5 -23zM578 902h110l-163 -144h-71z" />
    <glyph glyph-name="Ocircumflex" unicode="&#xd4;" horiz-adv-x="834" 
d="M414 -18q-81 0 -145 28t-106 77.5t-60 118t-7 148.5t48.5 148.5t93.5 118t128 77.5t153 28t144.5 -28t105.5 -77.5t60 -118t7 -148.5t-48 -148.5t-93.5 -118t-128 -77.5t-152.5 -28zM425 60q62 0 117 23t97.5 63t70 93.5t36.5 114.5t-4 114.5t-44 93.5t-79.5 63
t-110.5 23t-117 -23t-97.5 -63t-70.5 -93.5t-37 -114.5t4 -114.5t44.5 -93.5t80 -63t110.5 -23zM497 902h91l92 -144h-81l-65 102l-92 -102h-76z" />
    <glyph glyph-name="Otilde" unicode="&#xd5;" horiz-adv-x="834" 
d="M414 -18q-81 0 -145 28t-106 77.5t-60 118t-7 148.5t48.5 148.5t93.5 118t128 77.5t153 28t144.5 -28t105.5 -77.5t60 -118t7 -148.5t-48 -148.5t-93.5 -118t-128 -77.5t-152.5 -28zM425 60q62 0 117 23t97.5 63t70 93.5t36.5 114.5t-4 114.5t-44 93.5t-79.5 63
t-110.5 23t-117 -23t-97.5 -63t-70.5 -93.5t-37 -114.5t4 -114.5t44.5 -93.5t80 -63t110.5 -23zM358 770q6 19 16 38t24 33.5t32.5 23.5t41.5 9t42.5 -7.5t38.5 -15.5q14 -6 25 -11.5t27 -5.5q20 0 33 13t21 31h48q-6 -19 -15 -37.5t-22.5 -33.5t-31 -24t-39.5 -9
q-21 0 -40.5 6.5t-37.5 14.5q-14 6 -30 12.5t-33 6.5q-19 0 -31.5 -13.5t-20.5 -30.5h-48z" />
    <glyph glyph-name="Odieresis" unicode="&#xd6;" horiz-adv-x="834" 
d="M414 -18q-81 0 -145 28t-106 77.5t-60 118t-7 148.5t48.5 148.5t93.5 118t128 77.5t153 28t144.5 -28t105.5 -77.5t60 -118t7 -148.5t-48 -148.5t-93.5 -118t-128 -77.5t-152.5 -28zM425 60q62 0 117 23t97.5 63t70 93.5t36.5 114.5t-4 114.5t-44 93.5t-79.5 63
t-110.5 23t-117 -23t-97.5 -63t-70.5 -93.5t-37 -114.5t4 -114.5t44.5 -93.5t80 -63t110.5 -23zM441 878q23 0 36 -16t10 -38q-3 -23 -20.5 -38.5t-40.5 -15.5t-36.5 15.5t-10.5 38.5q3 22 21 38t41 16zM639 878q23 0 36 -16t10 -38q-3 -23 -20.5 -38.5t-40.5 -15.5
t-36.5 15.5t-10.5 38.5q3 22 21 38t41 16z" />
    <glyph glyph-name="multiply" unicode="&#xd7;" horiz-adv-x="666" 
d="M382 351l220 193l41 -47l-221 -194l167 -192l-55 -49l-166 194l-220 -194l-41 47l220 194l-166 192l56 49z" />
    <glyph glyph-name="Oslash" unicode="&#xd8;" horiz-adv-x="834" 
d="M256 124q30 -30 73 -47t96 -17q62 0 117 23t97.5 63t70 93.5t36.5 114.5q8 57 -2.5 107t-36.5 89zM672 589q-31 28 -72 43.5t-92 15.5q-62 0 -117 -23t-97.5 -63t-70.5 -93.5t-37 -114.5q-8 -55 2 -103.5t35 -86.5zM154 99q-38 50 -53.5 114.5t-4.5 140.5
q11 80 48.5 148.5t93.5 118t128 77.5t153 28q67 0 122 -19.5t97 -55.5l91 87l37 -38l-91 -86q39 -49 55.5 -115.5t5.5 -144.5q-11 -80 -48 -148.5t-93.5 -118t-128 -77.5t-152.5 -28q-70 0 -126.5 20.5t-98.5 58.5l-93 -88l-35 38z" />
    <glyph glyph-name="Ugrave" unicode="&#xd9;" horiz-adv-x="704" 
d="M656 270q-8 -58 -29.5 -110t-59 -91.5t-91.5 -63t-127 -23.5t-120.5 23.5t-74 63t-33.5 91.5t1 110l62 438h84l-60 -426q-6 -43 -3 -83t20 -71t49.5 -49.5t85.5 -18.5t90.5 18.5t63 49.5t40 71t20.5 83l60 426h84zM527 758h-71l-123 144h110z" />
    <glyph glyph-name="Uacute" unicode="&#xda;" horiz-adv-x="704" 
d="M656 270q-8 -58 -29.5 -110t-59 -91.5t-91.5 -63t-127 -23.5t-120.5 23.5t-74 63t-33.5 91.5t1 110l62 438h84l-60 -426q-6 -43 -3 -83t20 -71t49.5 -49.5t85.5 -18.5t90.5 18.5t63 49.5t40 71t20.5 83l60 426h84zM513 902h110l-163 -144h-71z" />
    <glyph glyph-name="Ucircumflex" unicode="&#xdb;" horiz-adv-x="704" 
d="M656 270q-8 -58 -29.5 -110t-59 -91.5t-91.5 -63t-127 -23.5t-120.5 23.5t-74 63t-33.5 91.5t1 110l62 438h84l-60 -426q-6 -43 -3 -83t20 -71t49.5 -49.5t85.5 -18.5t90.5 18.5t63 49.5t40 71t20.5 83l60 426h84zM432 902h91l92 -144h-81l-65 102l-92 -102h-76z" />
    <glyph glyph-name="Udieresis" unicode="&#xdc;" horiz-adv-x="704" 
d="M656 270q-8 -58 -29.5 -110t-59 -91.5t-91.5 -63t-127 -23.5t-120.5 23.5t-74 63t-33.5 91.5t1 110l62 438h84l-60 -426q-6 -43 -3 -83t20 -71t49.5 -49.5t85.5 -18.5t90.5 18.5t63 49.5t40 71t20.5 83l60 426h84zM376 878q23 0 36 -16t10 -38q-3 -23 -20.5 -38.5
t-40.5 -15.5t-36.5 15.5t-10.5 38.5q3 22 21 38t41 16zM574 878q23 0 36 -16t10 -38q-3 -23 -20.5 -38.5t-40.5 -15.5t-36.5 15.5t-10.5 38.5q3 22 21 38t41 16z" />
    <glyph glyph-name="Yacute" unicode="&#xdd;" horiz-adv-x="594" 
d="M297 305l-207 403h107l154 -320l250 320h101l-321 -403l-42 -305h-84zM458 902h110l-163 -144h-71z" />
    <glyph glyph-name="Thorn" unicode="&#xde;" horiz-adv-x="593" 
d="M187 708h84l-18 -125h126q49 0 92.5 -9.5t74.5 -32t46.5 -60t7.5 -92.5q-8 -58 -35.5 -96t-64.5 -60t-79.5 -31t-79.5 -9h-142l-27 -193h-84zM210 271h142q63 0 106.5 28.5t51.5 88.5t-27.5 88.5t-98.5 28.5h-142z" />
    <glyph glyph-name="germandbls" unicode="&#xdf;" horiz-adv-x="593" 
d="M149 540q7 46 25 87t48.5 72.5t74.5 50t103 18.5q41 0 75 -12t57.5 -34.5t34 -55.5t4.5 -76q-8 -57 -41.5 -98t-90.5 -60v-2q41 -4 70 -22.5t46.5 -47.5t23.5 -65.5t0 -76.5q-8 -53 -32 -95.5t-60 -72.5t-82 -46t-97 -16q-16 0 -31.5 2t-29.5 7l10 71q12 -5 24.5 -6.5
t26.5 -1.5q37 0 69.5 12t57 33.5t40.5 52t21 67.5q11 80 -32 125t-121 45h-23l9 66h22q27 0 51 8.5t42.5 24t31 37.5t16.5 50q7 54 -23.5 84.5t-82.5 30.5q-40 0 -68 -13.5t-47 -36t-30 -52t-15 -61.5l-74 -533h-78z" />
    <glyph glyph-name="agrave" unicode="&#xe0;" horiz-adv-x="519" 
d="M125 408q42 37 93.5 54.5t102.5 17.5q104 0 143 -49t25 -149l-28 -201q-3 -20 -4 -41.5t0 -39.5h-75q-2 16 0 35.5t4 34.5h-2q-28 -36 -69.5 -59t-95.5 -23q-36 0 -66 9t-51.5 26.5t-32 43.5t-5.5 60q8 58 42.5 91t81.5 49t99 20t95 4h30l2 14q8 51 -19 77t-82 26
q-38 0 -76.5 -12.5t-69.5 -38.5zM325 225q-75 0 -122 -21t-54 -69q-6 -44 21 -62.5t71 -18.5q34 0 61 11.5t47 30.5t32.5 44.5t17.5 54.5l4 30h-78zM408 580h-71l-123 144h110z" />
    <glyph glyph-name="aacute" unicode="&#xe1;" horiz-adv-x="519" 
d="M125 408q42 37 93.5 54.5t102.5 17.5q104 0 143 -49t25 -149l-28 -201q-3 -20 -4 -41.5t0 -39.5h-75q-2 16 0 35.5t4 34.5h-2q-28 -36 -69.5 -59t-95.5 -23q-36 0 -66 9t-51.5 26.5t-32 43.5t-5.5 60q8 58 42.5 91t81.5 49t99 20t95 4h30l2 14q8 51 -19 77t-82 26
q-38 0 -76.5 -12.5t-69.5 -38.5zM325 225q-75 0 -122 -21t-54 -69q-6 -44 21 -62.5t71 -18.5q34 0 61 11.5t47 30.5t32.5 44.5t17.5 54.5l4 30h-78zM394 724h110l-163 -144h-71z" />
    <glyph glyph-name="acircumflex" unicode="&#xe2;" horiz-adv-x="519" 
d="M125 408q42 37 93.5 54.5t102.5 17.5q104 0 143 -49t25 -149l-28 -201q-3 -20 -4 -41.5t0 -39.5h-75q-2 16 0 35.5t4 34.5h-2q-28 -36 -69.5 -59t-95.5 -23q-36 0 -66 9t-51.5 26.5t-32 43.5t-5.5 60q8 58 42.5 91t81.5 49t99 20t95 4h30l2 14q8 51 -19 77t-82 26
q-38 0 -76.5 -12.5t-69.5 -38.5zM325 225q-75 0 -122 -21t-54 -69q-6 -44 21 -62.5t71 -18.5q34 0 61 11.5t47 30.5t32.5 44.5t17.5 54.5l4 30h-78zM313 724h91l92 -144h-81l-65 102l-92 -102h-76z" />
    <glyph glyph-name="atilde" unicode="&#xe3;" horiz-adv-x="519" 
d="M125 408q42 37 93.5 54.5t102.5 17.5q104 0 143 -49t25 -149l-28 -201q-3 -20 -4 -41.5t0 -39.5h-75q-2 16 0 35.5t4 34.5h-2q-28 -36 -69.5 -59t-95.5 -23q-36 0 -66 9t-51.5 26.5t-32 43.5t-5.5 60q8 58 42.5 91t81.5 49t99 20t95 4h30l2 14q8 51 -19 77t-82 26
q-38 0 -76.5 -12.5t-69.5 -38.5zM325 225q-75 0 -122 -21t-54 -69q-6 -44 21 -62.5t71 -18.5q34 0 61 11.5t47 30.5t32.5 44.5t17.5 54.5l4 30h-78zM173 592q6 19 16.5 38t25 33.5t33 23.5t40.5 9q23 0 42 -7.5t39 -15.5q14 -6 24.5 -11.5t26.5 -5.5q20 0 33.5 13t21.5 31
h48q-6 -19 -15.5 -37.5t-22.5 -33.5t-30.5 -24t-39.5 -9q-21 0 -40.5 6.5t-37.5 14.5q-14 6 -30 12.5t-33 6.5q-19 0 -32 -13.5t-21 -30.5h-48z" />
    <glyph glyph-name="adieresis" unicode="&#xe4;" horiz-adv-x="519" 
d="M125 408q42 37 93.5 54.5t102.5 17.5q104 0 143 -49t25 -149l-28 -201q-3 -20 -4 -41.5t0 -39.5h-75q-2 16 0 35.5t4 34.5h-2q-28 -36 -69.5 -59t-95.5 -23q-36 0 -66 9t-51.5 26.5t-32 43.5t-5.5 60q8 58 42.5 91t81.5 49t99 20t95 4h30l2 14q8 51 -19 77t-82 26
q-38 0 -76.5 -12.5t-69.5 -38.5zM325 225q-75 0 -122 -21t-54 -69q-6 -44 21 -62.5t71 -18.5q34 0 61 11.5t47 30.5t32.5 44.5t17.5 54.5l4 30h-78zM257 700q23 0 36 -16t10 -38q-3 -23 -21 -38.5t-41 -15.5t-36 15.5t-10 38.5q3 22 21 38t41 16zM455 700q23 0 36 -16
t10 -38q-3 -23 -21 -38.5t-41 -15.5t-36 15.5t-10 38.5q3 22 21 38t41 16z" />
    <glyph glyph-name="aring" unicode="&#xe5;" horiz-adv-x="519" 
d="M125 408q42 37 93.5 54.5t102.5 17.5q104 0 143 -49t25 -149l-28 -201q-3 -20 -4 -41.5t0 -39.5h-75q-2 16 0 35.5t4 34.5h-2q-28 -36 -69.5 -59t-95.5 -23q-36 0 -66 9t-51.5 26.5t-32 43.5t-5.5 60q8 58 42.5 91t81.5 49t99 20t95 4h30l2 14q8 51 -19 77t-82 26
q-38 0 -76.5 -12.5t-69.5 -38.5zM325 225q-75 0 -122 -21t-54 -69q-6 -44 21 -62.5t71 -18.5q34 0 61 11.5t47 30.5t32.5 44.5t17.5 54.5l4 30h-78zM251 661q3 20 13 38t25 31.5t34.5 21.5t40.5 8q44 0 67.5 -29.5t17.5 -69.5q-3 -20 -13 -38t-25 -31.5t-34.5 -21.5
t-40.5 -8q-43 0 -66.5 29t-18.5 70zM293 661q-3 -25 12 -41t37 -16t42 16t23 41q4 24 -11.5 40.5t-37.5 16.5t-41.5 -16.5t-23.5 -40.5z" />
    <glyph glyph-name="ae" unicode="&#xe6;" horiz-adv-x="852" 
d="M804 85q-49 -54 -102 -75.5t-119 -21.5q-34 0 -61.5 9t-48 23.5t-34 32.5t-20.5 36q-35 -56 -88.5 -78.5t-112.5 -22.5q-30 0 -60 8t-52.5 25t-34.5 43.5t-6 64.5q7 48 33 77t62.5 44.5t78.5 20.5t80 5h96l2 12q7 51 -17 85.5t-83 34.5q-43 0 -76 -11.5t-68 -34.5l-42 52
q43 33 94 49.5t102 16.5q48 0 89.5 -17.5t61.5 -61.5q47 43 90.5 61t86.5 18q49 0 88 -16.5t63.5 -48t34.5 -77t2 -103.5l-4 -25h-361q-4 -31 2.5 -58t21.5 -47.5t38.5 -32.5t52.5 -12q51 0 88.5 18t70.5 53zM289 210q-21 0 -44 -3.5t-43.5 -12t-35 -23.5t-17.5 -39
q-3 -20 5 -33.5t22.5 -22t33 -12.5t38.5 -4q30 0 57 10t47.5 28t34 43.5t17.5 55.5l2 13h-117zM764 276q6 60 -25.5 96t-96.5 36q-29 0 -55 -11.5t-47 -30t-35 -42.5t-18 -48h277z" />
    <glyph glyph-name="ccedilla" unicode="&#xe7;" horiz-adv-x="482" 
d="M456 351q-21 30 -48 43.5t-62 13.5q-39 0 -70.5 -13.5t-55 -37.5t-38 -55.5t-19.5 -67.5t2 -67.5t24.5 -55.5t44.5 -37.5t63 -13.5q76 0 127 58l50 -55q-35 -35 -79 -53t-90 -20l-45 -54q7 1 15 2.5t20 1.5q13 0 26.5 -4t24 -12.5t16.5 -21.5t3 -31q-3 -24 -16 -41
t-31.5 -27.5t-40 -15t-41.5 -4.5q-26 0 -50.5 5t-45.5 16l22 37q34 -16 70 -16q20 0 41.5 8.5t25.5 32.5q3 21 -13.5 29.5t-33.5 8.5q-10 0 -20.5 -2.5t-19.5 -5.5l-17 19l65 76q-48 4 -85 23.5t-60.5 51.5t-33 74.5t-2.5 93.5q7 53 31 98t61 78t84 51.5t101 18.5
q52 0 96 -18t74 -56z" />
    <glyph glyph-name="egrave" unicode="&#xe8;" 
d="M503 85q-49 -54 -102 -75.5t-119 -21.5q-55 0 -96.5 19.5t-67.5 52.5t-36 78t-3 96q8 54 32.5 99.5t61 78t83 50.5t98.5 18q49 0 88 -16.5t63.5 -48t34.5 -77t2 -103.5l-4 -25h-378q-2 -30 6.5 -57.5t25.5 -48t42.5 -32.5t57.5 -12q51 0 88.5 18t70.5 53zM463 276
q6 60 -25.5 96t-96.5 36t-110.5 -36t-61.5 -96h294zM426 580h-71l-123 144h110z" />
    <glyph glyph-name="eacute" unicode="&#xe9;" 
d="M503 85q-49 -54 -102 -75.5t-119 -21.5q-55 0 -96.5 19.5t-67.5 52.5t-36 78t-3 96q8 54 32.5 99.5t61 78t83 50.5t98.5 18q49 0 88 -16.5t63.5 -48t34.5 -77t2 -103.5l-4 -25h-378q-2 -30 6.5 -57.5t25.5 -48t42.5 -32.5t57.5 -12q51 0 88.5 18t70.5 53zM463 276
q6 60 -25.5 96t-96.5 36t-110.5 -36t-61.5 -96h294zM412 724h110l-163 -144h-71z" />
    <glyph glyph-name="ecircumflex" unicode="&#xea;" 
d="M503 85q-49 -54 -102 -75.5t-119 -21.5q-55 0 -96.5 19.5t-67.5 52.5t-36 78t-3 96q8 54 32.5 99.5t61 78t83 50.5t98.5 18q49 0 88 -16.5t63.5 -48t34.5 -77t2 -103.5l-4 -25h-378q-2 -30 6.5 -57.5t25.5 -48t42.5 -32.5t57.5 -12q51 0 88.5 18t70.5 53zM463 276
q6 60 -25.5 96t-96.5 36t-110.5 -36t-61.5 -96h294zM331 724h91l92 -144h-81l-65 102l-92 -102h-76z" />
    <glyph glyph-name="edieresis" unicode="&#xeb;" 
d="M503 85q-49 -54 -102 -75.5t-119 -21.5q-55 0 -96.5 19.5t-67.5 52.5t-36 78t-3 96q8 54 32.5 99.5t61 78t83 50.5t98.5 18q49 0 88 -16.5t63.5 -48t34.5 -77t2 -103.5l-4 -25h-378q-2 -30 6.5 -57.5t25.5 -48t42.5 -32.5t57.5 -12q51 0 88.5 18t70.5 53zM463 276
q6 60 -25.5 96t-96.5 36t-110.5 -36t-61.5 -96h294zM275 700q23 0 36 -16t10 -38q-3 -23 -21 -38.5t-41 -15.5t-36 15.5t-10 38.5q3 22 21 38t41 16zM473 700q23 0 36 -16t10 -38q-3 -23 -21 -38.5t-41 -15.5t-36 15.5t-10 38.5q3 22 21 38t41 16z" />
    <glyph glyph-name="igrave" unicode="&#xec;" horiz-adv-x="240" 
d="M146 468h78l-65 -468h-78zM268 580h-71l-123 144h110z" />
    <glyph glyph-name="iacute" unicode="&#xed;" horiz-adv-x="240" 
d="M146 468h78l-65 -468h-78zM254 724h110l-163 -144h-71z" />
    <glyph glyph-name="icircumflex" unicode="&#xee;" horiz-adv-x="240" 
d="M146 468h78l-65 -468h-78zM173 724h91l92 -144h-81l-65 102l-92 -102h-76z" />
    <glyph glyph-name="idieresis" unicode="&#xef;" horiz-adv-x="240" 
d="M146 468h78l-65 -468h-78zM117 700q23 0 36 -16t10 -38q-3 -23 -21 -38.5t-41 -15.5t-36 15.5t-10 38.5q3 22 21 38t41 16zM315 700q23 0 36 -16t10 -38q-3 -23 -21 -38.5t-41 -15.5t-36 15.5t-10 38.5q3 22 21 38t41 16z" />
    <glyph glyph-name="eth" unicode="&#xf0;" horiz-adv-x="594" 
d="M327 663q-18 20 -38 39.5t-40 36.5l75 40q20 -18 41 -39t39 -41l114 54l41 -39l-119 -56q34 -38 64.5 -79t51.5 -88.5t29 -103.5t-1 -122q-9 -61 -31.5 -112t-58.5 -87.5t-86 -57t-113 -20.5q-54 0 -97.5 18t-72 50.5t-41.5 77.5t-5 100t33 100t63 77.5t86.5 50.5
t102.5 18q38 0 70 -12t53 -37l1 2q-20 52 -53 99t-71 91l-115 -54l-36 41zM163 234q-5 -37 2.5 -68.5t26 -55t47 -37t66.5 -13.5t70.5 13.5t57.5 37t41 55t21 68.5t-2 68.5t-25.5 55t-47 37t-66.5 13.5t-70.5 -13.5t-57.5 -37t-41.5 -55t-21.5 -68.5z" />
    <glyph glyph-name="ntilde" unicode="&#xf1;" 
d="M124 357q5 32 6.5 60t4.5 51h74l-4 -38t-5 -39h2q10 17 27 33t39 28.5t48 20t55 7.5q46 0 77.5 -14t50 -39t24 -60.5t-0.5 -77.5l-40 -289h-78l39 281q8 59 -13 93t-76 34q-76 0 -117.5 -50t-52.5 -130l-32 -228h-78zM191 592q6 19 16.5 38t25 33.5t33 23.5t40.5 9
q23 0 42 -7.5t39 -15.5q14 -6 24.5 -11.5t26.5 -5.5q20 0 33.5 13t21.5 31h48q-6 -19 -15.5 -37.5t-22.5 -33.5t-30.5 -24t-39.5 -9q-21 0 -40.5 6.5t-37.5 14.5q-14 6 -30 12.5t-33 6.5q-19 0 -32 -13.5t-21 -30.5h-48z" />
    <glyph glyph-name="ograve" unicode="&#xf2;" horiz-adv-x="594" 
d="M79 234q8 55 33 100t63 77.5t86.5 50.5t102.5 18t97.5 -18t72 -50.5t41 -77.5t4.5 -100t-33 -100t-62.5 -77.5t-86 -50.5t-102.5 -18t-97.5 18t-72 50.5t-41.5 77.5t-5 100zM163 234q-5 -37 2.5 -68.5t26 -55t47 -37t66.5 -13.5t70.5 13.5t57.5 37t41 55t21 68.5t-2 68.5
t-25.5 55t-47 37t-66.5 13.5t-70.5 -13.5t-57.5 -37t-41.5 -55t-21.5 -68.5zM445 580h-71l-123 144h110z" />
    <glyph glyph-name="oacute" unicode="&#xf3;" horiz-adv-x="594" 
d="M79 234q8 55 33 100t63 77.5t86.5 50.5t102.5 18t97.5 -18t72 -50.5t41 -77.5t4.5 -100t-33 -100t-62.5 -77.5t-86 -50.5t-102.5 -18t-97.5 18t-72 50.5t-41.5 77.5t-5 100zM163 234q-5 -37 2.5 -68.5t26 -55t47 -37t66.5 -13.5t70.5 13.5t57.5 37t41 55t21 68.5t-2 68.5
t-25.5 55t-47 37t-66.5 13.5t-70.5 -13.5t-57.5 -37t-41.5 -55t-21.5 -68.5zM431 724h110l-163 -144h-71z" />
    <glyph glyph-name="ocircumflex" unicode="&#xf4;" horiz-adv-x="594" 
d="M79 234q8 55 33 100t63 77.5t86.5 50.5t102.5 18t97.5 -18t72 -50.5t41 -77.5t4.5 -100t-33 -100t-62.5 -77.5t-86 -50.5t-102.5 -18t-97.5 18t-72 50.5t-41.5 77.5t-5 100zM163 234q-5 -37 2.5 -68.5t26 -55t47 -37t66.5 -13.5t70.5 13.5t57.5 37t41 55t21 68.5t-2 68.5
t-25.5 55t-47 37t-66.5 13.5t-70.5 -13.5t-57.5 -37t-41.5 -55t-21.5 -68.5zM350 724h91l92 -144h-81l-65 102l-92 -102h-76z" />
    <glyph glyph-name="otilde" unicode="&#xf5;" horiz-adv-x="594" 
d="M79 234q8 55 33 100t63 77.5t86.5 50.5t102.5 18t97.5 -18t72 -50.5t41 -77.5t4.5 -100t-33 -100t-62.5 -77.5t-86 -50.5t-102.5 -18t-97.5 18t-72 50.5t-41.5 77.5t-5 100zM163 234q-5 -37 2.5 -68.5t26 -55t47 -37t66.5 -13.5t70.5 13.5t57.5 37t41 55t21 68.5t-2 68.5
t-25.5 55t-47 37t-66.5 13.5t-70.5 -13.5t-57.5 -37t-41.5 -55t-21.5 -68.5zM210 592q6 19 16.5 38t25 33.5t33 23.5t40.5 9q23 0 42 -7.5t39 -15.5q14 -6 24.5 -11.5t26.5 -5.5q20 0 33.5 13t21.5 31h48q-6 -19 -15.5 -37.5t-22.5 -33.5t-30.5 -24t-39.5 -9
q-21 0 -40.5 6.5t-37.5 14.5q-14 6 -30 12.5t-33 6.5q-19 0 -32 -13.5t-21 -30.5h-48z" />
    <glyph glyph-name="odieresis" unicode="&#xf6;" horiz-adv-x="594" 
d="M79 234q8 55 33 100t63 77.5t86.5 50.5t102.5 18t97.5 -18t72 -50.5t41 -77.5t4.5 -100t-33 -100t-62.5 -77.5t-86 -50.5t-102.5 -18t-97.5 18t-72 50.5t-41.5 77.5t-5 100zM163 234q-5 -37 2.5 -68.5t26 -55t47 -37t66.5 -13.5t70.5 13.5t57.5 37t41 55t21 68.5t-2 68.5
t-25.5 55t-47 37t-66.5 13.5t-70.5 -13.5t-57.5 -37t-41.5 -55t-21.5 -68.5zM294 700q23 0 36 -16t10 -38q-3 -23 -21 -38.5t-41 -15.5t-36 15.5t-10 38.5q3 22 21 38t41 16zM492 700q23 0 36 -16t10 -38q-3 -23 -21 -38.5t-41 -15.5t-36 15.5t-10 38.5q3 22 21 38t41 16z
" />
    <glyph glyph-name="divide" unicode="&#xf7;" horiz-adv-x="666" 
d="M119 336h522l-10 -66h-522zM341 468q4 24 23 40.5t42 16.5t38 -17t11 -40q-3 -24 -22.5 -40.5t-42.5 -16.5t-37.5 17t-11.5 40zM295 138q3 24 22.5 40.5t42.5 16.5t37.5 -17t11.5 -40q-4 -24 -23 -40.5t-42 -16.5t-37.5 17t-11.5 40z" />
    <glyph glyph-name="oslash" unicode="&#xf8;" horiz-adv-x="594" 
d="M453 373q-18 17 -43 26t-56 9q-38 0 -70.5 -13.5t-57.5 -37t-41.5 -55t-21.5 -68.5q-8 -61 17 -104zM206 95q17 -17 42 -26t57 -9q38 0 70.5 13.5t57.5 37t41 55t21 68.5q9 60 -16 104zM115 72q-24 31 -33.5 72t-2.5 90q8 55 33 100t63 77.5t86.5 50.5t102.5 18
q47 0 85 -13.5t67 -37.5l76 69l30 -32l-77 -69q23 -32 32.5 -73t1.5 -90q-8 -55 -33 -100t-62.5 -77.5t-86 -50.5t-102.5 -18q-47 0 -85.5 13.5t-65.5 38.5l-78 -70l-29 32z" />
    <glyph glyph-name="ugrave" unicode="&#xf9;" 
d="M497 111q-5 -32 -6.5 -60t-4.5 -51h-74l4 38t4 39h-2q-10 -17 -27 -33t-38.5 -28.5t-47.5 -20t-55 -7.5q-46 0 -77.5 14t-50 39t-24 60.5t0.5 77.5l40 289h78l-39 -281q-8 -59 13 -93t76 -34q76 0 117.5 50t52.5 130l32 228h78zM426 580h-71l-123 144h110z" />
    <glyph glyph-name="uacute" unicode="&#xfa;" 
d="M497 111q-5 -32 -6.5 -60t-4.5 -51h-74l4 38t4 39h-2q-10 -17 -27 -33t-38.5 -28.5t-47.5 -20t-55 -7.5q-46 0 -77.5 14t-50 39t-24 60.5t0.5 77.5l40 289h78l-39 -281q-8 -59 13 -93t76 -34q76 0 117.5 50t52.5 130l32 228h78zM412 724h110l-163 -144h-71z" />
    <glyph glyph-name="ucircumflex" unicode="&#xfb;" 
d="M497 111q-5 -32 -6.5 -60t-4.5 -51h-74l4 38t4 39h-2q-10 -17 -27 -33t-38.5 -28.5t-47.5 -20t-55 -7.5q-46 0 -77.5 14t-50 39t-24 60.5t0.5 77.5l40 289h78l-39 -281q-8 -59 13 -93t76 -34q76 0 117.5 50t52.5 130l32 228h78zM331 724h91l92 -144h-81l-65 102l-92 -102
h-76z" />
    <glyph glyph-name="udieresis" unicode="&#xfc;" 
d="M497 111q-5 -32 -6.5 -60t-4.5 -51h-74l4 38t4 39h-2q-10 -17 -27 -33t-38.5 -28.5t-47.5 -20t-55 -7.5q-46 0 -77.5 14t-50 39t-24 60.5t0.5 77.5l40 289h78l-39 -281q-8 -59 13 -93t76 -34q76 0 117.5 50t52.5 130l32 228h78zM275 700q23 0 36 -16t10 -38
q-3 -23 -21 -38.5t-41 -15.5t-36 15.5t-10 38.5q3 22 21 38t41 16zM473 700q23 0 36 -16t10 -38q-3 -23 -21 -38.5t-41 -15.5t-36 15.5t-10 38.5q3 22 21 38t41 16z" />
    <glyph glyph-name="yacute" unicode="&#xfd;" horiz-adv-x="482" 
d="M230 -107q-16 -30 -32 -54.5t-35.5 -42t-45.5 -27t-61 -9.5q-17 0 -35.5 2t-32.5 10l19 68q20 -8 54 -8q38 0 59 21t39 56l44 88l-128 471h91l94 -367h2l190 367h85zM375 724h110l-163 -144h-71z" />
    <glyph glyph-name="thorn" unicode="&#xfe;" horiz-adv-x="611" 
d="M176 756h78l-50 -356h2q38 38 83 59t96 21q55 0 97.5 -18.5t70.5 -51.5t39 -78t4 -98t-31.5 -98t-60.5 -78t-81.5 -51.5t-94.5 -18.5q-63 0 -106.5 27.5t-60.5 67.5h-2l-44 -311h-78zM180 234q-5 -37 2.5 -68.5t26 -55t47 -37t66.5 -13.5t70.5 13.5t57.5 37t41 55
t21 68.5t-2 68.5t-25.5 55t-47 37t-66.5 13.5t-70.5 -13.5t-57.5 -37t-41.5 -55t-21.5 -68.5z" />
    <glyph glyph-name="ydieresis" unicode="&#xff;" horiz-adv-x="482" 
d="M230 -107q-16 -30 -32 -54.5t-35.5 -42t-45.5 -27t-61 -9.5q-17 0 -35.5 2t-32.5 10l19 68q20 -8 54 -8q38 0 59 21t39 56l44 88l-128 471h91l94 -367h2l190 367h85zM238 700q23 0 36 -16t10 -38q-3 -23 -21 -38.5t-41 -15.5t-36 15.5t-10 38.5q3 22 21 38t41 16z
M436 700q23 0 36 -16t10 -38q-3 -23 -21 -38.5t-41 -15.5t-36 15.5t-10 38.5q3 22 21 38t41 16z" />
    <glyph glyph-name="Amacron" unicode="&#x100;" horiz-adv-x="704" 
d="M417 708h79l202 -708h-98l-48 174h-354l-97 -174h-95zM440 600h-2l-196 -348h289zM604 794h-276l9 60h276z" />
    <glyph glyph-name="amacron" unicode="&#x101;" horiz-adv-x="519" 
d="M125 408q42 37 93.5 54.5t102.5 17.5q104 0 143 -49t25 -149l-28 -201q-3 -20 -4 -41.5t0 -39.5h-75q-2 16 0 35.5t4 34.5h-2q-28 -36 -69.5 -59t-95.5 -23q-36 0 -66 9t-51.5 26.5t-32 43.5t-5.5 60q8 58 42.5 91t81.5 49t99 20t95 4h30l2 14q8 51 -19 77t-82 26
q-38 0 -76.5 -12.5t-69.5 -38.5zM325 225q-75 0 -122 -21t-54 -69q-6 -44 21 -62.5t71 -18.5q34 0 61 11.5t47 30.5t32.5 44.5t17.5 54.5l4 30h-78zM483 600h-276l8 60h276z" />
    <glyph glyph-name="Abreve" unicode="&#x102;" horiz-adv-x="704" 
d="M417 708h79l202 -708h-98l-48 174h-354l-97 -174h-95zM440 600h-2l-196 -348h289zM377 896q3 -39 28.5 -58.5t63.5 -19.5q45 0 72.5 16.5t44.5 61.5h48q-16 -66 -62 -99t-110 -33q-63 0 -101 33t-33 99h49z" />
    <glyph glyph-name="abreve" unicode="&#x103;" horiz-adv-x="519" 
d="M125 408q42 37 93.5 54.5t102.5 17.5q104 0 143 -49t25 -149l-28 -201q-3 -20 -4 -41.5t0 -39.5h-75q-2 16 0 35.5t4 34.5h-2q-28 -36 -69.5 -59t-95.5 -23q-36 0 -66 9t-51.5 26.5t-32 43.5t-5.5 60q8 58 42.5 91t81.5 49t99 20t95 4h30l2 14q8 51 -19 77t-82 26
q-38 0 -76.5 -12.5t-69.5 -38.5zM325 225q-75 0 -122 -21t-54 -69q-6 -44 21 -62.5t71 -18.5q34 0 61 11.5t47 30.5t32.5 44.5t17.5 54.5l4 30h-78zM244 702q2 -39 28 -58.5t64 -19.5q44 0 72 17t45 61h48q-16 -66 -62 -99t-110 -33q-63 0 -101 33t-33 99h49z" />
    <glyph glyph-name="Aogonek" unicode="&#x104;" horiz-adv-x="704" 
d="M668 -182q-21 -18 -46.5 -28.5t-51.5 -10.5q-37 0 -61.5 23.5t-19.5 61.5q3 21 14 41t27 38t34.5 32.5t35.5 24.5l-48 174h-354l-97 -174h-95l411 708h79l202 -708h-47q-13 -8 -28 -20t-28.5 -27t-23.5 -32.5t-13 -35.5q-2 -20 8 -33.5t34 -12.5q13 0 27.5 5.5t25.5 14.5
zM440 600h-2l-196 -348h289z" />
    <glyph glyph-name="aogonek" unicode="&#x105;" horiz-adv-x="519" 
d="M451 -182q-21 -18 -46.5 -28.5t-51.5 -10.5q-37 0 -61.5 23.5t-19.5 61.5q3 21 14 41t27 38t34.5 32.5t35.5 24.5h-1q-2 16 0 35.5t4 34.5h-2q-28 -36 -69.5 -59t-95.5 -23q-36 0 -66 9t-51.5 26.5t-32 43.5t-5.5 60q8 58 42.5 91t81.5 49t99 20t95 4h30l2 14
q8 51 -19 77t-82 26q-38 0 -76 -12.5t-70 -38.5l-42 51q42 37 93.5 54.5t102.5 17.5q105 0 143.5 -49t24.5 -149l-28 -201q-3 -20 -4 -41.5t0 -39.5h-23q-13 -8 -28 -20t-28.5 -27t-23.5 -32.5t-13 -35.5q-2 -20 8 -33.5t34 -12.5q13 0 27.5 5.5t25.5 14.5zM325 225
q-75 0 -122 -21t-54 -69q-6 -44 21 -62.5t71 -18.5q34 0 61 11.5t47 30.5t32.5 44.5t17.5 54.5l4 30h-78z" />
    <glyph glyph-name="Cacute" unicode="&#x106;" horiz-adv-x="704" 
d="M662 562q-26 43 -69.5 64.5t-94.5 21.5q-59 0 -112 -24t-95 -64.5t-69.5 -94t-35.5 -111.5q-9 -62 3.5 -115.5t42.5 -93t76.5 -62.5t106.5 -23q65 0 119.5 25.5t99.5 73.5l55 -53q-57 -64 -128.5 -94t-156.5 -30q-76 0 -138 28t-103.5 77.5t-59.5 117.5t-7 149
q11 78 47.5 146t91.5 118t125 79t149 29q72 0 134.5 -26t99.5 -85zM550 902h110l-163 -144h-71z" />
    <glyph glyph-name="cacute" unicode="&#x107;" horiz-adv-x="482" 
d="M456 351q-21 30 -48 43.5t-62 13.5q-39 0 -70.5 -13.5t-55 -37.5t-38 -55.5t-19.5 -67.5t2 -67.5t24.5 -55.5t44.5 -37.5t63 -13.5q76 0 127 58l50 -55q-39 -39 -87.5 -57t-99.5 -18q-54 0 -96.5 18t-69.5 51t-38.5 78t-3.5 99q7 53 31 98t61 78t84 51.5t101 18.5
q52 0 96 -18t74 -56zM429 708h110l-163 -144h-71z" />
    <glyph glyph-name="Ccircumflex" unicode="&#x108;" horiz-adv-x="704" 
d="M662 562q-26 43 -69.5 64.5t-94.5 21.5q-59 0 -112 -24t-95 -64.5t-69.5 -94t-35.5 -111.5q-9 -62 3.5 -115.5t42.5 -93t76.5 -62.5t106.5 -23q65 0 119.5 25.5t99.5 73.5l55 -53q-57 -64 -128.5 -94t-156.5 -30q-76 0 -138 28t-103.5 77.5t-59.5 117.5t-7 149
q11 78 47.5 146t91.5 118t125 79t149 29q72 0 134.5 -26t99.5 -85zM497 902h91l92 -144h-81l-65 102l-92 -102h-76z" />
    <glyph glyph-name="ccircumflex" unicode="&#x109;" horiz-adv-x="482" 
d="M456 351q-21 30 -48 43.5t-62 13.5q-39 0 -70.5 -13.5t-55 -37.5t-38 -55.5t-19.5 -67.5t2 -67.5t24.5 -55.5t44.5 -37.5t63 -13.5q76 0 127 58l50 -55q-39 -39 -87.5 -57t-99.5 -18q-54 0 -96.5 18t-69.5 51t-38.5 78t-3.5 99q7 53 31 98t61 78t84 51.5t101 18.5
q52 0 96 -18t74 -56zM337 708h91l92 -144h-81l-65 102l-92 -102h-76z" />
    <glyph glyph-name="Cdotaccent" unicode="&#x10a;" horiz-adv-x="704" 
d="M662 562q-26 43 -69.5 64.5t-94.5 21.5q-59 0 -112 -24t-95 -64.5t-69.5 -94t-35.5 -111.5q-9 -62 3.5 -115.5t42.5 -93t76.5 -62.5t106.5 -23q65 0 119.5 25.5t99.5 73.5l55 -53q-57 -64 -128.5 -94t-156.5 -30q-76 0 -138 28t-103.5 77.5t-59.5 117.5t-7 149
q11 78 47.5 146t91.5 118t125 79t149 29q72 0 134.5 -26t99.5 -85zM520 878q23 0 36 -16t10 -38q-3 -23 -20.5 -38.5t-40.5 -15.5t-36.5 15.5t-10.5 38.5q3 22 21 38t41 16z" />
    <glyph glyph-name="cdotaccent" unicode="&#x10b;" horiz-adv-x="482" 
d="M456 351q-21 30 -48 43.5t-62 13.5q-39 0 -70.5 -13.5t-55 -37.5t-38 -55.5t-19.5 -67.5t2 -67.5t24.5 -55.5t44.5 -37.5t63 -13.5q76 0 127 58l50 -55q-39 -39 -87.5 -57t-99.5 -18q-54 0 -96.5 18t-69.5 51t-38.5 78t-3.5 99q7 53 31 98t61 78t84 51.5t101 18.5
q52 0 96 -18t74 -56zM383 684q23 0 36 -16t10 -38q-3 -23 -21 -38.5t-41 -15.5t-36 15.5t-10 38.5q3 22 21 38t41 16z" />
    <glyph glyph-name="Ccaron" unicode="&#x10c;" horiz-adv-x="704" 
d="M662 562q-26 43 -69.5 64.5t-94.5 21.5q-59 0 -112 -24t-95 -64.5t-69.5 -94t-35.5 -111.5q-9 -62 3.5 -115.5t42.5 -93t76.5 -62.5t106.5 -23q65 0 119.5 25.5t99.5 73.5l55 -53q-57 -64 -128.5 -94t-156.5 -30q-76 0 -138 28t-103.5 77.5t-59.5 117.5t-7 149
q11 78 47.5 146t91.5 118t125 79t149 29q72 0 134.5 -26t99.5 -85zM569 758h-91l-91 144h81l64 -102l91 102h76z" />
    <glyph glyph-name="ccaron" unicode="&#x10d;" horiz-adv-x="482" 
d="M456 351q-21 30 -48 43.5t-62 13.5q-39 0 -70.5 -13.5t-55 -37.5t-38 -55.5t-19.5 -67.5t2 -67.5t24.5 -55.5t44.5 -37.5t63 -13.5q76 0 127 58l50 -55q-39 -39 -87.5 -57t-99.5 -18q-54 0 -96.5 18t-69.5 51t-38.5 78t-3.5 99q7 53 31 98t61 78t84 51.5t101 18.5
q52 0 96 -18t74 -56zM416 564h-91l-91 144h81l64 -102l91 102h76z" />
    <glyph glyph-name="Dcaron" unicode="&#x10e;" horiz-adv-x="741" 
d="M174 708h272q52 0 110 -18.5t104.5 -60.5t71.5 -109.5t11 -165.5q-9 -65 -32 -116.5t-55.5 -91t-72 -67.5t-80.5 -45.5t-81 -25.5t-75 -8h-272zM169 78h160q61 0 115.5 16t97.5 49.5t72 85.5t39 125t-4 125t-47.5 85.5t-83.5 49.5t-111 16h-160zM459 758h-91l-91 144h81
l64 -102l91 102h76z" />
    <glyph glyph-name="dcaron" unicode="&#x10f;" horiz-adv-x="611" 
d="M474 83h-2q-27 -40 -78.5 -67.5t-114.5 -27.5q-49 0 -89 18.5t-67 51.5t-39 78t-5 98t31.5 98t61.5 78t85 51.5t103 18.5q51 0 90.5 -21t66.5 -59h2l50 356h78l-106 -756h-78zM495 234q5 37 -2 68.5t-25.5 55t-47 37t-66.5 13.5t-70.5 -13.5t-57.5 -37t-41.5 -55
t-21.5 -68.5t2.5 -68.5t26 -55t47 -37t66.5 -13.5t70.5 13.5t57.5 37t41 55t21 68.5zM760 531h-66l77 177h86z" />
    <glyph glyph-name="Dcroat" unicode="&#x110;" horiz-adv-x="741" 
d="M174 708h272q52 0 110 -18.5t104.5 -60.5t71.5 -109.5t11 -165.5q-9 -65 -32 -116.5t-55.5 -91t-72 -67.5t-80.5 -45.5t-81 -25.5t-75 -8h-272l47 336h-72l9 66h72zM215 402h252l-9 -66h-252l-37 -258h160q61 0 115.5 16t97.5 49.5t72 85.5t39 125t-4 125t-47.5 85.5
t-83.5 49.5t-111 16h-160z" />
    <glyph glyph-name="dcroat" unicode="&#x111;" horiz-adv-x="611" 
d="M693 570h-72l-80 -570h-78l11 83h-2q-27 -40 -78.5 -67.5t-114.5 -27.5q-50 0 -90 18.5t-67 51.5t-38.5 78t-4.5 98t31.5 98t61.5 78t85 51.5t103 18.5q51 0 90.5 -21t66.5 -59h2l24 170h-126l8 60h126l18 126h78l-18 -126h72zM495 234q5 37 -2 68.5t-25.5 55t-47 37
t-66.5 13.5t-70.5 -13.5t-57.5 -37t-41.5 -55t-21.5 -68.5t2.5 -68.5t26 -55t47 -37t66.5 -13.5t70.5 13.5t57.5 37t41 55t21 68.5z" />
    <glyph glyph-name="Emacron" unicode="&#x112;" horiz-adv-x="593" 
d="M187 708h445l-11 -78h-361l-31 -222h337l-11 -78h-337l-36 -252h379l-10 -78h-463zM567 794h-276l9 60h276z" />
    <glyph glyph-name="emacron" unicode="&#x113;" 
d="M503 85q-49 -54 -102 -75.5t-119 -21.5q-55 0 -96.5 19.5t-67.5 52.5t-36 78t-3 96q8 54 32.5 99.5t61 78t83 50.5t98.5 18q49 0 88 -16.5t63.5 -48t34.5 -77t2 -103.5l-4 -25h-378q-2 -30 6.5 -57.5t25.5 -48t42.5 -32.5t57.5 -12q51 0 88.5 18t70.5 53zM463 276
q6 60 -25.5 96t-96.5 36t-110.5 -36t-61.5 -96h294zM504 600h-276l8 60h276z" />
    <glyph glyph-name="Ebreve" unicode="&#x114;" horiz-adv-x="593" 
d="M187 708h445l-11 -78h-361l-31 -222h337l-11 -78h-337l-36 -252h379l-10 -78h-463zM341 896q3 -39 28.5 -58.5t63.5 -19.5q45 0 72.5 16.5t44.5 61.5h48q-16 -66 -62 -99t-110 -33q-63 0 -101 33t-33 99h49z" />
    <glyph glyph-name="ebreve" unicode="&#x115;" 
d="M503 85q-49 -54 -102 -75.5t-119 -21.5q-55 0 -96.5 19.5t-67.5 52.5t-36 78t-3 96q8 54 32.5 99.5t61 78t83 50.5t98.5 18q49 0 88 -16.5t63.5 -48t34.5 -77t2 -103.5l-4 -25h-378q-2 -30 6.5 -57.5t25.5 -48t42.5 -32.5t57.5 -12q51 0 88.5 18t70.5 53zM463 276
q6 60 -25.5 96t-96.5 36t-110.5 -36t-61.5 -96h294zM276 702q2 -39 28 -58.5t64 -19.5q44 0 72 17t45 61h48q-16 -66 -62 -99t-110 -33q-63 0 -101 33t-33 99h49z" />
    <glyph glyph-name="Edotaccent" unicode="&#x116;" horiz-adv-x="593" 
d="M187 708h445l-11 -78h-361l-31 -222h337l-11 -78h-337l-36 -252h379l-10 -78h-463zM442 878q23 0 36 -16t10 -38q-3 -23 -20.5 -38.5t-40.5 -15.5t-36.5 15.5t-10.5 38.5q3 22 21 38t41 16z" />
    <glyph glyph-name="edotaccent" unicode="&#x117;" 
d="M503 85q-49 -54 -102 -75.5t-119 -21.5q-55 0 -96.5 19.5t-67.5 52.5t-36 78t-3 96q8 54 32.5 99.5t61 78t83 50.5t98.5 18q49 0 88 -16.5t63.5 -48t34.5 -77t2 -103.5l-4 -25h-378q-2 -30 6.5 -57.5t25.5 -48t42.5 -32.5t57.5 -12q51 0 88.5 18t70.5 53zM463 276
q6 60 -25.5 96t-96.5 36t-110.5 -36t-61.5 -96h294zM378 684q23 0 36 -16t10 -38q-3 -23 -21 -38.5t-41 -15.5t-36 15.5t-10 38.5q3 22 21 38t41 16z" />
    <glyph glyph-name="Eogonek" unicode="&#x118;" horiz-adv-x="593" 
d="M187 708h445l-11 -78h-361l-31 -222h337l-11 -78h-337l-36 -252h379l-10 -78h-52q-13 -8 -28 -20t-28.5 -27t-23.5 -32.5t-13 -35.5q-2 -20 8 -33.5t34 -12.5q13 0 27.5 5.5t25.5 14.5l15 -41q-21 -18 -46.5 -28.5t-51.5 -10.5q-37 0 -61.5 23.5t-19.5 61.5q3 21 14 41
t27 38t34.5 32.5t35.5 24.5h-360z" />
    <glyph glyph-name="eogonek" unicode="&#x119;" 
d="M367 -182q-21 -18 -46.5 -28.5t-51.5 -10.5q-37 0 -61.5 23.5t-19.5 61.5q5 37 32.5 69.5t59.5 54.5q-55 0 -96 19.5t-66.5 53t-35.5 78t-3 95.5q8 54 32.5 99.5t61 78t83 50.5t98.5 18q49 0 88 -16.5t63.5 -48t34.5 -77t2 -103.5l-4 -25h-378q-2 -30 6.5 -57.5t26 -48
t42.5 -32.5t57 -12q51 0 88.5 18t70.5 53l52 -46q-38 -42 -78.5 -64t-87.5 -29q-12 -9 -25 -21t-24.5 -25.5t-20 -29t-10.5 -31.5q-2 -20 8 -33.5t34 -12.5q13 0 27.5 5.5t25.5 14.5zM463 276q7 60 -24.5 96t-97.5 36t-110.5 -36t-61.5 -96h294z" />
    <glyph glyph-name="Ecaron" unicode="&#x11a;" horiz-adv-x="593" 
d="M187 708h445l-11 -78h-361l-31 -222h337l-11 -78h-337l-36 -252h379l-10 -78h-463zM473 758h-91l-91 144h81l64 -102l91 102h76z" />
    <glyph glyph-name="ecaron" unicode="&#x11b;" 
d="M503 85q-49 -54 -102 -75.5t-119 -21.5q-55 0 -96.5 19.5t-67.5 52.5t-36 78t-3 96q8 54 32.5 99.5t61 78t83 50.5t98.5 18q49 0 88 -16.5t63.5 -48t34.5 -77t2 -103.5l-4 -25h-378q-2 -30 6.5 -57.5t25.5 -48t42.5 -32.5t57.5 -12q51 0 88.5 18t70.5 53zM463 276
q6 60 -25.5 96t-96.5 36t-110.5 -36t-61.5 -96h294zM407 564h-91l-91 144h81l64 -102l91 102h76z" />
    <glyph glyph-name="Gcircumflex" unicode="&#x11c;" horiz-adv-x="778" 
d="M696 48q-66 -34 -135.5 -50t-138.5 -16q-83 0 -148.5 27t-109 76t-62 117.5t-6.5 151.5q12 84 51.5 152.5t98 117t131.5 75.5t153 27q70 0 131.5 -21t104.5 -72l-72 -66q-31 39 -79 60t-102 21q-61 0 -116 -22t-99 -61t-73.5 -93t-38.5 -118q-9 -63 5 -117t47 -93.5
t84 -61.5t116 -22q43 0 91.5 10.5t90.5 30.5l30 217h-163l11 78h247zM495 902h91l92 -144h-81l-65 102l-92 -102h-76z" />
    <glyph glyph-name="gcircumflex" unicode="&#x11d;" horiz-adv-x="611" 
d="M543 21q-17 -128 -92 -194.5t-199 -66.5q-69 0 -122 20t-96 69l65 64q32 -40 70.5 -60.5t92.5 -20.5q52 0 88.5 15.5t60.5 42t36.5 60.5t17.5 71l9 60h-2q-35 -45 -82.5 -66t-94.5 -21q-55 0 -98.5 18t-72 50t-40.5 76t-5 96q8 57 32.5 103t62 77.5t85.5 48.5t104 17
q48 0 91.5 -22.5t60.5 -69.5h2l11 80h78zM163 234q-5 -36 4 -66.5t28 -53t47.5 -35.5t62.5 -13q40 0 73 14t57.5 37.5t40 54t20.5 64.5q5 38 -2.5 69.5t-26.5 54.5t-48 35.5t-66 12.5t-69 -13.5t-57.5 -37t-42 -55t-21.5 -68.5zM353 708h91l92 -144h-81l-65 102l-92 -102
h-76z" />
    <glyph glyph-name="Gbreve" unicode="&#x11e;" horiz-adv-x="778" 
d="M696 48q-66 -34 -135.5 -50t-138.5 -16q-83 0 -148.5 27t-109 76t-62 117.5t-6.5 151.5q12 84 51.5 152.5t98 117t131.5 75.5t153 27q70 0 131.5 -21t104.5 -72l-72 -66q-31 39 -79 60t-102 21q-61 0 -116 -22t-99 -61t-73.5 -93t-38.5 -118q-9 -63 5 -117t47 -93.5
t84 -61.5t116 -22q43 0 91.5 10.5t90.5 30.5l30 217h-163l11 78h247zM436 896q3 -39 28.5 -58.5t63.5 -19.5q45 0 72.5 16.5t44.5 61.5h48q-16 -66 -62 -99t-110 -33q-63 0 -101 33t-33 99h49z" />
    <glyph glyph-name="gbreve" unicode="&#x11f;" horiz-adv-x="611" 
d="M543 21q-17 -128 -92 -194.5t-199 -66.5q-69 0 -122 20t-96 69l65 64q32 -40 70.5 -60.5t92.5 -20.5q52 0 88.5 15.5t60.5 42t36.5 60.5t17.5 71l9 60h-2q-35 -45 -82.5 -66t-94.5 -21q-55 0 -98.5 18t-72 50t-40.5 76t-5 96q8 57 32.5 103t62 77.5t85.5 48.5t104 17
q48 0 91.5 -22.5t60.5 -69.5h2l11 80h78zM163 234q-5 -36 4 -66.5t28 -53t47.5 -35.5t62.5 -13q40 0 73 14t57.5 37.5t40 54t20.5 64.5q5 38 -2.5 69.5t-26.5 54.5t-48 35.5t-66 12.5t-69 -13.5t-57.5 -37t-42 -55t-21.5 -68.5zM294 702q2 -39 28 -58.5t64 -19.5q44 0 72 17
t45 61h48q-16 -66 -62 -99t-110 -33q-63 0 -101 33t-33 99h49z" />
    <glyph glyph-name="Gdotaccent" unicode="&#x120;" horiz-adv-x="778" 
d="M696 48q-66 -34 -135.5 -50t-138.5 -16q-83 0 -148.5 27t-109 76t-62 117.5t-6.5 151.5q12 84 51.5 152.5t98 117t131.5 75.5t153 27q70 0 131.5 -21t104.5 -72l-72 -66q-31 39 -79 60t-102 21q-61 0 -116 -22t-99 -61t-73.5 -93t-38.5 -118q-9 -63 5 -117t47 -93.5
t84 -61.5t116 -22q43 0 91.5 10.5t90.5 30.5l30 217h-163l11 78h247zM538 878q23 0 36 -16t10 -38q-3 -23 -20.5 -38.5t-40.5 -15.5t-36.5 15.5t-10.5 38.5q3 22 21 38t41 16z" />
    <glyph glyph-name="gdotaccent" unicode="&#x121;" horiz-adv-x="611" 
d="M543 21q-17 -128 -92 -194.5t-199 -66.5q-69 0 -122 20t-96 69l65 64q32 -40 70.5 -60.5t92.5 -20.5q52 0 88.5 15.5t60.5 42t36.5 60.5t17.5 71l9 60h-2q-35 -45 -82.5 -66t-94.5 -21q-55 0 -98.5 18t-72 50t-40.5 76t-5 96q8 57 32.5 103t62 77.5t85.5 48.5t104 17
q48 0 91.5 -22.5t60.5 -69.5h2l11 80h78zM163 234q-5 -36 4 -66.5t28 -53t47.5 -35.5t62.5 -13q40 0 73 14t57.5 37.5t40 54t20.5 64.5q5 38 -2.5 69.5t-26.5 54.5t-48 35.5t-66 12.5t-69 -13.5t-57.5 -37t-42 -55t-21.5 -68.5zM396 684q23 0 36 -16t10 -38
q-3 -23 -21 -38.5t-41 -15.5t-36 15.5t-10 38.5q3 22 21 38t41 16z" />
    <glyph glyph-name="Gcommaaccent" unicode="&#x122;" horiz-adv-x="778" 
d="M696 48q-66 -34 -135.5 -50t-138.5 -16q-83 0 -148.5 27t-109 76t-62 117.5t-6.5 151.5q12 84 51.5 152.5t98 117t131.5 75.5t153 27q70 0 131.5 -21t104.5 -72l-72 -66q-31 39 -79 60t-102 21q-61 0 -116 -22t-99 -61t-73.5 -93t-38.5 -118q-9 -63 5 -117t47 -93.5
t84 -61.5t116 -22q43 0 91.5 10.5t90.5 30.5l30 217h-163l11 78h247zM364 -228h-66l76 167h86z" />
    <glyph glyph-name="gcommaaccent" unicode="&#x123;" horiz-adv-x="611" 
d="M543 21q-17 -128 -92 -194.5t-199 -66.5q-69 0 -122 20t-96 69l65 64q32 -40 70.5 -60.5t92.5 -20.5q52 0 88.5 15.5t60.5 42t36.5 60.5t17.5 71l9 60h-2q-35 -45 -82.5 -66t-94.5 -21q-55 0 -98.5 18t-72 50t-40.5 76t-5 96q8 57 32.5 103t62 77.5t85.5 48.5t104 17
q48 0 91.5 -22.5t60.5 -69.5h2l11 80h78zM163 234q-5 -36 4 -66.5t28 -53t47.5 -35.5t62.5 -13q40 0 73 14t57.5 37.5t40 54t20.5 64.5q5 38 -2.5 69.5t-26.5 54.5t-48 35.5t-66 12.5t-69 -13.5t-57.5 -37t-42 -55t-21.5 -68.5zM438 751h66l-75 -167h-86z" />
    <glyph glyph-name="Hcircumflex" unicode="&#x124;" horiz-adv-x="722" 
d="M187 708h84l-42 -300h378l42 300h84l-99 -708h-84l46 330h-378l-46 -330h-84zM442 902h91l92 -144h-81l-65 102l-92 -102h-76z" />
    <glyph glyph-name="hcircumflex" unicode="&#x125;" 
d="M180 756h78l-50 -353h2q10 14 26 27.5t37 24.5t46 18t52 7q46 0 77.5 -14t50 -39t24 -60.5t-0.5 -77.5l-40 -289h-78l39 281q8 59 -13 93t-76 34q-76 0 -117.5 -50t-52.5 -130l-32 -228h-78zM341 959h91l92 -144h-81l-65 102l-92 -102h-76z" />
    <glyph glyph-name="Hbar" unicode="&#x126;" horiz-adv-x="722" 
d="M187 708h84l-12 -88h378l12 88h84l-99 -708h-84l46 330h-378l-46 -330h-84zM607 408l21 152h-378l-21 -152h378z" />
    <glyph glyph-name="hbar" unicode="&#x127;" 
d="M358 570h-126l-24 -167h2q10 13 26 27t37 25t46 18t52 7q46 0 77.5 -14t50 -39t24 -60.5t-0.5 -77.5l-40 -289h-78l39 281q8 60 -13 93.5t-76 33.5q-76 0 -117.5 -50t-52.5 -130l-32 -228h-78l80 570h-72l8 60h72l18 126h78l-18 -126h126z" />
    <glyph glyph-name="Itilde" unicode="&#x128;" horiz-adv-x="260" 
d="M187 708h84l-99 -708h-84zM72 770q6 19 16 38t24 33.5t32.5 23.5t41.5 9t42.5 -7.5t38.5 -15.5q14 -6 25 -11.5t27 -5.5q20 0 33 13t21 31h48q-6 -19 -15 -37.5t-22.5 -33.5t-31 -24t-39.5 -9q-21 0 -40.5 6.5t-37.5 14.5q-14 6 -30 12.5t-33 6.5q-19 0 -31.5 -13.5
t-20.5 -30.5h-48z" />
    <glyph glyph-name="itilde" unicode="&#x129;" horiz-adv-x="240" 
d="M146 468h78l-65 -468h-78zM35 576q6 19 16.5 38t25 33.5t33 23.5t40.5 9q23 0 42 -7.5t39 -15.5q14 -6 24.5 -11.5t26.5 -5.5q20 0 33.5 13t21.5 31h48q-6 -19 -15.5 -37.5t-22.5 -33.5t-30.5 -24t-39.5 -9q-21 0 -40.5 6.5t-37.5 14.5q-14 6 -30 12.5t-33 6.5
q-19 0 -32 -13.5t-21 -30.5h-48z" />
    <glyph glyph-name="Imacron" unicode="&#x12a;" horiz-adv-x="260" 
d="M187 708h84l-99 -708h-84zM378 794h-276l9 60h276z" />
    <glyph glyph-name="imacron" unicode="&#x12b;" horiz-adv-x="240" 
d="M146 468h78l-65 -468h-78zM343 600h-276l8 60h276z" />
    <glyph glyph-name="Iogonek" unicode="&#x12e;" horiz-adv-x="260" 
d="M156 -182q-21 -18 -46.5 -28.5t-51.5 -10.5q-37 0 -61 23.5t-19 61.5q3 21 14 41t26.5 38t34 32.5t35.5 24.5l99 708h84l-99 -708h-34q-13 -8 -28 -20t-28.5 -27t-23 -32.5t-12.5 -35.5q-2 -20 8 -33.5t34 -12.5q13 0 27.5 5.5t25.5 14.5z" />
    <glyph glyph-name="iogonek" unicode="&#x12f;" horiz-adv-x="240" 
d="M146 468h78l-65 -468h-15q-13 -8 -28 -20t-28.5 -27t-23.5 -32.5t-13 -35.5q-2 -20 8 -33.5t34 -12.5q13 0 27.5 5.5t25.5 14.5l15 -41q-21 -18 -46.5 -28.5t-51.5 -10.5q-37 0 -61 23.5t-19 61.5q3 21 14 41t26.5 38t34 32.5t35.5 24.5h-12zM154 651q3 23 22 40t43 17
t38 -17t11 -40q-4 -25 -22 -41t-43 -16t-39 16t-10 41z" />
    <glyph glyph-name="Idotaccent" unicode="&#x130;" horiz-adv-x="260" 
d="M187 708h84l-99 -708h-84zM255 878q23 0 36 -16t10 -38q-3 -23 -20.5 -38.5t-40.5 -15.5t-36.5 15.5t-10.5 38.5q3 22 21 38t41 16z" />
    <glyph glyph-name="dotlessi" unicode="&#x131;" horiz-adv-x="240" 
d="M146 468h78l-65 -468h-78z" />
    <glyph glyph-name="IJ" unicode="&#x132;" horiz-adv-x="731" 
d="M187 708h84l-99 -708h-84zM668 183q-5 -36 -20.5 -71.5t-43 -64.5t-68.5 -47t-98 -18q-75 0 -120 38t-48 114l87 17q2 -42 25 -66.5t68 -24.5q36 0 60.5 13t40.5 34t24.5 48.5t12.5 56.5l70 496h84z" />
    <glyph glyph-name="ij" unicode="&#x133;" horiz-adv-x="451" 
d="M146 468h78l-65 -468h-78zM154 651q3 23 22 40t43 17t38 -17t11 -40q-4 -25 -22 -41t-43 -16t-39 16t-10 41zM355 -105q-3 -18 -11.5 -41.5t-26.5 -44t-47 -35t-72 -14.5q-14 0 -27.5 2t-25.5 8l19 68q18 -6 37 -6q22 0 36 8t23 21.5t14 31.5t8 38l75 537h78zM365 651
q3 23 22 40t43 17t38 -17t11 -40q-4 -25 -22 -41t-43 -16t-39 16t-10 41z" />
    <glyph glyph-name="Jcircumflex" unicode="&#x134;" horiz-adv-x="482" 
d="M419 183q-5 -36 -20.5 -71.5t-43 -64.5t-68.5 -47t-98 -18q-75 0 -120 38t-48 114l87 17q2 -42 25 -66.5t68 -24.5q36 0 60.5 13t40.5 34t24.5 48.5t12.5 56.5l70 496h84zM429 902h91l92 -144h-81l-65 102l-92 -102h-76z" />
    <glyph glyph-name="jcircumflex" unicode="&#x135;" horiz-adv-x="240" 
d="M144 -105q-3 -18 -11.5 -41.5t-26.5 -44t-47 -35t-72 -14.5q-14 0 -27.5 2t-25.5 8l19 68q18 -6 37 -6q22 0 36 8t23 21.5t14 31.5t8 38l75 537h78zM174 708h91l92 -144h-81l-65 102l-92 -102h-76z" />
    <glyph glyph-name="Kcommaaccent" unicode="&#x136;" horiz-adv-x="630" 
d="M187 708h84l-43 -306h12l365 306h121l-395 -323l313 -385h-123l-287 360h-12l-50 -360h-84zM269 -228h-66l76 167h86z" />
    <glyph glyph-name="kcommaaccent" unicode="&#x137;" horiz-adv-x="500" 
d="M180 756h78l-70 -494l242 206h111l-256 -213l214 -255h-115l-198 246l-34 -246h-78zM199 -228h-66l76 167h86z" />
    <glyph glyph-name="Lacute" unicode="&#x139;" horiz-adv-x="500" 
d="M187 708h84l-89 -630h324l-10 -78h-408zM291 902h110l-163 -144h-71z" />
    <glyph glyph-name="lacute" unicode="&#x13a;" horiz-adv-x="240" 
d="M187 756h78l-106 -756h-78zM304 959h110l-163 -144h-71z" />
    <glyph glyph-name="Lcommaaccent" unicode="&#x13b;" horiz-adv-x="500" 
d="M187 708h84l-89 -630h324l-10 -78h-408zM227 -228h-66l76 167h86z" />
    <glyph glyph-name="lcommaaccent" unicode="&#x13c;" horiz-adv-x="240" 
d="M187 756h78l-106 -756h-78zM80 -228h-66l76 167h86z" />
    <glyph glyph-name="Lcaron" unicode="&#x13d;" horiz-adv-x="500" 
d="M187 708h84l-89 -630h324l-10 -78h-408zM362 531h-66l77 177h86z" />
    <glyph glyph-name="lcaron" unicode="&#x13e;" horiz-adv-x="240" 
d="M187 756h78l-106 -756h-78zM387 531h-66l77 177h86z" />
    <glyph glyph-name="Ldot" unicode="&#x13f;" horiz-adv-x="500" 
d="M187 708h84l-89 -630h324l-10 -78h-408zM444 436q23 0 36 -16t10 -38q-3 -23 -21 -38.5t-41 -15.5t-36 15.5t-10 38.5q3 22 21 38t41 16z" />
    <glyph glyph-name="ldot" unicode="&#x140;" horiz-adv-x="336" 
d="M187 756h78l-106 -756h-78zM353 437q23 0 36 -16t10 -38q-3 -23 -21 -38.5t-41 -15.5t-36 15.5t-10 38.5q3 22 21 38t41 16z" />
    <glyph glyph-name="Lslash" unicode="&#x141;" horiz-adv-x="500" 
d="M119 221l-88 -67l11 79l88 67l57 408h84l-47 -336l242 186l-11 -79l-242 -186l-31 -215h324l-10 -78h-408z" />
    <glyph glyph-name="lslash" unicode="&#x142;" horiz-adv-x="240" 
d="M124 308l-93 -81l12 82l92 81l52 366h78l-41 -288l93 81l-12 -81l-92 -81l-54 -387h-78z" />
    <glyph glyph-name="Nacute" unicode="&#x143;" horiz-adv-x="778" 
d="M187 708h106l327 -588h2l83 588h84l-99 -708h-106l-328 588h-2l-82 -588h-84zM548 902h110l-163 -144h-71z" />
    <glyph glyph-name="nacute" unicode="&#x144;" 
d="M124 357q5 32 6.5 60t4.5 51h74l-4 -38t-5 -39h2q10 17 27 33t39 28.5t48 20t55 7.5q46 0 77.5 -14t50 -39t24 -60.5t-0.5 -77.5l-40 -289h-78l39 281q8 59 -13 93t-76 34q-76 0 -117.5 -50t-52.5 -130l-32 -228h-78zM400 708h110l-163 -144h-71z" />
    <glyph glyph-name="Ncommaaccent" unicode="&#x145;" horiz-adv-x="778" 
d="M187 708h106l327 -588h2l83 588h84l-99 -708h-106l-328 588h-2l-82 -588h-84zM323 -228h-66l76 167h86z" />
    <glyph glyph-name="ncommaaccent" unicode="&#x146;" 
d="M124 357q5 32 6.5 60t4.5 51h74l-4 -38t-5 -39h2q10 17 27 33t39 28.5t48 20t55 7.5q46 0 77.5 -14t50 -39t24 -60.5t-0.5 -77.5l-40 -289h-78l39 281q8 59 -13 93t-76 34q-76 0 -117.5 -50t-52.5 -130l-32 -228h-78zM218 -228h-66l76 167h86z" />
    <glyph glyph-name="Ncaron" unicode="&#x147;" horiz-adv-x="778" 
d="M187 708h106l327 -588h2l83 588h84l-99 -708h-106l-328 588h-2l-82 -588h-84zM540 758h-91l-91 144h81l64 -102l91 102h76z" />
    <glyph glyph-name="ncaron" unicode="&#x148;" 
d="M124 357q5 32 6.5 60t4.5 51h74l-4 -38t-5 -39h2q10 17 27 33t39 28.5t48 20t55 7.5q46 0 77.5 -14t50 -39t24 -60.5t-0.5 -77.5l-40 -289h-78l39 281q8 59 -13 93t-76 34q-76 0 -117.5 -50t-52.5 -130l-32 -228h-78zM410 564h-91l-91 144h81l64 -102l91 102h76z" />
    <glyph glyph-name="napostrophe" unicode="&#x149;" 
d="M124 357q5 32 6.5 60t4.5 51h74l-4 -38t-5 -39h2q10 17 27 33t39 28.5t48 20t55 7.5q46 0 77.5 -14t50 -39t24 -60.5t-0.5 -77.5l-40 -289h-78l39 281q8 59 -13 93t-76 34q-76 0 -117.5 -50t-52.5 -130l-32 -228h-78zM158 531h-66l77 177h86z" />
    <glyph glyph-name="Omacron" unicode="&#x14c;" horiz-adv-x="834" 
d="M414 -18q-81 0 -145 28t-106 77.5t-60 118t-7 148.5t48.5 148.5t93.5 118t128 77.5t153 28t144.5 -28t105.5 -77.5t60 -118t7 -148.5t-48 -148.5t-93.5 -118t-128 -77.5t-152.5 -28zM425 60q62 0 117 23t97.5 63t70 93.5t36.5 114.5t-4 114.5t-44 93.5t-79.5 63
t-110.5 23t-117 -23t-97.5 -63t-70.5 -93.5t-37 -114.5t4 -114.5t44.5 -93.5t80 -63t110.5 -23zM667 794h-276l9 60h276z" />
    <glyph glyph-name="omacron" unicode="&#x14d;" horiz-adv-x="594" 
d="M79 234q8 55 33 100t63 77.5t86.5 50.5t102.5 18t97.5 -18t72 -50.5t41 -77.5t4.5 -100t-33 -100t-62.5 -77.5t-86 -50.5t-102.5 -18t-97.5 18t-72 50.5t-41.5 77.5t-5 100zM163 234q-5 -37 2.5 -68.5t26 -55t47 -37t66.5 -13.5t70.5 13.5t57.5 37t41 55t21 68.5t-2 68.5
t-25.5 55t-47 37t-66.5 13.5t-70.5 -13.5t-57.5 -37t-41.5 -55t-21.5 -68.5zM519 600h-276l8 60h276z" />
    <glyph glyph-name="Obreve" unicode="&#x14e;" horiz-adv-x="834" 
d="M414 -18q-81 0 -145 28t-106 77.5t-60 118t-7 148.5t48.5 148.5t93.5 118t128 77.5t153 28t144.5 -28t105.5 -77.5t60 -118t7 -148.5t-48 -148.5t-93.5 -118t-128 -77.5t-152.5 -28zM425 60q62 0 117 23t97.5 63t70 93.5t36.5 114.5t-4 114.5t-44 93.5t-79.5 63
t-110.5 23t-117 -23t-97.5 -63t-70.5 -93.5t-37 -114.5t4 -114.5t44.5 -93.5t80 -63t110.5 -23zM437 896q3 -39 28.5 -58.5t63.5 -19.5q45 0 72.5 16.5t44.5 61.5h48q-16 -66 -62 -99t-110 -33q-63 0 -101 33t-33 99h49z" />
    <glyph glyph-name="obreve" unicode="&#x14f;" horiz-adv-x="594" 
d="M79 234q8 55 33 100t63 77.5t86.5 50.5t102.5 18t97.5 -18t72 -50.5t41 -77.5t4.5 -100t-33 -100t-62.5 -77.5t-86 -50.5t-102.5 -18t-97.5 18t-72 50.5t-41.5 77.5t-5 100zM163 234q-5 -37 2.5 -68.5t26 -55t47 -37t66.5 -13.5t70.5 13.5t57.5 37t41 55t21 68.5t-2 68.5
t-25.5 55t-47 37t-66.5 13.5t-70.5 -13.5t-57.5 -37t-41.5 -55t-21.5 -68.5zM291 702q2 -39 28 -58.5t64 -19.5q44 0 72 17t45 61h48q-16 -66 -62 -99t-110 -33q-63 0 -101 33t-33 99h49z" />
    <glyph glyph-name="Ohungarumlaut" unicode="&#x150;" horiz-adv-x="834" 
d="M414 -18q-81 0 -145 28t-106 77.5t-60 118t-7 148.5t48.5 148.5t93.5 118t128 77.5t153 28t144.5 -28t105.5 -77.5t60 -118t7 -148.5t-48 -148.5t-93.5 -118t-128 -77.5t-152.5 -28zM425 60q62 0 117 23t97.5 63t70 93.5t36.5 114.5t-4 114.5t-44 93.5t-79.5 63
t-110.5 23t-117 -23t-97.5 -63t-70.5 -93.5t-37 -114.5t4 -114.5t44.5 -93.5t80 -63t110.5 -23zM480 758h-67l120 144h96zM637 758h-68l129 144h102z" />
    <glyph glyph-name="ohungarumlaut" unicode="&#x151;" horiz-adv-x="594" 
d="M79 234q8 55 33 100t63 77.5t86.5 50.5t102.5 18t97.5 -18t72 -50.5t41 -77.5t4.5 -100t-33 -100t-62.5 -77.5t-86 -50.5t-102.5 -18t-97.5 18t-72 50.5t-41.5 77.5t-5 100zM163 234q-5 -37 2.5 -68.5t26 -55t47 -37t66.5 -13.5t70.5 13.5t57.5 37t41 55t21 68.5t-2 68.5
t-25.5 55t-47 37t-66.5 13.5t-70.5 -13.5t-57.5 -37t-41.5 -55t-21.5 -68.5zM331 564h-67l120 144h96zM488 564h-68l129 144h102z" />
    <glyph glyph-name="OE" unicode="&#x152;" horiz-adv-x="963" 
d="M659 408h282l-11 -78h-282l-36 -252h306l-10 -78h-460q-98 0 -167.5 29.5t-112 78.5t-58.5 113t-6 133t43.5 133t90 113t134 78.5t175.5 29.5h454l-11 -78h-300zM606 630h-66q-80 0 -141 -24t-104.5 -63t-68.5 -88.5t-32 -100.5t4 -100.5t43.5 -88.5t86.5 -63t134 -24h66
z" />
    <glyph glyph-name="oe" unicode="&#x153;" horiz-adv-x="907" 
d="M539 210q-4 -31 2.5 -58t21.5 -47.5t38.5 -32.5t52.5 -12q51 0 88.5 18t70.5 53l52 -46q-49 -54 -102 -75.5t-119 -21.5q-51 0 -94 22.5t-67 73.5q-43 -48 -92.5 -72t-112.5 -24q-56 0 -98.5 17.5t-69.5 50t-38.5 77.5t-3.5 101q7 53 31.5 98t61 78t83.5 51.5t100 18.5
q63 0 106.5 -22t75.5 -72q85 94 190 94q49 0 88 -16.5t63.5 -48t34.5 -77t2 -103.5l-4 -25h-361zM152 234q-5 -34 0.5 -65.5t22 -55.5t43.5 -38.5t66 -14.5q40 0 72 13.5t56 37.5t38.5 55.5t19.5 67.5q5 34 -0.5 65.5t-22 55.5t-44 38.5t-66.5 14.5t-71 -14t-55.5 -37.5
t-38.5 -55t-20 -67.5zM825 276q6 60 -25.5 96t-96.5 36q-29 0 -55 -11.5t-47 -30t-35 -42.5t-18 -48h277z" />
    <glyph glyph-name="Racute" unicode="&#x154;" horiz-adv-x="611" 
d="M187 708h181q51 0 101 -6t87 -26t56.5 -58.5t10.5 -104.5q-11 -78 -65 -126t-139 -61l156 -326h-103l-148 318h-108l-44 -318h-84zM227 396h75q35 0 73 2t71 13t57 34.5t30 67.5q5 38 -7 61t-34.5 35.5t-52.5 16.5t-61 4h-118zM447 902h110l-163 -144h-71z" />
    <glyph glyph-name="racute" unicode="&#x155;" horiz-adv-x="352" 
d="M124 357q5 32 6.5 60t4.5 51h74l-4 -38t-5 -39h2q10 17 27 33t39 28.5t48 20t55 7.5q8 0 15.5 -1t15.5 -4l-16 -79q-18 6 -41 6q-72 0 -111 -46.5t-50 -127.5l-32 -228h-78zM336 708h110l-163 -144h-71z" />
    <glyph glyph-name="Rcommaaccent" unicode="&#x156;" horiz-adv-x="611" 
d="M187 708h181q51 0 101 -6t87 -26t56.5 -58.5t10.5 -104.5q-11 -78 -65 -126t-139 -61l156 -326h-103l-148 318h-108l-44 -318h-84zM227 396h75q35 0 73 2t71 13t57 34.5t30 67.5q5 38 -7 61t-34.5 35.5t-52.5 16.5t-61 4h-118zM234 -228h-66l76 167h86z" />
    <glyph glyph-name="rcommaaccent" unicode="&#x157;" horiz-adv-x="352" 
d="M124 357q5 32 6.5 60t4.5 51h74l-4 -38t-5 -39h2q10 17 27 33t39 28.5t48 20t55 7.5q8 0 15.5 -1t15.5 -4l-16 -79q-18 6 -41 6q-72 0 -111 -46.5t-50 -127.5l-32 -228h-78zM113 -228h-66l76 167h86z" />
    <glyph glyph-name="Rcaron" unicode="&#x158;" horiz-adv-x="611" 
d="M187 708h181q51 0 101 -6t87 -26t56.5 -58.5t10.5 -104.5q-11 -78 -65 -126t-139 -61l156 -326h-103l-148 318h-108l-44 -318h-84zM227 396h75q35 0 73 2t71 13t57 34.5t30 67.5q5 38 -7 61t-34.5 35.5t-52.5 16.5t-61 4h-118zM450 758h-91l-91 144h81l64 -102l91 102h76
z" />
    <glyph glyph-name="rcaron" unicode="&#x159;" horiz-adv-x="352" 
d="M124 357q5 32 6.5 60t4.5 51h74l-4 -38t-5 -39h2q10 17 27 33t39 28.5t48 20t55 7.5q8 0 15.5 -1t15.5 -4l-16 -79q-18 6 -41 6q-72 0 -111 -46.5t-50 -127.5l-32 -228h-78zM311 564h-91l-91 144h81l64 -102l91 102h76z" />
    <glyph glyph-name="Sacute" unicode="&#x15a;" 
d="M505 583q-16 34 -48.5 49.5t-70.5 15.5q-28 0 -56 -7t-51.5 -21t-40 -37t-20.5 -54q-3 -24 1.5 -42.5t20 -33.5t42 -28t67.5 -26q39 -13 75.5 -28t62.5 -38t38.5 -57.5t5.5 -86.5q-8 -53 -34 -92t-64.5 -64.5t-85 -38t-94.5 -12.5q-31 0 -61.5 5.5t-57.5 17t-49 30
t-36 45.5l80 59q17 -39 55.5 -59t84.5 -20q27 0 55.5 8t53 23.5t41.5 38.5t21 53q4 33 -4 53.5t-28.5 35.5t-54 27t-78.5 28q-36 12 -66 27.5t-50 38t-29 54t-3 75.5q7 51 32.5 89t63 63.5t82.5 38.5t92 13q60 0 106.5 -18.5t79.5 -64.5zM452 902h110l-163 -144h-71z" />
    <glyph glyph-name="sacute" unicode="&#x15b;" horiz-adv-x="426" 
d="M101 123q19 -29 44 -46t67 -17q18 0 37 4t35 13t27 22.5t14 32.5t-4 31t-20 20.5t-30.5 13.5t-35.5 9q-32 7 -61 16t-49 23.5t-30 37.5t-5 59q4 34 23 60t46 43t59.5 26t65.5 9q50 0 89.5 -20t57.5 -65l-71 -43q-11 25 -33.5 40.5t-57.5 15.5q-16 0 -33 -4t-31.5 -12
t-24.5 -20.5t-12 -28.5q-2 -15 6 -25.5t23 -18.5t35.5 -14t43.5 -10q30 -6 56.5 -15.5t45.5 -25.5t27.5 -40t3.5 -59q-5 -40 -25 -68t-49 -45.5t-63.5 -25.5t-69.5 -8q-60 0 -101 18.5t-69 68.5zM354 708h110l-163 -144h-71z" />
    <glyph glyph-name="Scircumflex" unicode="&#x15c;" 
d="M505 583q-16 34 -48.5 49.5t-70.5 15.5q-28 0 -56 -7t-51.5 -21t-40 -37t-20.5 -54q-3 -24 1.5 -42.5t20 -33.5t42 -28t67.5 -26q39 -13 75.5 -28t62.5 -38t38.5 -57.5t5.5 -86.5q-8 -53 -34 -92t-64.5 -64.5t-85 -38t-94.5 -12.5q-31 0 -61.5 5.5t-57.5 17t-49 30
t-36 45.5l80 59q17 -39 55.5 -59t84.5 -20q27 0 55.5 8t53 23.5t41.5 38.5t21 53q4 33 -4 53.5t-28.5 35.5t-54 27t-78.5 28q-36 12 -66 27.5t-50 38t-29 54t-3 75.5q7 51 32.5 89t63 63.5t82.5 38.5t92 13q60 0 106.5 -18.5t79.5 -64.5zM373 902h91l92 -144h-81l-65 102
l-92 -102h-76z" />
    <glyph glyph-name="scircumflex" unicode="&#x15d;" horiz-adv-x="426" 
d="M101 123q19 -29 44 -46t67 -17q18 0 37 4t35 13t27 22.5t14 32.5t-4 31t-20 20.5t-30.5 13.5t-35.5 9q-32 7 -61 16t-49 23.5t-30 37.5t-5 59q4 34 23 60t46 43t59.5 26t65.5 9q50 0 89.5 -20t57.5 -65l-71 -43q-11 25 -33.5 40.5t-57.5 15.5q-16 0 -33 -4t-31.5 -12
t-24.5 -20.5t-12 -28.5q-2 -15 6 -25.5t23 -18.5t35.5 -14t43.5 -10q30 -6 56.5 -15.5t45.5 -25.5t27.5 -40t3.5 -59q-5 -40 -25 -68t-49 -45.5t-63.5 -25.5t-69.5 -8q-60 0 -101 18.5t-69 68.5zM276 708h91l92 -144h-81l-65 102l-92 -102h-76z" />
    <glyph glyph-name="Scedilla" unicode="&#x15e;" 
d="M505 583q-16 34 -48.5 49.5t-70.5 15.5q-28 0 -56 -7t-51.5 -21t-40 -37t-20.5 -54q-3 -24 1.5 -42.5t19.5 -33.5t42 -28t68 -26q39 -13 75.5 -28t62.5 -38t38.5 -57.5t5.5 -86.5q-7 -47 -29 -83t-54 -61.5t-72 -40.5t-83 -20l-40 -48q7 1 15 2.5t20 1.5q13 0 26.5 -4
t24 -12.5t16.5 -21.5t3 -31q-3 -24 -16 -41t-31.5 -27.5t-40 -15t-41.5 -4.5q-26 0 -50 5t-46 16l22 37q32 -16 70 -16q20 0 41.5 8.5t25.5 32.5q3 21 -13.5 29.5t-33.5 8.5q-10 0 -20.5 -2.5t-19.5 -5.5l-17 19l58 67q-30 1 -59.5 7t-56 17.5t-47.5 29.5t-34 44l80 59
q18 -39 56 -59t84 -20q27 0 55.5 8t53 23.5t41.5 38.5t21 53q5 33 -3.5 53.5t-29.5 35.5t-54 27t-78 28q-36 12 -66 27.5t-50 38t-29 54t-3 75.5q7 51 32.5 89t63 63.5t82.5 38.5t92 13q60 0 106.5 -18.5t79.5 -64.5z" />
    <glyph glyph-name="scedilla" unicode="&#x15f;" horiz-adv-x="426" 
d="M101 123q19 -29 44 -46t67 -17q18 0 37 4t35 13t27 22.5t14 32.5t-4 31t-19.5 20.5t-30 13.5t-36.5 9q-32 7 -60.5 16t-49 23.5t-30.5 37.5t-5 59q4 34 23 60t46 43t59.5 26t65.5 9q51 0 90 -20t57 -65l-71 -43q-11 25 -33.5 40.5t-57.5 15.5q-16 0 -33 -4t-31.5 -12
t-24.5 -20.5t-12 -28.5q-2 -14 6 -25t23 -19t35.5 -14t43.5 -10q31 -6 57.5 -15.5t45 -25.5t27 -40t3.5 -59t-21 -60.5t-39.5 -43.5t-53 -28t-59.5 -13l-45 -54q7 1 15 2.5t20 1.5q13 0 26.5 -4t24 -12.5t16.5 -21.5t3 -31q-3 -24 -16 -41t-31.5 -27.5t-40 -15t-41.5 -4.5
q-26 0 -50 5t-46 16l22 37q32 -16 70 -16q20 0 41.5 8.5t25.5 32.5q3 21 -13.5 29.5t-33.5 8.5q-10 0 -20.5 -2.5t-19.5 -5.5l-17 19l63 73q-54 2 -92.5 20.5t-64.5 66.5z" />
    <glyph glyph-name="Scaron" unicode="&#x160;" 
d="M505 583q-16 34 -48.5 49.5t-70.5 15.5q-28 0 -56 -7t-51.5 -21t-40 -37t-20.5 -54q-3 -24 1.5 -42.5t20 -33.5t42 -28t67.5 -26q39 -13 75.5 -28t62.5 -38t38.5 -57.5t5.5 -86.5q-8 -53 -34 -92t-64.5 -64.5t-85 -38t-94.5 -12.5q-31 0 -61.5 5.5t-57.5 17t-49 30
t-36 45.5l80 59q17 -39 55.5 -59t84.5 -20q27 0 55.5 8t53 23.5t41.5 38.5t21 53q4 33 -4 53.5t-28.5 35.5t-54 27t-78.5 28q-36 12 -66 27.5t-50 38t-29 54t-3 75.5q7 51 32.5 89t63 63.5t82.5 38.5t92 13q60 0 106.5 -18.5t79.5 -64.5zM430 758h-91l-91 144h81l64 -102
l91 102h76z" />
    <glyph glyph-name="scaron" unicode="&#x161;" horiz-adv-x="426" 
d="M101 123q19 -29 44 -46t67 -17q18 0 37 4t35 13t27 22.5t14 32.5t-4 31t-20 20.5t-30.5 13.5t-35.5 9q-32 7 -61 16t-49 23.5t-30 37.5t-5 59q4 34 23 60t46 43t59.5 26t65.5 9q50 0 89.5 -20t57.5 -65l-71 -43q-11 25 -33.5 40.5t-57.5 15.5q-16 0 -33 -4t-31.5 -12
t-24.5 -20.5t-12 -28.5q-2 -15 6 -25.5t23 -18.5t35.5 -14t43.5 -10q30 -6 56.5 -15.5t45.5 -25.5t27.5 -40t3.5 -59q-5 -40 -25 -68t-49 -45.5t-63.5 -25.5t-69.5 -8q-60 0 -101 18.5t-69 68.5zM338 580h-91l-91 144h81l64 -102l91 102h76z" />
    <glyph glyph-name="Tcommaaccent" unicode="&#x162;" horiz-adv-x="574" 
d="M651 630h-234l-88 -630h-84l88 630h-234l11 78h552zM225 -228h-66l76 167h86z" />
    <glyph glyph-name="tcommaaccent" unicode="&#x163;" horiz-adv-x="352" 
d="M386 402h-138l-33 -234q-3 -23 -4.5 -42.5t3 -34t17.5 -23t39 -8.5q17 0 35.5 4t35.5 12l-7 -71q-21 -9 -46 -13t-47 -4q-42 0 -65.5 11t-34.5 31t-11.5 49.5t4.5 65.5l36 257h-102l9 66h102l19 133h78l-19 -133h138zM138 -228h-66l76 167h86z" />
    <glyph glyph-name="Tcaron" unicode="&#x164;" horiz-adv-x="574" 
d="M651 630h-234l-88 -630h-84l88 630h-234l11 78h552zM439 758h-91l-91 144h81l64 -102l91 102h76z" />
    <glyph glyph-name="tcaron" unicode="&#x165;" horiz-adv-x="352" 
d="M386 402h-138l-33 -234q-3 -23 -4.5 -42.5t3 -34t17.5 -23t39 -8.5q17 0 35.5 4t35.5 12l-7 -71q-21 -9 -46 -13t-47 -4q-42 0 -65.5 11t-34.5 31t-11.5 49.5t4.5 65.5l36 257h-102l9 66h102l19 133h78l-19 -133h138zM397 531h-66l77 177h86z" />
    <glyph glyph-name="Tbar" unicode="&#x166;" horiz-adv-x="574" 
d="M535 409h-149l-57 -409h-84l57 409h-143l8 60h143l23 161h-234l11 78h552l-11 -78h-234l-23 -161h149z" />
    <glyph glyph-name="tbar" unicode="&#x167;" horiz-adv-x="352" 
d="M349 277h-119l-15 -109q-3 -23 -4.5 -42.5t3 -34t17.5 -23t39 -8.5q17 0 35.5 4t35.5 12l-7 -71q-21 -9 -46 -13t-47 -4q-42 0 -65.5 11t-34.5 31t-11.5 49.5t4.5 65.5l18 132h-79l9 60h79l9 65h-102l9 66h102l19 133h78l-19 -133h138l-9 -66h-138l-9 -65h119z" />
    <glyph glyph-name="Utilde" unicode="&#x168;" horiz-adv-x="704" 
d="M656 270q-8 -58 -29.5 -110t-59 -91.5t-91.5 -63t-127 -23.5t-120.5 23.5t-74 63t-33.5 91.5t1 110l62 438h84l-60 -426q-6 -43 -3 -83t20 -71t49.5 -49.5t85.5 -18.5t90.5 18.5t63 49.5t40 71t20.5 83l60 426h84zM294 770q6 19 16 38t24 33.5t32.5 23.5t41.5 9
t42.5 -7.5t38.5 -15.5q14 -6 25 -11.5t27 -5.5q20 0 33 13t21 31h48q-6 -19 -15 -37.5t-22.5 -33.5t-31 -24t-39.5 -9q-21 0 -40.5 6.5t-37.5 14.5q-14 6 -30 12.5t-33 6.5q-19 0 -31.5 -13.5t-20.5 -30.5h-48z" />
    <glyph glyph-name="utilde" unicode="&#x169;" 
d="M497 111q-5 -32 -6.5 -60t-4.5 -51h-74l4 38t4 39h-2q-10 -17 -27 -33t-38.5 -28.5t-47.5 -20t-55 -7.5q-46 0 -77.5 14t-50 39t-24 60.5t0.5 77.5l40 289h78l-39 -281q-8 -59 13 -93t76 -34q76 0 117.5 50t52.5 130l32 228h78zM194 576q6 19 16.5 38t25 33.5t33 23.5
t40.5 9q23 0 42 -7.5t39 -15.5q14 -6 24.5 -11.5t26.5 -5.5q20 0 33.5 13t21.5 31h48q-6 -19 -15.5 -37.5t-22.5 -33.5t-30.5 -24t-39.5 -9q-21 0 -40.5 6.5t-37.5 14.5q-14 6 -30 12.5t-33 6.5q-19 0 -32 -13.5t-21 -30.5h-48z" />
    <glyph glyph-name="Umacron" unicode="&#x16a;" horiz-adv-x="704" 
d="M656 270q-8 -58 -29.5 -110t-59 -91.5t-91.5 -63t-127 -23.5t-120.5 23.5t-74 63t-33.5 91.5t1 110l62 438h84l-60 -426q-6 -43 -3 -83t20 -71t49.5 -49.5t85.5 -18.5t90.5 18.5t63 49.5t40 71t20.5 83l60 426h84zM602 794h-276l9 60h276z" />
    <glyph glyph-name="umacron" unicode="&#x16b;" 
d="M497 111q-5 -32 -6.5 -60t-4.5 -51h-74l4 38t4 39h-2q-10 -17 -27 -33t-38.5 -28.5t-47.5 -20t-55 -7.5q-46 0 -77.5 14t-50 39t-24 60.5t0.5 77.5l40 289h78l-39 -281q-8 -59 13 -93t76 -34q76 0 117.5 50t52.5 130l32 228h78zM503 600h-276l8 60h276z" />
    <glyph glyph-name="Ubreve" unicode="&#x16c;" horiz-adv-x="704" 
d="M656 270q-8 -58 -29.5 -110t-59 -91.5t-91.5 -63t-127 -23.5t-120.5 23.5t-74 63t-33.5 91.5t1 110l62 438h84l-60 -426q-6 -43 -3 -83t20 -71t49.5 -49.5t85.5 -18.5t90.5 18.5t63 49.5t40 71t20.5 83l60 426h84zM374 896q3 -39 28.5 -58.5t63.5 -19.5q45 0 72.5 16.5
t44.5 61.5h48q-16 -66 -62 -99t-110 -33q-63 0 -101 33t-33 99h49z" />
    <glyph glyph-name="ubreve" unicode="&#x16d;" 
d="M497 111q-5 -32 -6.5 -60t-4.5 -51h-74l4 38t4 39h-2q-10 -17 -27 -33t-38.5 -28.5t-47.5 -20t-55 -7.5q-46 0 -77.5 14t-50 39t-24 60.5t0.5 77.5l40 289h78l-39 -281q-8 -59 13 -93t76 -34q76 0 117.5 50t52.5 130l32 228h78zM275 702q2 -39 28 -58.5t64 -19.5
q44 0 72 17t45 61h48q-16 -66 -62 -99t-110 -33q-63 0 -101 33t-33 99h49z" />
    <glyph glyph-name="Uring" unicode="&#x16e;" horiz-adv-x="704" 
d="M656 270q-8 -58 -29.5 -110t-59 -91.5t-91.5 -63t-127 -23.5t-120.5 23.5t-74 63t-33.5 91.5t1 110l62 438h84l-60 -426q-6 -43 -3 -83t20 -71t49.5 -49.5t85.5 -18.5t90.5 18.5t63 49.5t40 71t20.5 83l60 426h84zM370 829q3 20 13 38t25 31.5t34.5 21.5t40.5 8
q45 0 67.5 -29.5t17.5 -69.5q-3 -21 -13 -39t-25 -31.5t-34.5 -21t-40.5 -7.5q-43 0 -67 28.5t-18 70.5zM412 829q-4 -25 11.5 -41t37.5 -16t41.5 16t23.5 41q4 24 -11.5 40.5t-37.5 16.5t-41.5 -16.5t-23.5 -40.5z" />
    <glyph glyph-name="uring" unicode="&#x16f;" 
d="M497 111q-5 -32 -6.5 -60t-4.5 -51h-74l4 38t4 39h-2q-10 -17 -27 -33t-38.5 -28.5t-47.5 -20t-55 -7.5q-46 0 -77.5 14t-50 39t-24 60.5t0.5 77.5l40 289h78l-39 -281q-8 -59 13 -93t76 -34q76 0 117.5 50t52.5 130l32 228h78zM272 645q3 20 13 38t25 31.5t34.5 21.5
t40.5 8q44 0 67.5 -29.5t17.5 -69.5q-3 -20 -13 -38t-25 -31.5t-34.5 -21.5t-40.5 -8q-43 0 -66.5 29t-18.5 70zM314 645q-3 -25 12 -41t37 -16t42 16t23 41q4 24 -11.5 40.5t-37.5 16.5t-41.5 -16.5t-23.5 -40.5z" />
    <glyph glyph-name="Uhungarumlaut" unicode="&#x170;" horiz-adv-x="704" 
d="M656 270q-8 -58 -29.5 -110t-59 -91.5t-91.5 -63t-127 -23.5t-120.5 23.5t-74 63t-33.5 91.5t1 110l62 438h84l-60 -426q-6 -43 -3 -83t20 -71t49.5 -49.5t85.5 -18.5t90.5 18.5t63 49.5t40 71t20.5 83l60 426h84zM403 758h-67l120 144h96zM560 758h-68l129 144h102z" />
    <glyph glyph-name="uhungarumlaut" unicode="&#x171;" 
d="M497 111q-5 -32 -6.5 -60t-4.5 -51h-74l4 38t4 39h-2q-10 -17 -27 -33t-38.5 -28.5t-47.5 -20t-55 -7.5q-46 0 -77.5 14t-50 39t-24 60.5t0.5 77.5l40 289h78l-39 -281q-8 -59 13 -93t76 -34q76 0 117.5 50t52.5 130l32 228h78zM306 564h-67l120 144h96zM463 564h-68
l129 144h102z" />
    <glyph glyph-name="Uogonek" unicode="&#x172;" horiz-adv-x="704" 
d="M431 -182q-21 -18 -46.5 -28.5t-51.5 -10.5q-37 0 -61.5 23.5t-19.5 61.5q5 35 29.5 65.5t53.5 52.5q-69 2 -114 26t-69.5 63.5t-31 90.5t1.5 108l62 438h84l-60 -426q-6 -43 -2.5 -83t20 -71t49 -49.5t85.5 -18.5q52 0 90 18.5t63.5 49.5t40 71t20.5 83l60 426h84
l-62 -438q-8 -54 -27 -102.5t-51.5 -87t-79 -64t-108.5 -32.5q-23 -18 -43.5 -44t-25.5 -55q-2 -20 8 -33.5t34 -12.5q13 0 27.5 5.5t25.5 14.5z" />
    <glyph glyph-name="uogonek" unicode="&#x173;" 
d="M480 -182q-21 -18 -46.5 -28.5t-51.5 -10.5q-37 0 -61.5 23.5t-19.5 61.5q3 21 14 41t27 38t34.5 32.5t35.5 24.5l4 38t4 39h-2q-10 -17 -27 -33t-38.5 -28.5t-47.5 -20t-55 -7.5q-46 0 -77.5 14t-50 39t-24 60.5t0.5 77.5l40 289h78l-39 -281q-8 -60 13 -93.5t76 -33.5
q76 0 117.5 50t52.5 130l32 228h78l-50 -357q-5 -32 -6.5 -60t-4.5 -51h-23q-13 -8 -28 -20t-28.5 -27t-23.5 -32.5t-13 -35.5q-2 -20 8 -33.5t34 -12.5q13 0 27.5 5.5t25.5 14.5z" />
    <glyph glyph-name="Wcircumflex" unicode="&#x174;" horiz-adv-x="963" 
d="M105 708h93l78 -588h2l257 588h94l90 -588h2l247 588h88l-307 -708h-91l-91 600h-2l-260 -600h-92zM562 902h91l92 -144h-81l-65 102l-92 -102h-76z" />
    <glyph glyph-name="wcircumflex" unicode="&#x175;" horiz-adv-x="741" 
d="M576 0h-77l-83 360h-2l-168 -360h-80l-87 468h86l57 -360h2l171 360h82l73 -360h2l156 360h84zM422 708h91l92 -144h-81l-65 102l-92 -102h-76z" />
    <glyph glyph-name="Ycircumflex" unicode="&#x176;" horiz-adv-x="594" 
d="M297 305l-207 403h107l154 -320l250 320h101l-321 -403l-42 -305h-84zM377 902h91l92 -144h-81l-65 102l-92 -102h-76z" />
    <glyph glyph-name="ycircumflex" unicode="&#x177;" horiz-adv-x="482" 
d="M230 -107q-16 -30 -32 -54.5t-35.5 -42t-45.5 -27t-61 -9.5q-17 0 -35.5 2t-32.5 10l19 68q20 -8 54 -8q38 0 59 21t39 56l44 88l-128 471h91l94 -367h2l190 367h85zM302 708h91l92 -144h-81l-65 102l-92 -102h-76z" />
    <glyph glyph-name="Ydieresis" unicode="&#x178;" horiz-adv-x="594" 
d="M297 305l-207 403h107l154 -320l250 320h101l-321 -403l-42 -305h-84zM321 878q23 0 36 -16t10 -38q-3 -23 -20.5 -38.5t-40.5 -15.5t-36.5 15.5t-10.5 38.5q3 22 21 38t41 16zM519 878q23 0 36 -16t10 -38q-3 -23 -20.5 -38.5t-40.5 -15.5t-36.5 15.5t-10.5 38.5
q3 22 21 38t41 16z" />
    <glyph glyph-name="Zacute" unicode="&#x179;" horiz-adv-x="574" 
d="M39 75l487 555h-403l11 78h505l-10 -72l-488 -558h414l-10 -78h-516zM463 902h110l-163 -144h-71z" />
    <glyph glyph-name="zacute" unicode="&#x17a;" horiz-adv-x="444" 
d="M38 61l323 341h-263l9 66h365l-8 -60l-323 -342h282l-9 -66h-384zM351 708h110l-163 -144h-71z" />
    <glyph glyph-name="Zdotaccent" unicode="&#x17b;" horiz-adv-x="574" 
d="M39 75l487 555h-403l11 78h505l-10 -72l-488 -558h414l-10 -78h-516zM421 878q23 0 36 -16t10 -38q-3 -23 -20.5 -38.5t-40.5 -15.5t-36.5 15.5t-10.5 38.5q3 22 21 38t41 16z" />
    <glyph glyph-name="zdotaccent" unicode="&#x17c;" horiz-adv-x="444" 
d="M38 61l323 341h-263l9 66h365l-8 -60l-323 -342h282l-9 -66h-384zM330 684q23 0 36 -16t10 -38q-3 -23 -21 -38.5t-41 -15.5t-36 15.5t-10 38.5q3 22 21 38t41 16z" />
    <glyph glyph-name="Zcaron" unicode="&#x17d;" horiz-adv-x="574" 
d="M39 75l487 555h-403l11 78h505l-10 -72l-488 -558h414l-10 -78h-516zM439 758h-91l-91 144h81l64 -102l91 102h76z" />
    <glyph glyph-name="zcaron" unicode="&#x17e;" horiz-adv-x="444" 
d="M38 61l323 341h-263l9 66h365l-8 -60l-323 -342h282l-9 -66h-384zM347 580h-91l-91 144h81l64 -102l91 102h76z" />
    <glyph glyph-name="florin" unicode="&#x192;" 
d="M481 359h-126l-113 -344q-12 -35 -27.5 -64t-37.5 -50t-52 -33t-70 -12q-23 0 -43.5 6t-37.5 18l43 63q21 -15 50 -15q24 0 40.5 10t27.5 25.5t18 34.5t13 37l106 324h-108l9 66h121l37 110q12 36 27 69.5t36.5 59t52.5 41t74 15.5q52 0 96 -28l-46 -62q-12 8 -25.5 13
t-28.5 5q-24 0 -41 -10.5t-29 -27t-20 -36.5t-14 -39l-37 -110h114z" />
    <glyph glyph-name="Scommaaccent" unicode="&#x218;" 
d="M505 583q-16 34 -48.5 49.5t-70.5 15.5q-28 0 -56 -7t-51.5 -21t-40 -37t-20.5 -54q-3 -24 1.5 -42.5t20 -33.5t42 -28t67.5 -26q39 -13 75.5 -28t62.5 -38t38.5 -57.5t5.5 -86.5q-8 -53 -34 -92t-64.5 -64.5t-85 -38t-94.5 -12.5q-31 0 -61.5 5.5t-57.5 17t-49 30
t-36 45.5l80 59q17 -39 55.5 -59t84.5 -20q27 0 55.5 8t53 23.5t41.5 38.5t21 53q4 33 -4 53.5t-28.5 35.5t-54 27t-78.5 28q-36 12 -66 27.5t-50 38t-29 54t-3 75.5q7 51 32.5 89t63 63.5t82.5 38.5t92 13q60 0 106.5 -18.5t79.5 -64.5zM214 -228h-66l76 167h86z" />
    <glyph glyph-name="scommaaccent" unicode="&#x219;" horiz-adv-x="426" 
d="M101 123q19 -29 44 -46t67 -17q18 0 37 4t35 13t27 22.5t14 32.5t-4 31t-20 20.5t-30.5 13.5t-35.5 9q-32 7 -61 16t-49 23.5t-30 37.5t-5 59q4 34 23 60t46 43t59.5 26t65.5 9q50 0 89.5 -20t57.5 -65l-71 -43q-11 25 -33.5 40.5t-57.5 15.5q-16 0 -33 -4t-31.5 -12
t-24.5 -20.5t-12 -28.5q-2 -15 6 -25.5t23 -18.5t35.5 -14t43.5 -10q30 -6 56.5 -15.5t45.5 -25.5t27.5 -40t3.5 -59q-5 -40 -25 -68t-49 -45.5t-63.5 -25.5t-69.5 -8q-60 0 -101 18.5t-69 68.5zM159 -228h-66l76 167h86z" />
    <glyph glyph-name="uni021A" unicode="&#x21a;" horiz-adv-x="574" 
d="M651 630h-234l-88 -630h-84l88 630h-234l11 78h552zM225 -228h-66l76 167h86z" />
    <glyph glyph-name="uni021B" unicode="&#x21b;" horiz-adv-x="352" 
d="M386 402h-138l-33 -234q-3 -23 -4.5 -42.5t3 -34t17.5 -23t39 -8.5q17 0 35.5 4t35.5 12l-7 -71q-21 -9 -46 -13t-47 -4q-42 0 -65.5 11t-34.5 31t-11.5 49.5t4.5 65.5l36 257h-102l9 66h102l19 133h78l-19 -133h138zM138 -228h-66l76 167h86z" />
    <glyph glyph-name="dotlessj" unicode="&#x237;" horiz-adv-x="240" 
d="M144 -105q-3 -18 -11.5 -41.5t-26.5 -44t-47 -35t-72 -14.5q-14 0 -27.5 2t-25.5 8l19 68q18 -6 37 -6q22 0 36 8t23 21.5t14 31.5t8 38l75 537h78z" />
    <glyph glyph-name="circumflex" unicode="&#x2c6;" horiz-adv-x="240" 
d="M173 708h91l92 -144h-81l-65 102l-92 -102h-76z" />
    <glyph glyph-name="caron" unicode="&#x2c7;" horiz-adv-x="240" 
d="M245 564h-91l-91 144h81l64 -102l91 102h76z" />
    <glyph glyph-name="uni02C9" unicode="&#x2c9;" horiz-adv-x="240" 
d="M342 600h-276l8 60h276z" />
    <glyph glyph-name="breve" unicode="&#x2d8;" horiz-adv-x="240" 
d="M114 702q2 -39 28 -58.5t64 -19.5q44 0 72 17t45 61h48q-16 -66 -62 -99t-110 -33q-63 0 -101 33t-33 99h49z" />
    <glyph glyph-name="dotaccent" unicode="&#x2d9;" horiz-adv-x="240" 
d="M216 684q23 0 36 -16t10 -38q-3 -23 -21 -38.5t-41 -15.5t-36 15.5t-10 38.5q3 22 21 38t41 16z" />
    <glyph glyph-name="ring" unicode="&#x2da;" horiz-adv-x="240" 
d="M111 645q3 20 13 38t25 31.5t34.5 21.5t40.5 8q44 0 67.5 -29.5t17.5 -69.5q-3 -20 -13 -38t-25 -31.5t-34.5 -21.5t-40.5 -8q-43 0 -66.5 29t-18.5 70zM153 645q-3 -25 12 -41t37 -16t42 16t23 41q4 24 -11.5 40.5t-37.5 16.5t-41.5 -16.5t-23.5 -40.5z" />
    <glyph glyph-name="ogonek" unicode="&#x2db;" horiz-adv-x="240" 
d="M177 -182q-21 -18 -46.5 -28.5t-51.5 -10.5q-37 0 -61 23.5t-19 61.5q3 21 14 41t26.5 38t34 32.5t35.5 24.5h51q-12 -8 -27.5 -20t-29 -27t-23.5 -32.5t-13 -35.5q-2 -20 8 -33.5t34 -12.5q13 0 27.5 5.5t25.5 14.5z" />
    <glyph glyph-name="tilde" unicode="&#x2dc;" horiz-adv-x="240" 
d="M33 576q6 19 16.5 38t25 33.5t33 23.5t40.5 9q23 0 42 -7.5t39 -15.5q14 -6 24.5 -11.5t26.5 -5.5q20 0 33.5 13t21.5 31h48q-6 -19 -15.5 -37.5t-22.5 -33.5t-30.5 -24t-39.5 -9q-21 0 -40.5 6.5t-37.5 14.5q-14 6 -30 12.5t-33 6.5q-19 0 -32 -13.5t-21 -30.5h-48z" />
    <glyph glyph-name="hungarumlaut" unicode="&#x2dd;" horiz-adv-x="240" 
d="M124 564h-67l120 144h96zM281 564h-68l129 144h102z" />
    <glyph glyph-name="uni0394" unicode="&#x394;" horiz-adv-x="670" 
d="M15 0l381 712h74l187 -712h-642zM422 645l-308 -583h455z" />
    <glyph glyph-name="uni03A9" unicode="&#x3a9;" horiz-adv-x="744" 
d="M434 0l25 181q46 8 83.5 28.5t65 51.5t45 70t23.5 84q7 54 -6 99t-42.5 77.5t-73 50.5t-96.5 18t-101.5 -18.5t-87 -51t-64.5 -77.5t-33 -98q-6 -44 0 -83.5t25 -70.5t50.5 -52t75.5 -28l-25 -181h-251l8 58h197l11 82q-45 13 -78 40t-53 63.5t-27 80.5t0 92
q9 67 42.5 123t83 96.5t111 63t126.5 22.5q64 0 119 -22.5t92.5 -63t55 -96.5t8.5 -122q-7 -48 -26 -92.5t-49 -81.5t-71 -63.5t-90 -39.5l-11 -82h197l-8 -58h-251z" />
    <glyph glyph-name="uni03BC" unicode="&#x3bc;" 
d="M497 111q-5 -32 -6.5 -60t-4.5 -51h-74l4 38t4 39h-2q-10 -17 -27 -33t-38.5 -28.5t-47.5 -20t-55 -7.5q-32 0 -53.5 5.5t-43.5 19.5l-34 -241h-78l98 696h78l-39 -281q-8 -59 13 -93t76 -34q76 0 117.5 50t52.5 130l32 228h78z" />
    <glyph glyph-name="pi" unicode="&#x3c0;" horiz-adv-x="563" 
d="M531 11q-18 -8 -33 -12.5t-33 -4.5q-29 0 -44 9.5t-20.5 26t-4 37.5t4.5 44l42 298h-220l-57 -409h-64l57 409h-70l8 59h494l-8 -59h-76l-43 -305q-3 -22 0.5 -38t30.5 -16q20 0 43 10z" />
    <glyph glyph-name="endash" unicode="&#x2013;" horiz-adv-x="500" 
d="M528 204h-500l10 72h500z" />
    <glyph glyph-name="emdash" unicode="&#x2014;" horiz-adv-x="1000" 
d="M38 276h1000l-10 -72h-1000z" />
    <glyph glyph-name="quoteleft" unicode="&#x2018;" horiz-adv-x="278" 
d="M241 708h76l-101 -240h-91z" />
    <glyph glyph-name="quoteright" unicode="&#x2019;" horiz-adv-x="278" 
d="M201 468h-76l101 240h91z" />
    <glyph glyph-name="quotesinglbase" unicode="&#x201a;" horiz-adv-x="278" 
d="M116 -138h-76l101 240h91z" />
    <glyph glyph-name="quotedblleft" unicode="&#x201c;" horiz-adv-x="519" 
d="M268 708h76l-101 -240h-91zM455 708h76l-101 -240h-91z" />
    <glyph glyph-name="quotedblright" unicode="&#x201d;" horiz-adv-x="519" 
d="M228 468h-76l101 240h91zM415 468h-76l101 240h91z" />
    <glyph glyph-name="quotedblbase" unicode="&#x201e;" horiz-adv-x="519" 
d="M143 -138h-76l101 240h91zM330 -138h-76l101 240h91z" />
    <glyph glyph-name="dagger" unicode="&#x2020;" 
d="M387 505h204l-9 -66h-204l-79 -565h-78l79 565h-204l9 66h204l29 203h78z" />
    <glyph glyph-name="daggerdbl" unicode="&#x2021;" 
d="M389 516h198l-9 -66h-198l-45 -318h198l-9 -66h-198l-27 -192h-78l27 192h-198l9 66h198l45 318h-198l9 66h198l27 192h78z" />
    <glyph glyph-name="bullet" unicode="&#x2022;" horiz-adv-x="500" 
d="M122 354q5 37 23.5 69t46 56t61.5 38t71 14t67 -14t51 -38t30 -56t4 -69t-23.5 -69t-46 -56t-61.5 -38t-71 -14t-67 14t-51 38t-30 56t-4 69z" />
    <glyph glyph-name="ellipsis" unicode="&#x2026;" horiz-adv-x="1000" 
d="M183 114q25 0 40 -17.5t11 -42.5t-24.5 -42.5t-43.5 -17.5t-39.5 17.5t-12.5 42.5t24 42.5t45 17.5zM516 114q25 0 40 -17.5t11 -42.5t-24.5 -42.5t-43.5 -17.5t-39.5 17.5t-12.5 42.5t24 42.5t45 17.5zM849 114q25 0 40 -17.5t11 -42.5t-24.5 -42.5t-43.5 -17.5
t-39.5 17.5t-12.5 42.5t24 42.5t45 17.5z" />
    <glyph glyph-name="perthousand" unicode="&#x2030;" horiz-adv-x="1018" 
d="M97 563q4 32 21 60.5t41.5 50t54.5 34t62 12.5t58.5 -12.5t45 -34t27 -50t4.5 -60.5q-5 -33 -21.5 -61.5t-40.5 -49.5t-54 -33.5t-63 -12.5t-60 12.5t-45 33.5t-26.5 49.5t-3.5 61.5zM163 563q-3 -18 2.5 -34.5t16 -29t26 -20t33.5 -7.5t35.5 7.5t32 20t24 29t12.5 34.5
q2 18 -3 34.5t-16 29t-26.5 20t-33.5 7.5t-35.5 -7.5t-32 -20t-24 -29t-11.5 -34.5zM346 145q4 32 21 60.5t41.5 50t54.5 34t62 12.5t58.5 -12.5t45 -34t27 -50t4.5 -60.5q-5 -33 -21 -61.5t-40.5 -49.5t-54.5 -33.5t-63 -12.5t-59.5 12.5t-45 33.5t-27 49.5t-3.5 61.5z
M412 145q-3 -18 2.5 -34.5t16 -29t26 -20t33.5 -7.5t35.5 7.5t32 20t24 29t12.5 34.5t-2.5 34.5t-16 29t-26 20t-33.5 7.5t-35.5 -7.5t-32 -20t-24 -29t-12.5 -34.5zM706 145q4 32 21 60.5t41.5 50t54.5 34t62 12.5t58.5 -12.5t45 -34t27 -50t4.5 -60.5q-5 -33 -21 -61.5
t-40.5 -49.5t-54.5 -33.5t-63 -12.5t-59.5 12.5t-45 33.5t-27 49.5t-3.5 61.5zM772 144q-3 -18 2.5 -34.5t16 -29t26 -20t33.5 -7.5t35.5 7.5t32 20t24 29t12.5 34.5q2 18 -3 34.5t-15.5 29t-26 20t-33.5 7.5t-35.5 -7.5t-32 -20t-24.5 -29t-12 -34.5zM629 740l50 -32
l-548 -740l-50 32z" />
    <glyph glyph-name="guilsinglleft" unicode="&#x2039;" horiz-adv-x="314" 
d="M172 240l92 -178l-60 -36l-113 214l173 214l50 -36z" />
    <glyph glyph-name="guilsinglright" unicode="&#x203a;" horiz-adv-x="314" 
d="M208 240l-92 178l60 36l113 -214l-173 -214l-50 36z" />
    <glyph glyph-name="fraction" unicode="&#x2044;" horiz-adv-x="167" 
d="M382 740l50 -32l-547 -740l-51 32z" />
    <glyph glyph-name="Euro" unicode="&#x20ac;" horiz-adv-x="580" 
d="M599 633q-47 30 -122 30q-88 0 -151.5 -51.5t-97.5 -142.5h300l-25 -55h-291q-5 -15 -8.5 -31.5t-5.5 -33.5q-2 -12 -3.5 -28.5t-0.5 -28.5h256l-26 -55h-231q2 -44 17 -79t41 -60.5t61.5 -39t77.5 -13.5q39 0 74 9.5t67 30.5l22 -56q-76 -47 -181 -47q-61 0 -107 21.5
t-77.5 57t-48 81.5t-18.5 95h-76l28 55h49q0 10 1 26t3 30q3 17 6 35.5t8 30.5h-69l27 55h57q23 61 57.5 109t78 81t94 50t104.5 17q42 0 79.5 -8.5t64.5 -23.5z" />
    <glyph glyph-name="afii61289" unicode="&#x2113;" horiz-adv-x="500" 
d="M420 41q-65 -55 -137 -55q-55 0 -87 31t-22 97l16 114l-67 -62h-2l-21 37l98 84l36 259q12 84 56 129.5t98 45.5q48 0 74 -34t18 -94q-11 -75 -65 -153t-151 -165l-21 -150q-4 -26 1 -43t14.5 -26.5t22 -13.5t25.5 -4q20 0 43.5 9t49.5 29h2zM422 588q5 38 -6.5 61.5
t-34.5 23.5t-46 -28t-31 -88l-31 -222q66 66 103.5 131t45.5 122z" />
    <glyph glyph-name="trademark" unicode="&#x2122;" horiz-adv-x="990" 
d="M284 642h-130l9 66h326l-9 -66h-130l-49 -346h-66zM572 708h105l79 -313l167 313h102l-58 -412h-66l49 346h-2l-185 -346h-45l-87 346h-2l-49 -346h-66z" />
    <glyph glyph-name="Omega" unicode="&#x2126;" horiz-adv-x="744" 
d="M434 0l25 181q46 8 83.5 28.5t65 51.5t45 70t23.5 84q7 54 -6 99t-42.5 77.5t-73 50.5t-96.5 18t-101.5 -18.5t-87 -51t-64.5 -77.5t-33 -98q-6 -44 0 -83.5t25 -70.5t50.5 -52t75.5 -28l-25 -181h-251l8 58h197l11 82q-45 13 -78 40t-53 63.5t-27 80.5t0 92
q9 67 42.5 123t83 96.5t111 63t126.5 22.5q64 0 119 -22.5t92.5 -63t55 -96.5t8.5 -122q-7 -48 -26 -92.5t-49 -81.5t-71 -63.5t-90 -39.5l-11 -82h197l-8 -58h-251z" />
    <glyph glyph-name="estimated" unicode="&#x212e;" horiz-adv-x="500" 
d="M157 259v-181q59 -59 145 -59q63 0 109 28.5t84 91.5l35 -21q-23 -36 -46.5 -61.5t-51 -42t-59.5 -24t-71 -7.5q-59 0 -106.5 21.5t-81.5 59t-52 87.5t-18 108t18 108.5t52 87.5t81.5 58.5t106.5 21.5q58 0 105.5 -20.5t81.5 -57t53 -87t19 -111.5h-404zM448 295v145
q-63 60 -147 60t-144 -60v-145h291z" />
    <glyph glyph-name="partialdiff" unicode="&#x2202;" horiz-adv-x="496" 
d="M506 363q-5 -37 -14.5 -79t-24 -83.5t-36 -80t-50.5 -68t-67 -47t-86 -17.5q-47 0 -81.5 18.5t-55.5 49.5t-29 71.5t-2 84.5q6 43 24.5 82t47.5 68t67.5 46t84.5 17q49 0 89 -23t65 -61q2 13 4.5 26t4.5 26q6 42 4 89.5t-17 88.5t-45.5 68t-82.5 27q-35 0 -62 -13
t-56 -33l-30 43q36 28 73 43t80 15q72 0 114.5 -34t63 -86.5t23 -116t-5.5 -121.5zM425 278q-23 36 -59 63.5t-84 27.5q-34 0 -61.5 -13t-47.5 -35t-33 -51t-17 -60q-4 -30 0.5 -60t18 -54.5t37 -39.5t57.5 -15q43 0 75.5 24t55.5 60t37 77t21 76z" />
    <glyph glyph-name="Delta" unicode="&#x2206;" horiz-adv-x="670" 
d="M15 0l381 712h74l187 -712h-642zM422 645l-308 -583h455z" />
    <glyph glyph-name="product" unicode="&#x220f;" horiz-adv-x="711" 
d="M575 -214v938h-438v-938h-66v1000h570v-1000h-66z" />
    <glyph glyph-name="summation" unicode="&#x2211;" horiz-adv-x="604" 
d="M25 -214v55l329 448l-315 441v56h527v-62h-442l309 -435l-328 -442h473v-61h-553z" />
    <glyph glyph-name="minus" unicode="&#x2212;" horiz-adv-x="666" 
d="M641 336l-10 -66h-522l10 66h522z" />
    <glyph glyph-name="uni2215" unicode="&#x2215;" horiz-adv-x="167" 
d="M382 740l50 -32l-547 -740l-51 32z" />
    <glyph glyph-name="uni2219" unicode="&#x2219;" horiz-adv-x="278" 
d="M190 369q25 0 40.5 -17.5t11.5 -42.5t-25 -42.5t-44 -17.5t-39 17.5t-12 42.5t23.5 42.5t44.5 17.5z" />
    <glyph glyph-name="radical" unicode="&#x221a;" horiz-adv-x="493" 
d="M292 -214h-66l-164 340l-46 -22l-24 50l100 48l158 -332l189 916h63z" />
    <glyph glyph-name="infinity" unicode="&#x221e;" horiz-adv-x="780" 
d="M728 292q0 -36 -13 -65.5t-34 -50.5t-48.5 -32t-57.5 -11q-48 0 -89.5 29.5t-94.5 89.5q-20 -23 -40.5 -44.5t-43.5 -38t-49 -26.5t-57 -10q-30 0 -57.5 12t-48 33t-32.5 49.5t-12 61.5q0 34 12 63t33 50.5t49.5 33.5t62.5 12q28 0 53 -10t48 -26.5t44 -38t41 -45.5
q19 22 39 43.5t42.5 38.5t48.5 27.5t58 10.5q33 0 59.5 -11.5t46 -31.5t30 -49t10.5 -63v-1zM209 180q24 0 45.5 10.5t40.5 26.5t36 34.5t33 35.5q-17 21 -34 41.5t-36.5 37t-42 26.5t-49.5 10q-24 0 -43 -9t-31.5 -25t-19.5 -36.5t-7 -43.5q1 -45 30 -76.5t77 -31.5h1z
M576 402q-26 0 -48.5 -12t-42 -29.5t-36.5 -36.5t-30 -32q50 -56 84.5 -84t75.5 -28q24 0 42 9.5t31 25t19.5 35t6.5 39.5q0 54 -28 83.5t-73 29.5h-1z" />
    <glyph glyph-name="integral" unicode="&#x222b;" horiz-adv-x="543" 
d="M406 736q0 -17 -10.5 -25.5t-26.5 -8.5q-14 0 -21 6t-11.5 13.5t-8.5 14t-11 6.5q-12 0 -19 -13t-10.5 -32.5t-5 -42.5t-1 -44.5t1 -37.5t0.5 -21v-504q0 -32 -1 -76.5t-12 -85.5t-36 -69.5t-73 -28.5q-21 0 -40.5 11t-19.5 36q0 14 9.5 23t23.5 9q13 0 20 -6t11.5 -13
t8.5 -13t10 -6q10 0 16 13t9.5 32.5t5 42t1.5 40.5v31l1 21v495q0 23 -1 53t0.5 61.5t7 61.5t19 54t36 38.5t57.5 14.5q11 0 23.5 -2.5t23 -8.5t17 -15.5t6.5 -23.5z" />
    <glyph glyph-name="approxequal" unicode="&#x2248;" horiz-adv-x="666" 
d="M652 402q-7 -26 -19 -51t-29.5 -44t-40.5 -30.5t-53 -11.5q-33 0 -68.5 11.5t-71 25t-68.5 25t-60 11.5q-34 0 -57 -24.5t-33 -55.5h-45q6 26 18 51t30 44.5t41.5 31.5t53.5 12q33 0 68 -11.5t70 -25t68.5 -25t62.5 -11.5q36 0 57.5 23t32.5 55h43zM628 232
q-7 -26 -19 -51t-29.5 -44.5t-41 -31t-53.5 -11.5q-33 0 -68.5 11.5t-70.5 25t-68 25t-60 11.5q-34 0 -57.5 -24.5t-32.5 -55.5h-45q7 26 19 51t29 45t40 32t54 12q33 0 68.5 -11.5t70.5 -25t68.5 -25t62.5 -11.5q35 0 56.5 23t32.5 55h44z" />
    <glyph glyph-name="notequal" unicode="&#x2260;" horiz-adv-x="666" 
d="M313 120l-96 -144l-48 27l78 117h-149l9 60h181l86 130h-249l9 60h282l97 147l48 -28l-79 -119h154l-9 -60h-186l-87 -130h255l-9 -60h-287z" />
    <glyph glyph-name="lessequal" unicode="&#x2264;" horiz-adv-x="666" 
d="M123 296l9 65l529 189l-9 -65l-441 -157l397 -155l-9 -65zM82 6l9 59h502l-9 -59h-502z" />
    <glyph glyph-name="greaterequal" unicode="&#x2265;" horiz-adv-x="666" 
d="M97 108l9 65l442 155l-398 157l9 65l475 -189l-9 -65zM82 6l9 59h502l-9 -59h-502z" />
    <glyph glyph-name="lozenge" unicode="&#x25ca;" horiz-adv-x="593" 
d="M327 -35h-63l-169 391l169 391h63l171 -391zM296 681l-136 -325l136 -325l137 325z" />
    <glyph glyph-name="grave.cap" unicode="&#xe300;" horiz-adv-x="240" 
d="M295 758h-71l-123 144h110z" />
    <glyph glyph-name="acute.cap" unicode="&#xe301;" horiz-adv-x="240" 
d="M281 902h110l-163 -144h-71z" />
    <glyph glyph-name="circumflex.cap" unicode="&#xe302;" horiz-adv-x="240" 
d="M200 902h91l92 -144h-81l-65 102l-92 -102h-76z" />
    <glyph glyph-name="caron.cap" unicode="&#xe303;" horiz-adv-x="240" 
d="M272 758h-91l-91 144h81l64 -102l91 102h76z" />
    <glyph glyph-name="tilde.cap" unicode="&#xe304;" horiz-adv-x="240" 
d="M61 770q6 19 16 38t24 33.5t32.5 23.5t41.5 9t42.5 -7.5t38.5 -15.5q14 -6 25 -11.5t27 -5.5q20 0 33 13t21 31h48q-6 -19 -15 -37.5t-22.5 -33.5t-31 -24t-39.5 -9q-21 0 -40.5 6.5t-37.5 14.5q-14 6 -30 12.5t-33 6.5q-19 0 -31.5 -13.5t-20.5 -30.5h-48z" />
    <glyph glyph-name="dieresis.cap" unicode="&#xe305;" horiz-adv-x="240" 
d="M144 878q23 0 36 -16t10 -38q-3 -23 -20.5 -38.5t-40.5 -15.5t-36.5 15.5t-10.5 38.5q3 22 21 38t41 16zM342 878q23 0 36 -16t10 -38q-3 -23 -20.5 -38.5t-40.5 -15.5t-36.5 15.5t-10.5 38.5q3 22 21 38t41 16z" />
    <glyph glyph-name="macron.cap" unicode="&#xe306;" horiz-adv-x="240" 
d="M369 794h-276l9 60h276z" />
    <glyph glyph-name="breve.cap" unicode="&#xe307;" horiz-adv-x="240" 
d="M141 896q3 -39 28.5 -58.5t63.5 -19.5q45 0 72.5 16.5t44.5 61.5h48q-16 -66 -62 -99t-110 -33q-63 0 -101 33t-33 99h49z" />
    <glyph glyph-name="ring.cap" unicode="&#xe308;" horiz-adv-x="240" 
d="M137 829q3 20 13 38t25 31.5t34.5 21.5t40.5 8q45 0 67.5 -29.5t17.5 -69.5q-3 -21 -13 -39t-25 -31.5t-34.5 -21t-40.5 -7.5q-43 0 -67 28.5t-18 70.5zM179 829q-4 -25 11.5 -41t37.5 -16t41.5 16t23.5 41q4 24 -11.5 40.5t-37.5 16.5t-41.5 -16.5t-23.5 -40.5z" />
    <glyph glyph-name="hungarumlaut.cap" unicode="&#xe309;" horiz-adv-x="240" 
d="M151 758h-67l120 144h96zM308 758h-68l129 144h102z" />
    <glyph glyph-name="dotaccent.cap" unicode="&#xe30a;" horiz-adv-x="240" 
d="M243 878q23 0 36 -16t10 -38q-3 -23 -20.5 -38.5t-40.5 -15.5t-36.5 15.5t-10.5 38.5q3 22 21 38t41 16z" />
    <glyph glyph-name="caron.alt" unicode="&#xe30b;" horiz-adv-x="240" 
d="M188 531h-66l77 177h86z" />
    <glyph glyph-name="commaaccent" unicode="&#xe30c;" horiz-adv-x="240" 
d="M71 -228h-66l76 167h86z" />
    <glyph glyph-name="commaaccent.alt" unicode="&#xe30d;" horiz-adv-x="240" 
d="M223 751h66l-75 -167h-86z" />
    <glyph glyph-name="uniF8FF" unicode="&#xf8ff;" horiz-adv-x="512" 
d="M222 117v67h56v-67h-56zM225 234l-2 17q0 56 13 81q7 13 18 27.5t28 31.5q32 30 41 47.5t9 35.5q0 36 -22.5 60.5t-53.5 24.5t-53.5 -22t-28.5 -73l-50 8q7 72 44 104.5t91 32.5t89 -35.5t35 -95.5q0 -32 -12.5 -58.5t-50.5 -61.5q-37 -33 -43 -52q-6 -20 -6 -72h-46z
M462 50v617h-412v-617h412zM512 718v-718h-512v718h512z" />
    <glyph glyph-name="fi" unicode="&#xfb01;" horiz-adv-x="537" 
d="M362 402h-114l-56 -402h-78l56 402h-102l9 66h102l15 105q6 43 19 78.5t36 61.5t57 40.5t81 14.5q15 0 31.5 -3t27.5 -9l-21 -70q-12 5 -25 7.5t-27 2.5q-30 0 -48.5 -10.5t-29 -29t-16 -44.5t-9.5 -56l-13 -88h114zM443 468h78l-65 -468h-78zM451 651q3 23 22 40t43 17
t38 -17t11 -40q-4 -25 -22 -41t-43 -16t-39 16t-10 41z" />
    <glyph glyph-name="fl" unicode="&#xfb02;" horiz-adv-x="537" 
d="M170 402h-102l9 66h102l15 105q6 43 19 78.5t36 61.5t57 40.5t81 14.5q15 0 31.5 -3t27.5 -9l-21 -70q-12 5 -25 7.5t-27 2.5q-30 0 -48.5 -10.5t-29 -29t-16 -44.5t-9.5 -56l-13 -88h114l-9 -66h-114l-56 -402h-78zM484 756h78l-106 -756h-78z" />
    </font>
</defs>
</svg>
